osu file format v14

[General]
AudioFilename: audio.mp3
AudioLeadIn: 0
PreviewTime: 46026
Countdown: 0
SampleSet: None
StackLeniency: 0.7
Mode: 0
LetterboxInBreaks: 0
WidescreenStoryboard: 0

[Editor]
DistanceSpacing: 1.1
BeatDivisor: 4
GridSize: 4
TimelineZoom: 1

[Metadata]
Title:DetaramE KiddinG
TitleUnicode:DetaramE KiddinG
Artist:REOL
ArtistUnicode:REOL
Creator:Janpai
Version:Easy
Source:
Tags:Σ Sigma れをる ギガ Giga お菊 Okiku Hazu-
BeatmapID:1253017
BeatmapSetID:523609

[Difficulty]
HPDrainRate:2
CircleSize:3
OverallDifficulty:2
ApproachRate:3
SliderMultiplier:1.6
SliderTickRate:2

[Events]
//Background and Video events
0,0,"DK BG.jpg",0,0
//Break Periods
//Storyboard Layer 0 (Background)
//Storyboard Layer 1 (Fail)
//Storyboard Layer 2 (Pass)
//Storyboard Layer 3 (Foreground)
//Storyboard Sound Samples

[TimingPoints]
616,821.917808219178,4,2,1,40,1,0
5958,-100,4,2,0,60,0,0
7191,-100,4,2,1,60,0,0
33492,-100,4,2,1,50,0,0
40068,-100,4,2,1,70,0,0
46643,-100,4,2,2,80,0,1
72944,-100,4,2,1,60,0,0

[Colours]
Combo1 : 240,196,136
Combo2 : 115,15,50
Combo3 : 166,136,136
Combo4 : 128,128,128

[HitObjects]
21,93,616,6,0,B|145:45|145:141|269:93,1,240,8|8,0:0|0:0,0:0:0:0:
332,57,2259,2,0,P|383:39|494:165,1,240,8|8,0:0|0:0,0:0:0:0:
486,243,3903,6,0,B|408:231|408:231|339:252|339:252|244:235,1,240,8|8,0:0|0:0,0:0:0:0:
192,172,5547,1,2,0:0:0:0:
126,230,5958,2,0,P|135:270|134:322,2,80,8|8|8,0:0|0:0|0:0,0:0:0:0:
48,187,7191,6,0,P|35:145|111:63,1,160,6|8,0:0|0:0,0:0:0:0:
187,37,8424,1,2,0:0:0:0:
259,87,8835,2,0,L|345:81,1,80,0|8,0:0|0:3,0:0:0:0:
426,70,9657,2,0,P|447:101|449:156,1,80,8|0,0:0|0:0,0:0:0:0:
406,218,10479,6,0,P|348:198|265:254,1,160,2|8,0:0|0:0,0:0:0:0:
221,320,11711,1,2,0:0:0:0:
138,289,12122,2,0,L|135:194,1,80,0|8,0:0|0:3,0:0:0:0:
63,158,12944,2,0,L|60:63,1,80,8|0,0:0|0:0,0:0:0:0:
136,33,13766,5,2,0:0:0:0:
207,83,14177,2,0,P|244:90|302:75,1,80,0|8,0:0|0:0,0:0:0:0:
356,32,14999,1,2,0:0:0:0:
435,70,15410,2,0,L|444:235,1,160,0|8,0:0|0:0,0:0:0:0:
398,305,16643,1,0,0:0:0:0:
321,348,17054,6,0,P|282:355|201:271,1,160,2|8,0:0|0:0,0:0:0:0:
200,191,18287,1,2,0:0:0:0:
200,102,18698,2,0,L|287:92,2,80,0|8|8,0:0|0:3|0:0,0:0:0:0:
126,52,19931,1,2,0:3:0:0:
59,109,20342,6,0,P|46:159|41:196,1,80,6|0,0:0|0:0,0:0:0:0:
55,273,21163,2,0,B|171:317|171:225|299:273,1,240,8|8,0:0|0:3,0:0:0:0:
372,296,22807,2,0,L|376:208,1,80,8|0,0:0|0:0,0:0:0:0:
331,139,23629,6,0,P|294:122|255:122,1,80,2|0,0:0|0:0,0:0:0:0:
205,195,24451,2,0,P|173:155|279:38,1,240,8|8,0:0|0:3,0:0:0:0:
351,72,26095,2,0,L|438:68,1,80,8|0,0:0|0:0,0:0:0:0:
462,150,26917,6,0,P|466:211|455:327,1,160,6|8,0:0|0:0,0:0:0:0:
376,342,28150,1,2,0:0:0:0:
304,290,28561,2,0,P|265:265|158:316,1,160,0|8,0:0|0:0,0:0:0:0:
104,364,29794,1,0,0:0:0:0:
38,304,30205,6,0,L|24:211,1,80,2|0,0:0|0:0,0:0:0:0:
33,137,31026,2,0,L|126:123,1,80,8|2,0:0|0:0,0:0:0:0:
198,106,31848,2,0,P|187:68|178:23,2,80,0|8|8,0:0|0:3|0:0,0:0:0:0:
262,166,33081,1,2,0:3:0:0:
326,105,33492,6,0,L|454:94,2,120,12|8|8,0:0|0:0|0:0,0:0:0:0:
243,72,35136,2,0,P|207:45|100:82,1,160,8|8,0:0|0:0,0:0:0:0:
69,155,36369,1,8,0:0:0:0:
36,236,36780,6,0,B|24:284|24:284|43:354,2,120,8|8|8,0:0|0:0|0:0,0:0:0:0:
69,155,38424,2,0,B|140:133|140:133|237:150,1,160,8|8,0:0|0:0,0:0:0:0:
301,190,39657,1,8,0:0:0:0:
367,132,40068,5,8,0:3:0:0:
401,50,40479,2,0,P|438:81|432:192,1,160,8|8,0:0|0:0,0:0:0:0:
372,244,41711,1,4,0:3:0:0:
306,302,42122,2,0,B|253:321|253:321|146:309,1,160,8|8,0:0|0:0,0:0:0:0:
256,192,43355,12,6,44999,0:0:0:0:
45,105,46643,6,0,L|131:94,1,80,6|0,0:0|0:0,0:0:0:0:
194,41,47465,2,0,L|280:52,1,80,8|2,0:0|0:0,0:0:0:0:
359,33,48287,2,0,B|387:77|387:77|380:186,1,160,0|8,0:0|0:0,0:0:0:0:
319,249,49520,1,0,0:0:0:0:
349,331,49931,6,0,P|387:343|440:327,1,80,2|0,0:0|0:0,0:0:0:0:
493,278,50752,2,0,P|505:240|489:187,1,80,8|2,0:0|0:0,0:0:0:0:
455,123,51574,2,0,P|418:148|308:121,1,160,0|8,0:0|0:0,0:0:0:0:
250,61,52807,1,0,0:0:0:0:
162,69,53218,6,0,P|154:107|155:164,1,80,6|0,0:0|0:0,0:0:0:0:
191,227,54040,2,0,P|229:235|286:234,1,80,8|2,0:0|0:0,0:0:0:0:
334,175,54862,2,0,P|362:156|474:202,1,160,0|8,0:0|0:0,0:0:0:0:
506,274,56095,1,0,0:0:0:0:
442,334,56506,6,0,L|349:339,1,80,2|0,0:0|0:0,0:0:0:0:
277,311,57328,2,0,P|230:301|196:314,1,80,8|2,0:0|0:0,0:0:0:0:
122,351,58150,1,0,0:0:0:0:
47,303,58561,2,0,B|27:200,1,80,8|8,0:3|0:0,0:0:0:0:
4,140,59383,1,2,0:0:0:0:
36,58,59794,6,0,P|72:51|117:69,1,80,6|0,0:0|0:0,0:0:0:0:
165,133,60615,2,0,P|201:140|246:122,1,80,8|2,0:0|0:0,0:0:0:0:
310,71,61437,2,0,L|293:-7,2,80,0|8|8,0:0|0:3|0:0,0:0:0:0:
393,100,62670,1,0,0:0:0:0:
447,30,63081,6,0,P|478:70|480:112,1,80,2|0,0:0|0:0,0:0:0:0:
439,175,63903,2,0,P|408:215|406:257,1,80,8|2,0:0|0:0,0:0:0:0:
421,329,64725,2,0,L|501:318,2,80,0|8|8,0:0|0:3|0:0,0:0:0:0:
339,362,65958,1,0,0:0:0:0:
267,310,66369,6,0,L|269:214,1,80,6|0,0:0|0:0,0:0:0:0:
324,162,67191,2,0,L|322:66,1,80,8|2,0:0|0:0,0:0:0:0:
248,33,68013,2,0,P|207:19|110:82,1,160,0|8,0:0|0:0,0:0:0:0:
69,150,69246,1,0,0:0:0:0:
130,212,69657,6,0,L|136:310,1,80,2|0,0:0|0:0,0:0:0:0:
207,341,70479,2,0,B|245:329|245:329|296:336,1,80,8|2,0:0|0:0,0:0:0:0:
371,346,71300,2,0,B|409:358|409:358|460:351,2,80,0|8|8,0:0|0:3|0:0,0:0:0:0:
335,265,72533,1,2,0:0:0:0:
297,185,72944,1,6,0:0:0:0:
179,315,73766,6,0,L|130:305,1,40,4|0,0:3|0:0,0:0:0:0:
