osu file format v14

[General]
AudioFilename: audio.mp3
AudioLeadIn: 0
PreviewTime: 54878
Countdown: 0
SampleSet: Soft
StackLeniency: 0.7
Mode: 0
LetterboxInBreaks: 0
WidescreenStoryboard: 0

[Editor]
DistanceSpacing: 3.5
BeatDivisor: 4
GridSize: 4
TimelineZoom: 2.3

[Metadata]
Title:404 not found
TitleUnicode:404 not found
Artist:REOL
ArtistUnicode:REOL
Creator:elena2705
Version:Light Insane
Source:
Tags:Σ sigma ギガ giga お菊 okiku れをる
BeatmapID:1398785
BeatmapSetID:660195

[Difficulty]
HPDrainRate:4
CircleSize:3.7
OverallDifficulty:4
ApproachRate:7.8
SliderMultiplier:1.75
SliderTickRate:1

[Events]
//Background and Video events
0,0,"Pixiv.Id.5513476.full.1688090.jpg",0,0
//Break Periods
//Storyboard Layer 0 (Background)
//Storyboard Layer 1 (Fail)
//Storyboard Layer 2 (Pass)
//Storyboard Layer 3 (Foreground)
//Storyboard Sound Samples

[TimingPoints]
664,428.571428571429,4,2,1,30,1,0
664,-200,4,2,1,30,0,0
14378,-142.857142857143,4,2,1,40,0,0
55521,-111.111111111111,4,2,1,70,0,1
81235,-111.111111111111,4,2,1,70,0,0
83806,-76.9230769230769,4,2,1,70,0,0
84235,-142.857142857143,4,2,1,70,0,0
84664,-52.6315789473684,4,2,1,70,0,0
85521,-142.857142857143,4,2,1,70,0,0
86378,-111.111111111111,4,2,1,70,0,0
87664,-52.6315789473684,4,2,1,70,0,0
88092,-142.857142857143,4,2,1,70,0,0
88949,-90.9090909090909,4,2,1,70,0,0
89806,-52.6315789473684,4,2,1,70,0,0
90664,-111.111111111111,4,2,1,70,0,0
91521,-52.6315789473684,4,2,1,70,0,0
92164,-142.857142857143,4,2,1,70,0,0
93235,-111.111111111111,4,2,1,70,0,0
94092,-52.6315789473684,4,2,1,70,0,0
94521,-111.111111111111,4,2,1,70,0,0
95806,-111.111111111111,4,2,1,70,0,0
99235,-111.111111111111,4,2,1,5,0,0

[Colours]
Combo1 : 41,46,203
Combo2 : 240,170,230
Combo3 : 159,97,237
Combo4 : 86,205,231

[HitObjects]
340,56,664,6,0,B|302:112|302:112|341:169|400:159,1,175,4|8,0:1|0:0,0:0:0:0:
251,181,2378,6,0,P|320:232|406:242,1,175,4|8,0:1|0:0,0:0:0:0:
125,44,4092,6,0,B|146:92|146:92|119:111|119:111|144:156|114:200,1,175,4|8,0:1|0:0,0:0:0:0:
223,152,5806,6,0,L|37:152,1,175,0|8,0:0|0:0,0:0:0:0:
350,342,7521,6,0,P|369:270|289:277,1,175,4|8,0:1|0:0,0:0:0:0:
330,298,9235,6,0,B|398:229|398:229|454:226|470:174,1,175,4|8,0:1|0:0,0:0:0:0:
330,33,10949,6,0,B|259:100|170:58|170:58|159:139|102:162|102:162|90:207,1,350,4|4,0:1|0:1,0:0:0:0:
90,206,13735,5,0,0:0:0:0:
305,313,13949,1,0,3:0:0:0:
255,192,14164,1,0,0:0:0:0:
345,73,14378,6,0,P|380:108|465:96,1,122.499996261597,4|0,0:0|0:0,0:0:0:0:
491,87,14914,1,2,0:0:0:0:
491,87,15021,1,4,0:0:0:0:
386,222,15235,2,0,L|351:301,1,61.2499981307984,8|4,0:0|0:0,0:0:0:0:
231,357,15664,2,0,L|262:288,1,61.2499981307984,0|2,0:0|0:0,0:0:0:0:
292,198,16092,5,4,0:1:0:0:
49,264,16306,1,2,0:0:0:0:
183,72,16521,1,4,0:0:0:0:
66,238,16735,1,0,0:0:0:0:
183,72,16949,2,0,L|331:42,1,122.499996261597,8|0,0:0|0:0,0:0:0:0:
394,34,17592,1,2,0:0:0:0:
381,124,17806,6,0,P|360:158|353:196,1,61.2499981307984,4|2,0:0|0:0,0:0:0:0:
354,270,18235,1,0,0:0:0:0:
354,270,18342,1,2,0:0:0:0:
354,270,18449,1,4,0:0:0:0:
226,240,18664,2,0,P|231:288|222:318,1,61.2499981307984,8|0,0:0|0:0,0:0:0:0:
139,168,19092,2,0,P|131:202|140:238,1,61.2499981307984,0|2,0:0|0:0,0:0:0:0:
242,132,19521,5,4,0:1:0:0:
69,62,19735,1,4,0:0:0:0:
69,62,19949,1,4,0:0:0:0:
139,168,20164,2,0,P|119:165|101:152,2,30.6249990653992,2|0|8,0:0|3:0|0:0,0:0:0:0:
259,103,20592,1,4,3:2:0:0:
267,89,20699,1,0,3:0:0:0:
277,79,20806,1,0,3:0:0:0:
291,71,20913,1,0,3:0:0:0:
305,67,21020,1,2,3:2:0:0:
320,66,21127,1,0,3:0:0:0:
333,64,21235,6,0,P|335:110|401:164,1,122.499996261597,4|0,0:0|0:0,0:0:0:0:
432,169,21771,1,2,0:0:0:0:
432,169,21878,1,4,0:0:0:0:
316,260,22092,2,0,L|279:329,1,61.2499981307984,8|2,0:0|0:0,0:0:0:0:
234,201,22521,2,0,L|191:273,1,61.2499981307984,0|2,0:0|0:0,0:0:0:0:
46,33,22949,5,4,0:1:0:0:
89,122,23164,1,2,0:0:0:0:
176,301,23378,1,4,0:0:0:0:
0,207,23592,1,0,0:0:0:0:
197,180,23806,1,8,0:0:0:0:
54,318,24021,1,0,0:0:0:0:
89,122,24235,1,0,0:0:0:0:
100,228,24449,1,2,0:0:0:0:
186,69,24664,6,0,B|265:82,1,61.2499981307984,4|0,0:0|0:0,0:0:0:0:
342,98,25092,1,0,0:0:0:0:
342,98,25199,1,2,0:0:0:0:
342,98,25306,1,4,0:0:0:0:
458,171,25521,2,0,P|468:206|465:240,1,61.2499981307984,8|0,0:0|0:0,0:0:0:0:
376,284,25949,2,0,P|365:245|377:209,1,61.2499981307984,0|2,0:0|0:0,0:0:0:0:
253,192,26378,5,4,0:1:0:0:
26,149,26592,1,4,0:0:0:0:
26,149,26806,1,4,0:0:0:0:
62,59,27021,1,2,0:0:0:0:
62,59,27128,1,0,3:0:0:0:
62,59,27235,2,0,L|39:25,2,30.6249990653992,8|0|4,0:0|3:0|3:2,0:0:0:0:
124,169,27556,1,0,3:0:0:0:
124,169,27664,2,0,L|146:211,1,30.6249990653992,2|0,3:3|3:0,0:0:0:0:
68,231,27878,2,0,L|91:276,1,30.6249990653992,2|0,3:3|3:0,0:0:0:0:
133,341,28092,6,0,P|197:324|263:346,1,122.499996261597,4|0,0:0|0:0,0:0:0:0:
294,350,28628,1,2,0:0:0:0:
294,350,28735,1,4,0:0:0:0:
411,312,28949,2,0,P|432:278|429:244,1,61.2499981307984,8|4,0:0|0:0,0:0:0:0:
444,116,29378,2,0,P|427:149|433:188,1,61.2499981307984,0|2,0:0|0:0,0:0:0:0:
374,50,29806,6,0,P|349:86|342:121,1,61.2499981307984,4|2,0:1|0:0,0:0:0:0:
444,116,30235,1,4,0:0:0:0:
353,262,30449,1,0,0:0:0:0:
151,262,30664,2,0,B|216:228|216:228|264:237,1,122.499996261597,8|0,0:0|0:0,0:0:0:0:
246,129,31306,1,0,3:0:0:0:
246,129,31414,1,0,3:0:0:0:
246,129,31521,5,4,0:0:0:0:
198,50,31735,1,2,0:0:0:0:
85,191,31949,1,0,0:0:0:0:
85,191,32056,1,2,0:0:0:0:
85,191,32164,1,4,0:0:0:0:
117,282,32378,2,0,L|143:357,1,61.2499981307984,8|0,0:0|0:0,0:0:0:0:
219,180,32806,2,0,L|216:243,1,61.2499981307984,0|2,0:0|0:0,0:0:0:0:
213,333,33235,5,4,0:1:0:0:
388,293,33449,1,4,0:0:0:0:
388,293,33664,1,4,0:0:0:0:
429,210,33878,2,0,L|462:223,2,30.6249990653992,2|0|8,0:0|3:0|0:0,0:0:0:0:
326,90,34306,1,4,3:2:0:0:
319,76,34413,1,0,3:0:0:0:
310,63,34520,1,0,3:0:0:0:
299,53,34627,1,0,3:0:0:0:
286,45,34734,1,2,3:2:0:0:
272,39,34841,1,0,3:0:0:0:
258,38,34949,6,0,L|199:159,1,122.499996261597,4|0,0:0|0:0,0:0:0:0:
189,191,35485,1,2,0:0:0:0:
189,191,35592,1,4,0:0:0:0:
74,267,35806,2,0,P|66:301|76:341,1,61.2499981307984,8|4,0:0|0:0,0:0:0:0:
158,301,36235,2,0,P|187:322|232:328,1,61.2499981307984,0|2,0:0|0:0,0:0:0:0:
346,317,36664,6,0,B|366:242,1,61.2499981307984,4|2,0:1|0:0,0:0:0:0:
397,60,37092,1,4,0:0:0:0:
470,269,37306,1,0,0:0:0:0:
432,184,37521,2,0,P|382:147|322:164,1,122.499996261597,8|0,0:0|0:0,0:0:0:0:
255,217,38164,1,2,0:0:0:0:
251,124,38378,6,0,B|245:55,1,61.2499981307984,4|0,0:0|0:0,0:0:0:0:
172,7,38806,1,0,0:0:0:0:
172,7,38914,1,2,0:0:0:0:
172,7,39021,1,4,0:0:0:0:
18,119,39235,2,0,L|89:148,1,61.2499981307984,8|0,0:0|0:0,0:0:0:0:
159,253,39664,2,0,L|90:225,1,61.2499981307984,0|2,0:0|0:0,0:0:0:0:
237,287,40092,5,4,0:1:0:0:
302,90,40306,1,4,0:0:0:0:
302,90,40521,1,4,0:0:0:0:
405,110,40735,1,2,0:0:0:0:
405,110,40842,1,0,3:0:0:0:
405,110,40949,2,0,L|382:73,2,30.6249990653992,8|0|4,0:0|3:0|3:2,0:0:0:0:
456,199,41271,1,0,3:0:0:0:
456,199,41378,2,0,L|444:246,1,30.6249990653992,2|0,3:3|3:0,0:0:0:0:
375,253,41592,2,0,L|395:286,1,30.6249990653992,2|0,3:3|3:0,0:0:0:0:
441,363,41806,6,0,L|304:381,1,122.499996261597,4|0,0:0|0:0,0:0:0:0:
273,381,42342,1,2,0:0:0:0:
273,381,42449,1,4,0:0:0:0:
123,259,42664,1,8,0:0:0:0:
123,259,42878,1,4,0:0:0:0:
254,193,43092,2,0,P|291:204|325:198,1,61.2499981307984,0|2,0:0|0:0,0:0:0:0:
512,161,43521,5,4,0:1:0:0:
299,96,43735,1,2,0:0:0:0:
402,282,43949,1,4,0:0:0:0:
433,53,44164,1,0,0:0:0:0:
313,201,44378,2,0,P|266:195|197:147,1,122.499996261597,8|0,0:0|0:0,0:0:0:0:
163,72,45021,1,2,0:0:0:0:
119,152,45235,6,0,B|96:214,1,61.2499981307984,4|2,0:0|0:0,0:0:0:0:
19,258,45664,1,0,0:0:0:0:
19,258,45771,1,2,0:0:0:0:
19,258,45878,1,4,0:0:0:0:
93,313,46092,2,0,L|216:372,1,122.499996261597,8|0,0:0|0:0,0:0:0:0:
295,368,46735,1,2,0:0:0:0:
252,192,46949,5,4,0:1:0:0:
423,194,47164,1,4,0:0:0:0:
423,194,47378,1,4,0:0:0:0:
423,102,47592,2,0,L|457:125,2,30.6249990653992,2|0|8,0:0|3:0|0:0,0:0:0:0:
298,48,48021,1,4,3:2:0:0:
284,55,48128,1,0,3:0:0:0:
270,61,48235,1,0,3:0:0:0:
255,64,48342,1,0,3:0:0:0:
240,65,48449,1,2,3:2:0:0:
224,64,48556,1,0,3:0:0:0:
211,59,48664,6,0,P|153:44|83:62,1,122.499996261597,4|0,0:0|0:0,0:0:0:0:
51,75,49199,1,2,0:0:0:0:
51,75,49306,1,4,0:0:0:0:
146,189,49521,2,0,L|144:262,1,61.2499981307984,8|4,0:0|0:0,0:0:0:0:
211,120,49949,2,0,L|211:53,1,61.2499981307984,0|2,0:0|0:0,0:0:0:0:
320,72,50378,5,4,0:1:0:0:
498,124,50592,1,2,0:0:0:0:
359,252,50806,1,4,0:0:0:0:
386,152,51021,1,0,0:0:0:0:
426,289,51235,2,0,P|380:327|313:315,1,122.499996261597,8|0,0:0|0:0,0:0:0:0:
262,248,51878,1,2,0:0:0:0:
170,254,52092,6,0,B|126:198,1,61.2499981307984,4|2,0:0|0:0,0:0:0:0:
40,102,52521,1,0,0:0:0:0:
40,102,52628,1,2,0:0:0:0:
40,102,52735,1,4,0:0:0:0:
114,41,52949,2,0,B|90:4|90:4|191:35,1,122.499996261597,8|0,0:0|0:0,0:0:0:0:
206,47,53485,1,0,0:0:0:0:
247,67,53592,1,2,0:0:0:0:
334,38,53806,5,4,0:1:0:0:
436,189,54021,1,4,0:0:0:0:
436,189,54235,1,4,0:0:0:0:
296,246,54449,1,2,0:0:0:0:
281,251,54556,1,0,3:0:0:0:
268,259,54663,1,8,0:0:0:0:
257,270,54770,1,0,3:0:0:0:
248,282,54877,1,4,3:2:0:0:
242,296,54984,1,0,3:0:0:0:
239,311,55091,5,0,3:0:0:0:
227,315,55198,1,4,3:2:0:0:
211,316,55306,1,0,3:0:0:0:
196,317,55413,1,0,3:0:0:0:
135,309,55521,6,0,P|133:253|58:176,1,157.499995193482,4|0,0:0|0:0,0:0:0:0:
18,290,56164,1,4,0:0:0:0:
68,179,56378,2,0,L|104:95,1,78.7499975967408,8|4,0:0|0:0,0:0:0:0:
221,32,56806,2,0,L|191:107,1,78.7499975967408,0|2,0:0|0:0,0:0:0:0:
225,218,57235,5,4,0:1:0:0:
320,102,57449,1,2,0:0:0:0:
512,51,57664,1,4,0:0:0:0:
364,90,57878,1,0,0:0:0:0:
317,282,58092,2,0,B|303:339|303:339|385:246,1,157.499995193482,8|0,0:0|0:0,0:0:0:0:
219,353,58735,1,2,0:0:0:0:
221,235,58949,6,0,P|190:189|152:168,1,78.7499975967408,4|2,0:0|0:0,0:0:0:0:
10,163,59378,1,0,0:0:0:0:
110,281,59592,1,4,0:0:0:0:
222,79,59806,2,0,P|259:38|357:18,1,157.499995193482,8|0,0:0|0:0,0:0:0:0:
469,52,60449,1,2,0:0:0:0:
441,167,60664,6,0,L|417:253,1,78.7499975967408,4|2,0:1|0:0,0:0:0:0:
458,354,61092,1,4,0:0:0:0:
322,348,61306,2,0,L|286:373,2,39.3749987983704,2|0|8,0:0|3:0|0:0,0:0:0:0:
332,235,61735,1,4,3:2:0:0:
323,217,61842,1,0,3:0:0:0:
311,201,61949,1,0,3:0:0:0:
297,187,62056,1,0,3:0:0:0:
281,176,62163,1,2,3:2:0:0:
263,168,62270,1,0,3:0:0:0:
243,166,62378,6,0,B|210:206|210:206|101:199,1,157.499995193482,4|0,0:0|0:0,0:0:0:0:
173,103,63021,1,4,0:0:0:0:
229,297,63235,2,0,P|196:344|170:357,1,78.7499975967408,8|2,0:0|0:0,0:0:0:0:
104,199,63664,1,0,0:0:0:0:
173,103,63878,1,2,0:0:0:0:
229,297,64092,6,0,L|176:227,1,78.7499975967408,4|2,0:1|0:0,0:0:0:0:
69,54,64521,1,4,0:0:0:0:
173,103,64735,1,0,0:0:0:0:
49,239,64949,2,0,P|2:206|61:144,1,157.499995193482,8|0,0:0|0:0,0:0:0:0:
176,183,65592,1,2,0:0:0:0:
176,183,65699,1,0,3:0:0:0:
176,183,65806,6,0,L|277:183,1,78.7499975967408,4|0,0:0|0:0,0:0:0:0:
337,183,66235,1,0,0:0:0:0:
452,181,66449,1,4,0:0:0:0:
302,115,66664,2,0,P|260:180|306:253,1,157.499995193482,8|0,0:0|0:0,0:0:0:0:
401,186,67306,1,2,0:0:0:0:
390,304,67521,5,4,0:1:0:0:
167,353,67735,1,4,0:0:0:0:
167,353,67949,1,4,0:0:0:0:
149,174,68164,1,2,3:2:0:0:
139,156,68271,1,0,3:0:0:0:
135,137,68378,1,8,3:2:0:0:
138,118,68485,1,0,3:0:0:0:
149,102,68592,1,4,3:2:0:0:
164,90,68699,1,0,3:0:0:0:
182,80,68806,5,0,3:0:0:0:
198,69,68913,1,4,3:2:0:0:
213,56,69021,1,0,3:0:0:0:
225,41,69128,1,0,3:0:0:0:
268,24,69235,6,0,B|301:128|301:128|344:81,1,157.499995193482,4|0,0:0|0:0,0:0:0:0:
415,6,69878,1,4,0:0:0:0:
465,112,70092,2,0,B|494:156|481:209,1,78.7499975967408,8|4,0:0|0:0,0:0:0:0:
319,284,70521,1,0,0:0:0:0:
396,174,70735,1,2,0:0:0:0:
223,234,70949,5,4,0:1:0:0:
54,126,71164,1,2,0:0:0:0:
207,321,71378,1,4,0:0:0:0:
70,147,71592,1,0,0:0:0:0:
122,324,71806,2,0,P|149:254|232:237,1,157.499995193482,8|0,0:0|0:0,0:0:0:0:
319,284,72449,1,2,0:0:0:0:
441,345,72664,6,0,B|420:308|420:308|430:247,1,78.7499975967408,4|0,0:0|0:0,0:0:0:0:
475,86,73092,1,0,0:0:0:0:
445,200,73306,1,4,0:0:0:0:
363,127,73521,2,0,P|298:148|202:112,1,157.499995193482,8|0,0:0|0:0,0:0:0:0:
125,45,74164,1,2,0:0:0:0:
40,127,74378,5,4,0:1:0:0:
99,322,74592,1,4,0:0:0:0:
99,322,74806,1,4,0:0:0:0:
206,340,75021,2,0,L|196:379,2,39.3749987983704,2|0|8,0:0|3:0|0:0,0:0:0:0:
315,193,75449,1,4,3:2:0:0:
323,175,75556,1,0,3:0:0:0:
334,158,75663,1,0,3:0:0:0:
347,144,75770,1,0,3:0:0:0:
363,132,75877,1,2,3:2:0:0:
380,123,75984,1,0,3:0:0:0:
395,118,76092,6,0,L|468:267,1,157.499995193482,4|0,0:0|0:0,0:0:0:0:
507,369,76735,1,4,0:0:0:0:
399,320,76949,2,0,B|363:305|363:305|295:306,1,78.7499975967408,8|4,0:0|0:0,0:0:0:0:
132,341,77378,1,0,0:0:0:0:
132,341,77592,1,2,0:0:0:0:
198,243,77806,6,0,P|207:192|186:155,1,78.7499975967408,4|2,0:1|0:0,0:0:0:0:
66,66,78235,1,4,0:0:0:0:
107,202,78449,1,0,0:0:0:0:
180,36,78664,2,0,L|345:-4,1,157.499995193482,8|0,0:0|0:0,0:0:0:0:
369,110,79306,1,2,0:0:0:0:
484,121,79521,6,0,P|482:82|468:46,1,78.7499975967408,4|2,0:0|0:0,0:0:0:0:
351,253,79949,1,0,0:0:0:0:
351,253,80164,1,4,0:0:0:0:
279,159,80378,2,0,P|207:163|239:216,1,157.499995193482,8|0,0:0|0:0,0:0:0:0:
102,260,82949,6,0,B|142:225|142:225|120:197|120:197|146:162|126:114,1,157.499995193482,4|0,0:0|0:0,0:0:0:0:
129,72,83485,1,2,0:0:0:0:
129,72,83592,1,4,0:0:0:0:
299,73,83806,2,0,L|423:73,1,113.749994792938,8|4,0:0|0:0,0:0:0:0:
392,171,84235,1,2,3:3:0:0:
388,186,84342,1,2,3:3:0:0:
382,199,84449,1,2,3:3:0:0:
374,212,84556,1,0,3:0:0:0:
363,225,84664,6,0,B|330:267|359:322|359:322|263:286|263:286|199:327|142:273,1,332.499991121292,4|4,0:1|0:0,0:0:0:0:
429,274,85306,1,2,3:3:0:0:
206,225,85521,6,0,L|189:179,1,40.8333320871989,8|0,3:2|3:0,0:0:0:0:
61,52,85806,2,0,L|101:82,1,40.8333320871989,0|0,3:0|3:0,0:0:0:0:
264,31,86092,2,0,L|219:69,1,40.8333320871989,0|0,3:0|3:0,0:0:0:0:
361,68,86378,6,0,B|288:128|288:128|362:128,1,157.499995193482,4|0,0:0|0:0,0:0:0:0:
469,130,87021,1,4,0:0:0:0:
423,238,87235,2,0,L|395:310,2,52.4999983978272,8|0|0,0:0|3:0|3:0,0:0:0:0:
340,69,87664,6,0,B|267:129|267:129|399:127,1,221.666660747528,2|0,3:3|0:0,0:0:0:0:
298,242,88092,6,0,P|258:254|232:317,1,81.6666641743979,4|0,0:1|0:0,0:0:0:0:
72,98,88521,2,0,P|112:110|138:173,1,81.6666641743979,4|0,0:0|0:0,0:0:0:0:
298,217,88949,6,0,P|228:257|212:328,1,128.333337249756,8|0,0:0|0:0,0:0:0:0:
63,71,89378,2,0,P|137:98|170:163,1,128.333337249756,2|0,3:3|0:0,0:0:0:0:
340,69,89806,6,0,B|225:66|225:66|279:186|405:150,1,332.499991121292,4|0,0:0|0:0,0:0:0:0:
473,72,90449,1,4,0:0:0:0:
257,115,90664,6,0,P|323:155|401:150,1,157.499995193482,8|0,0:0|0:0,0:0:0:0:
163,136,91306,1,2,0:0:0:0:
216,191,91521,6,0,P|87:151|193:67,1,332.499991121292,4|4,0:1|0:0,0:0:0:0:
246,275,92164,6,0,L|247:319,1,30.6249990653992,0|0,3:0|3:0,0:0:0:0:
298,211,92378,2,0,L|298:167,1,30.6249990653992,8|0,3:2|3:0,0:0:0:0:
340,278,92592,2,0,L|340:322,1,30.6249990653992,2|0,3:3|3:0,0:0:0:0:
389,213,92806,2,0,L|389:169,1,30.6249990653992,2|0,3:3|3:0,0:0:0:0:
443,275,93021,2,0,L|443:316,1,30.6249990653992,2|0,3:3|3:0,0:0:0:0:
459,139,93235,6,0,B|459:58|459:58|379:83,1,157.499995193482,4|0,0:0|0:0,0:0:0:0:
356,195,93878,1,4,0:0:0:0:
459,139,94092,6,0,B|459:58|459:58|373:85,1,166.249995560646,8|0,0:0|3:0,0:0:0:0:
356,195,94521,1,0,3:0:0:0:
356,195,94628,1,0,3:0:0:0:
356,195,94735,1,2,3:2:0:0:
238,198,94949,5,4,0:1:0:0:
90,66,95164,1,4,0:0:0:0:
90,66,95378,1,4,0:0:0:0:
76,183,95592,1,0,0:0:0:0:
143,314,95806,5,8,3:2:0:0:
162,312,95913,1,0,3:0:0:0:
182,311,96020,1,4,3:2:0:0:
201,310,96127,1,0,3:0:0:0:
257,227,96235,2,0,L|307:238,1,39.3749987983704,2|0,3:3|3:0,0:0:0:0:
322,337,96449,2,0,L|368:313,1,39.3749987983704,2|2,3:3|3:0,0:0:0:0:
256,192,96664,12,8,99235,0:0:0:0:
