osu file format v14

[General]
AudioFilename: audio.mp3
AudioLeadIn: 0
PreviewTime: 54878
Countdown: 0
SampleSet: Soft
StackLeniency: 0.7
Mode: 0
LetterboxInBreaks: 0
WidescreenStoryboard: 0

[Editor]
DistanceSpacing: 1
BeatDivisor: 4
GridSize: 4
TimelineZoom: 2.3

[Metadata]
Title:404 not found
TitleUnicode:404 not found
Artist:REOL
ArtistUnicode:REOL
Creator:elena2705
Version:Insane
Source:
Tags:Σ sigma ギガ giga お菊 okiku れをる
BeatmapID:1397989
BeatmapSetID:660195

[Difficulty]
HPDrainRate:5
CircleSize:2.9
OverallDifficulty:6
ApproachRate:9
SliderMultiplier:1.8
SliderTickRate:1

[Events]
//Background and Video events
0,0,"Pixiv.Id.5513476.full.1688090.jpg",0,0
//Break Periods
//Storyboard Layer 0 (Background)
//Storyboard Layer 1 (Fail)
//Storyboard Layer 2 (Pass)
//Storyboard Layer 3 (Foreground)
//Storyboard Sound Samples

[TimingPoints]
664,428.571428571429,4,2,1,30,1,0
664,-200,4,2,1,30,0,0
14378,-142.857142857143,4,2,1,40,0,0
55521,-111.111111111111,4,2,1,70,0,1
81235,-111.111111111111,4,2,1,70,0,0
83806,-76.9230769230769,4,2,1,70,0,0
84235,-142.857142857143,4,2,1,70,0,0
84664,-52.6315789473684,4,2,1,70,0,0
85521,-142.857142857143,4,2,1,70,0,0
86378,-111.111111111111,4,2,1,70,0,0
87664,-52.6315789473684,4,2,1,70,0,0
88092,-142.857142857143,4,2,1,70,0,0
88949,-90.9090909090909,4,2,1,70,0,0
89806,-52.6315789473684,4,2,1,70,0,0
90664,-111.111111111111,4,2,1,70,0,0
91521,-52.6315789473684,4,2,1,70,0,0
92164,-142.857142857143,4,2,1,70,0,0
93235,-111.111111111111,4,2,1,70,0,0
94092,-52.6315789473684,4,2,1,70,0,0
95806,-111.111111111111,4,2,1,70,0,0
99235,-111.111111111111,4,2,1,5,0,0

[Colours]
Combo1 : 41,46,203
Combo2 : 240,170,230
Combo3 : 159,97,237
Combo4 : 86,205,231

[HitObjects]
173,279,664,6,0,P|255:241|327:282,1,180,4|8,0:1|0:0,0:0:0:0:
250,337,2378,6,0,L|250:157,1,180,4|8,0:1|0:0,0:0:0:0:
439,48,4092,6,0,B|314:80|314:80|356:122,1,180,4|8,0:1|0:0,0:0:0:0:
249,163,5806,6,0,P|194:88|239:6,1,180,4|8,0:1|0:0,0:0:0:0:
251,346,7521,6,0,B|221:279|269:220|269:220|213:228,1,180,4|8,0:1|0:0,0:0:0:0:
347,295,9235,6,0,P|398:296|444:274,1,90,4|0,0:1|0:0,0:0:0:0:
359,119,10092,2,0,L|380:224,1,90,8|0,0:0|0:0,0:0:0:0:
65,123,10949,6,0,B|52:66|52:66|119:24|177:76,1,180,4|8,0:1|0:0,0:0:0:0:
77,331,12664,6,0,P|144:282|71:267,1,180,4|8,0:1|0:0,0:0:0:0:
343,296,13735,5,0,0:0:0:0:
105,294,13949,1,0,3:0:0:0:
380,220,14164,1,0,0:0:0:0:
252,43,14378,6,0,B|277:83|277:83|358:111,1,125.999996154785,4|0,0:0|0:0,0:0:0:0:
396,44,14914,2,0,L|358:28,1,31.4999990386963,2|4,0:0|0:0,0:0:0:0:
325,314,15235,2,0,P|315:260|298:238,1,62.9999980773926,8|4,0:0|0:0,0:0:0:0:
245,302,15664,2,0,P|226:269|197:255,1,62.9999980773926,0|2,0:0|0:0,0:0:0:0:
75,174,16092,6,0,P|60:147|58:116,1,62.9999980773926,4|2,0:1|0:0,0:0:0:0:
183,20,16521,1,4,0:0:0:0:
146,124,16735,1,0,0:0:0:0:
80,315,16949,2,0,B|71:350|71:350|158:302,1,125.999996154785,8|0,0:0|0:0,0:0:0:0:
227,252,17592,1,2,0:0:0:0:
263,41,17806,6,0,P|252:73|260:126,1,62.9999980773926,4|2,0:0|0:0,0:0:0:0:
415,62,18235,1,0,0:0:0:0:
335,90,18342,2,0,P|349:117|360:128,1,31.4999990386963,2|4,0:0|0:0,0:0:0:0:
442,374,18664,2,0,L|377:353,1,62.9999980773926,8|0,0:0|0:0,0:0:0:0:
299,308,19092,2,0,L|219:331,1,62.9999980773926,0|2,0:0|0:0,0:0:0:0:
81,133,19521,5,4,0:1:0:0:
154,350,19735,1,4,0:0:0:0:
140,357,19949,1,4,0:0:0:0:
158,190,20164,1,2,0:0:0:0:
158,190,20271,1,0,3:0:0:0:
158,190,20378,1,8,0:0:0:0:
287,47,20592,6,0,L|329:39,1,31.4999990386963,4|0,3:2|3:0,0:0:0:0:
328,170,20806,2,0,L|376:177,1,31.4999990386963,0|0,3:0|3:0,0:0:0:0:
434,77,21021,2,0,L|487:71,1,31.4999990386963,2|0,3:2|3:0,0:0:0:0:
234,322,21235,6,0,L|363:299,1,125.999996154785,4|0,0:0|0:0,0:0:0:0:
424,348,21771,2,0,P|434:315|434:301,1,31.4999990386963,2|4,0:0|0:0,0:0:0:0:
317,41,22092,2,0,L|235:57,1,62.9999980773926,8|4,0:0|0:0,0:0:0:0:
389,185,22521,2,0,L|306:164,1,62.9999980773926,0|2,0:0|0:0,0:0:0:0:
135,75,22949,5,4,0:1:0:0:
88,253,23164,1,2,0:0:0:0:
209,100,23378,2,0,P|204:141|224:176,1,62.9999980773926,4|0,0:0|0:0,0:0:0:0:
299,127,23806,2,0,P|320:156|354:171,1,62.9999980773926,8|0,0:0|0:0,0:0:0:0:
452,46,24235,1,0,0:0:0:0:
295,300,24449,1,2,0:0:0:0:
444,172,24664,6,0,L|403:240,1,62.9999980773926,4|2,0:0|0:0,0:0:0:0:
492,102,25092,1,0,0:0:0:0:
444,172,25199,2,0,L|418:215,1,31.4999990386963,2|4,0:0|0:0,0:0:0:0:
116,328,25521,1,8,0:0:0:0:
175,254,25735,1,0,0:0:0:0:
236,57,25949,2,0,P|228:117|264:195,1,125.999996154785,0|4,0:0|0:1,0:0:0:0:
493,29,26592,5,4,0:0:0:0:
482,39,26806,1,4,0:0:0:0:
409,220,27021,1,2,0:0:0:0:
409,220,27128,1,0,3:0:0:0:
409,220,27235,2,0,L|455:207,1,31.4999990386963,8|0,0:0|3:0,0:0:0:0:
315,267,27449,1,4,3:2:0:0:
315,267,27556,2,0,L|363:295,1,31.4999990386963,0|2,3:0|3:3,0:0:0:0:
210,302,27771,1,4,3:2:0:0:
210,302,27878,2,0,L|230:348,1,31.4999990386963,2|0,3:3|3:0,0:0:0:0:
106,44,28092,6,0,B|57:76|57:76|47:172,1,125.999996154785,4|0,0:0|0:0,0:0:0:0:
125,168,28628,2,0,P|107:197|102:202,1,31.4999990386963,2|4,0:0|0:0,0:0:0:0:
315,267,28949,2,0,B|272:218,1,62.9999980773926,8|4,0:0|0:0,0:0:0:0:
173,97,29378,1,0,0:0:0:0:
305,114,29592,1,2,0:0:0:0:
154,252,29806,6,0,L|99:191,1,62.9999980773926,4|2,0:1|0:0,0:0:0:0:
362,181,30235,2,0,L|423:242,1,62.9999980773926,4|0,0:0|0:0,0:0:0:0:
423,114,30664,2,0,P|358:93|293:125,1,125.999996154785
52,235,31306,1,2,0:0:0:0:
52,235,31414,1,0,3:0:0:0:
52,235,31521,6,0,B|52:154,1,62.9999980773926,4|0,0:0|0:0,0:0:0:0:
190,18,31949,1,0,0:0:0:0:
125,90,32056,2,0,L|125:132,1,31.4999990386963,2|4,0:0|0:0,0:0:0:0:
151,369,32378,1,8,0:0:0:0:
328,139,32592,1,0,0:0:0:0:
345,326,32806,1,0,0:0:0:0:
252,346,33021,1,2,0:0:0:0:
369,71,33235,5,4,0:1:0:0:
440,304,33449,1,4,0:0:0:0:
428,311,33664,1,4,0:0:0:0:
392,149,33878,1,2,0:0:0:0:
392,149,33985,1,0,3:0:0:0:
392,149,34092,1,8,0:0:0:0:
65,68,34306,6,0,L|87:109,1,31.4999990386963,4|0,3:2|3:0,0:0:0:0:
183,308,34521,2,0,L|183:257,1,31.4999990386963,0|0,3:0|3:0,0:0:0:0:
286,71,34735,2,0,L|268:109,1,31.4999990386963,2|0,3:2|3:0,0:0:0:0:
392,149,34949,6,0,B|347:242|347:242|382:241,1,125.999996154785,4|0,0:0|0:0,0:0:0:0:
342,319,35485,2,0,L|393:319,1,31.4999990386963,2|4,0:0|0:0,0:0:0:0:
160,318,35806,1,8,0:0:0:0:
36,258,36021,1,0,0:0:0:0:
287,8,36235,1,0,0:0:0:0:
340,136,36449,1,2,0:0:0:0:
371,42,36664,6,0,P|412:71|431:101,1,62.9999980773926,4|2,0:1|0:0,0:0:0:0:
352,231,37092,1,4,0:0:0:0:
287,8,37306,1,0,0:0:0:0:
146,177,37521,2,0,L|227:72,1,125.999996154785,8|0,0:0|0:0,0:0:0:0:
286,362,38164,1,2,0:0:0:0:
286,362,38271,1,0,3:0:0:0:
286,362,38378,6,0,P|344:353|364:336,1,62.9999980773926,4|2,0:0|0:0,0:0:0:0:
305,250,38699,1,0,0:0:0:0:
305,250,38806,1,0,0:0:0:0:
305,250,38914,2,0,L|304:290,1,31.4999990386963,2|4,0:0|0:0,0:0:0:0:
312,18,39235,2,0,L|308:107,1,62.9999980773926,8|0,0:0|0:0,0:0:0:0:
163,289,39664,2,0,L|169:196,1,62.9999980773926,0|2,0:0|0:0,0:0:0:0:
185,20,40092,5,4,0:1:0:0:
5,199,40306,1,4,0:0:0:0:
19,203,40521,1,4,0:0:0:0:
421,140,40735,5,2,0:0:0:0:
421,140,40842,1,0,3:0:0:0:
421,140,40949,2,0,L|383:170,1,31.4999990386963,8|0,0:0|3:0,0:0:0:0:
355,89,41164,2,0,L|329:114,1,31.4999990386963,4|0,3:2|3:0,0:0:0:0:
291,37,41378,2,0,L|257:71,1,31.4999990386963,2|4,3:3|3:2,0:0:0:0:
483,188,41592,2,0,L|448:225,1,31.4999990386963,2|0,3:3|3:0,0:0:0:0:
319,325,41806,6,0,B|293:355|293:355|195:357,1,125.999996154785,4|0,0:0|0:0,0:0:0:0:
198,279,42342,2,0,L|253:276,1,31.4999990386963,2|4,0:0|0:0,0:0:0:0:
262,46,42664,1,8,0:0:0:0:
167,49,42878,1,4,0:0:0:0:
35,261,43092,1,0,0:0:0:0:
115,211,43306,1,2,0:0:0:0:
359,47,43521,5,4,0:1:0:0:
453,49,43735,1,2,0:0:0:0:
296,280,43949,1,4,0:0:0:0:
376,161,44164,1,0,0:0:0:0:
402,360,44378,1,8,0:0:0:0:
212,291,44592,1,0,3:0:0:0:
212,291,44699,1,0,3:0:0:0:
212,291,44806,1,0,3:0:0:0:
486,254,45021,1,2,0:0:0:0:
453,56,45235,6,0,P|470:98|473:140,1,62.9999980773926,4|2,0:0|0:0,0:0:0:0:
337,128,45664,1,0,0:0:0:0:
337,128,45771,1,2,0:0:0:0:
337,128,45878,1,4,0:0:0:0:
127,143,46092,2,0,B|229:136|229:136|218:166,1,125.999996154785,8|0,0:0|0:0,0:0:0:0:
149,336,46735,1,2,0:0:0:0:
384,335,46949,5,4,0:1:0:0:
372,55,47164,1,4,0:0:0:0:
362,64,47378,1,4,0:0:0:0:
149,336,47592,1,2,0:0:0:0:
149,336,47699,1,0,3:0:0:0:
149,336,47806,1,8,0:0:0:0:
95,124,48021,2,0,L|63:119,1,31.4999990386963,4|0,0:0|3:0,0:0:0:0:
212,146,48235,2,0,L|180:140,1,31.4999990386963,0|0,3:0|3:0,0:0:0:0:
331,168,48449,2,0,L|300:161,1,31.4999990386963,2|0,3:2|3:0,0:0:0:0:
410,37,48664,6,0,P|398:98|425:185,1,125.999996154785,4|0,0:0|0:0,0:0:0:0:
331,168,49199,2,0,P|337:190|350:211,1,31.4999990386963,2|4,0:0|0:0,0:0:0:0:
84,109,49521,2,0,P|64:58|68:30,1,62.9999980773926,8|4,0:0|0:0,0:0:0:0:
140,190,49949,2,0,P|173:231|182:263,1,62.9999980773926,0|2,0:0|0:0,0:0:0:0:
45,296,50378,5,4,0:1:0:0:
189,323,50592,1,2,0:0:0:0:
408,239,50806,1,4,0:0:0:0:
487,140,51021,1,0,0:0:0:0:
325,340,51235,1,8,0:0:0:0:
260,195,51449,1,0,3:0:0:0:
260,195,51556,1,0,3:0:0:0:
260,195,51664,1,0,3:0:0:0:
177,46,51878,1,2,0:0:0:0:
348,38,52092,6,0,L|427:40,1,62.9999980773926,4|2,0:0|0:0,0:0:0:0:
486,175,52521,1,0,0:0:0:0:
486,175,52628,1,2,0:0:0:0:
486,175,52735,1,4,0:0:0:0:
428,318,52949,2,0,P|376:334|323:386,1,125.999996154785,8|0,0:0|0:0,0:0:0:0:
271,315,53485,2,0,P|254:338|248:363,1,31.4999990386963,0|2,0:0|0:0,0:0:0:0:
160,263,53806,6,0,B|130:233|130:233|86:228,1,62.9999980773926,4|4,0:1|0:0,0:0:0:0:
15,218,54235,1,4,0:0:0:0:
89,55,54449,1,0,0:0:0:0:
112,76,54556,1,0,0:0:0:0:
138,93,54663,1,8,3:2:0:0:
168,103,54770,1,0,3:0:0:0:
199,103,54877,1,4,3:2:0:0:
230,94,54984,1,0,3:0:0:0:
261,87,55092,5,0,3:0:0:0:
271,109,55198,1,4,3:2:0:0:
287,135,55306,1,0,3:0:0:0:
304,162,55413,1,0,3:0:0:0:
420,201,55521,6,0,P|475:250|409:291,1,161.999995056153,4|0,0:0|0:0,0:0:0:0:
329,260,56056,2,0,L|386:260,1,40.4999987640381,2|4,0:0|0:0,0:0:0:0:
248,260,56378,2,0,L|333:260,1,80.9999975280763,8|4,0:0|0:0,0:0:0:0:
68,260,56806,1,0,0:0:0:0:
163,120,57021,1,2,0:0:0:0:
383,335,57235,5,4,0:1:0:0:
277,109,57449,1,2,0:0:0:0:
495,230,57664,1,4,0:0:0:0:
248,260,57878,1,0,0:0:0:0:
459,100,58092,2,0,B|492:55|492:55|372:53,1,161.999995056153,8|0,0:0|0:0,0:0:0:0:
40,48,58735,1,0,3:0:0:0:
40,48,58842,1,0,3:0:0:0:
40,48,58949,6,0,P|93:40|150:54,1,80.9999975280763,4|0,0:0|0:0,0:0:0:0:
85,199,59378,1,0,0:0:0:0:
85,199,59485,1,2,0:0:0:0:
85,199,59592,1,4,0:0:0:0:
223,49,59806,2,0,B|196:108|196:108|199:135|199:135|168:210,1,161.999995056153,8|0,0:0|0:0,0:0:0:0:
112,132,60449,1,2,0:0:0:0:
288,114,60664,5,4,0:1:0:0:
112,334,60878,1,4,0:0:0:0:
108,346,61092,1,4,0:0:0:0:
226,319,61306,1,2,0:0:0:0:
226,319,61414,1,0,3:0:0:0:
226,319,61521,2,0,P|268:262|301:251,1,80.9999975280763,8|4,0:0|0:0,0:0:0:0:
305,334,61842,1,0,3:0:0:0:
247,139,61949,2,0,L|263:193,1,40.4999987640381,0|0,3:0|3:0,0:0:0:0:
352,86,62164,2,0,L|330:135,1,40.4999987640381,2|0,3:2|3:0,0:0:0:0:
502,41,62378,6,0,L|461:133,1,80.9999975280763,4|0,0:0|0:0,0:0:0:0:
423,227,62806,1,0,0:0:0:0:
423,227,62914,1,2,0:0:0:0:
423,227,63021,1,4,0:0:0:0:
194,331,63235,1,8,0:0:0:0:
304,280,63449,1,4,0:0:0:0:
259,31,63664,1,0,0:0:0:0:
256,152,63878,1,2,0:0:0:0:
155,60,64092,6,0,B|154:152|154:152|98:104,1,161.999995056153,4|4,0:1|0:0,0:0:0:0:
201,225,64735,1,0,0:0:0:0:
68,25,64949,2,0,P|23:67|42:175,1,161.999995056153,8|2,0:0|0:0,0:0:0:0:
40,318,65592,1,0,3:0:0:0:
40,318,65699,1,0,3:0:0:0:
40,318,65806,6,0,P|74:272|116:249,1,80.9999975280763,4|0,0:0|0:0,0:0:0:0:
147,369,66235,1,0,0:0:0:0:
147,369,66342,1,2,0:0:0:0:
147,369,66449,1,4,0:0:0:0:
365,348,66664,2,0,B|332:279|383:229|383:229|354:193,1,161.999995056153,8|0,0:0|0:0,0:0:0:0:
450,190,67199,2,0,L|421:152,1,40.4999987640381,0|2,0:0|0:0,0:0:0:0:
280,231,67521,6,0,P|235:214|193:244,1,80.9999975280763,4|4,0:1|0:0,0:0:0:0:
439,296,67949,2,0,P|484:313|526:283,1,80.9999975280763,4|0,0:0|0:0,0:0:0:0:
462,171,68271,1,0,3:0:0:0:
426,150,68378,1,8,3:2:0:0:
387,144,68485,1,0,3:0:0:0:
349,156,68592,1,4,3:2:0:0:
317,182,68699,1,0,3:0:0:0:
281,201,68806,5,0,3:0:0:0:
241,198,68913,1,4,3:2:0:0:
202,210,69020,1,0,3:0:0:0:
170,234,69128,1,0,3:0:0:0:
79,287,69235,6,0,P|112:239|76:130,1,161.999995056153,4|0,0:0|0:0,0:0:0:0:
138,74,69771,2,0,P|158:96|166:118,1,40.4999987640381,2|4,0:0|0:0,0:0:0:0:
300,343,70092,2,0,L|392:311,1,80.9999975280763,8|4,0:0|0:0,0:0:0:0:
101,330,70521,2,0,P|63:344|1:362,1,80.9999975280763,0|2,0:0|0:0,0:0:0:0:
254,188,70949,5,4,0:1:0:0:
289,71,71164,1,2,0:0:0:0:
442,272,71378,1,4,0:0:0:0:
366,172,71592,1,0,0:0:0:0:
289,71,71806,2,0,L|103:32,1,161.999995056153,8|0,0:0|0:0,0:0:0:0:
412,109,72449,1,0,3:0:0:0:
412,109,72556,1,0,3:0:0:0:
264,0,72664,6,0,P|213:57|250:141,1,161.999995056153,4|0,0:0|0:0,0:0:0:0:
292,74,73199,2,0,L|335:86,1,40.4999987640381,2|4,0:0|0:0,0:0:0:0:
237,317,73521,2,0,L|141:285,1,80.9999975280763,8|0,0:0|0:0,0:0:0:0:
435,190,73949,2,0,L|345:224,1,80.9999975280763,0|2,0:0|0:0,0:0:0:0:
160,291,74378,5,4,0:1:0:0:
40,45,74592,1,4,0:0:0:0:
34,34,74806,1,4,0:0:0:0:
102,169,75021,1,2,0:0:0:0:
102,169,75128,1,0,3:0:0:0:
102,169,75235,2,0,P|166:143|200:148,1,80.9999975280763,8|4,0:0|0:0,0:0:0:0:
305,209,75557,1,0,3:0:0:0:
305,209,75664,2,0,L|338:165,1,40.4999987640381,0|0,3:0|3:0,0:0:0:0:
412,305,75878,2,0,L|377:252,1,40.4999987640381,2|0,3:2|3:0,0:0:0:0:
282,100,76092,5,4,0:0:0:0:
378,25,76306,1,0,0:0:0:0:
477,195,76521,1,0,0:0:0:0:
477,195,76628,1,2,0:0:0:0:
477,195,76735,1,4,0:0:0:0:
248,272,76949,1,8,0:0:0:0:
329,176,77164,1,4,0:0:0:0:
187,211,77378,1,0,0:0:0:0:
188,89,77592,1,2,0:0:0:0:
127,270,77806,5,4,0:1:0:0:
43,181,78021,1,2,0:0:0:0:
206,372,78235,1,4,0:0:0:0:
127,270,78449,1,0,0:0:0:0:
408,219,78664,1,8,0:0:0:0:
221,31,78878,1,0,0:0:0:0:
254,224,79092,1,0,3:0:0:0:
179,105,79306,1,2,0:0:0:0:
254,224,79521,6,0,P|206:182|165:251,1,161.999995056153,4|0,0:0|0:0,0:0:0:0:
85,226,80056,2,0,P|91:275|93:280,1,40.4999987640381,2|4,0:0|0:0,0:0:0:0:
251,99,80378,2,0,P|316:146|344:229,1,161.999995056153,8|0,0:0|0:0,0:0:0:0:
426,189,80914,2,0,P|429:232|425:250,1,40.4999987640381
208,225,82949,6,0,B|198:173|198:173|221:154|221:154|193:118|215:70,1,161.999995056153,4|0,0:0|0:0,0:0:0:0:
285,108,83485,2,0,L|330:108,1,40.4999987640381,2|4,0:0|0:0,0:0:0:0:
113,38,83806,2,0,P|94:105|110:170,1,116.999994644165,8|4,0:0|0:0,0:0:0:0:
325,108,84235,1,0,3:0:0:0:
356,108,84342,1,2,3:3:0:0:
388,108,84449,1,2,3:3:0:0:
419,108,84556,1,2,3:3:0:0:
404,288,84664,6,0,B|339:340|274:301|274:301|185:357|119:297|119:297|161:276,1,341.999990867615,4|4,0:1|0:0,0:0:0:0:
329,220,85306,1,2,3:3:0:0:
421,108,85521,6,0,L|461:61,1,41.9999987182618,8|0,3:2|3:0,0:0:0:0:
251,108,85806,2,0,L|211:61,1,41.9999987182618,0|0,3:0|3:0,0:0:0:0:
329,320,86092,2,0,L|329:374,1,41.9999987182618,0|0,3:0|3:0,0:0:0:0:
329,220,86378,6,0,B|325:141|262:113|262:113|294:81,1,161.999995056153,4|0,0:0|0:0,0:0:0:0:
212,218,87021,1,4,0:0:0:0:
47,319,87235,2,0,L|-15:353,2,53.9999983520508,8|0|0,0:0|3:0|3:0,0:0:0:0:
329,220,87664,6,0,B|325:141|262:113|262:113|333:39,1,227.999993911743,2|0,3:3|0:0,0:0:0:0:
233,11,88092,6,0,L|160:79,1,83.9999974365235,4|0,0:1|0:0,0:0:0:0:
80,278,88521,2,0,L|141:217,1,83.9999974365235,4|0,0:0|0:0,0:0:0:0:
243,17,88949,6,0,L|129:135,1,132.00000402832,8|0,0:0|0:0,0:0:0:0:
89,294,89378,2,0,L|200:180,1,132.00000402832,2|0,3:3|0:0,0:0:0:0:
477,36,89806,6,0,B|382:46|376:150|376:150|366:262|273:279,1,341.999990867615,4|0,0:0|0:0,0:0:0:0:
249,156,90449,1,4,0:0:0:0:
477,36,90664,6,0,P|409:66|376:154,1,161.999995056153,8|0,0:0|0:0,0:0:0:0:
490,150,91306,1,2,0:0:0:0:
192,208,91521,6,0,P|149:332|88:202,1,341.999990867615,4|4,0:1|0:0,0:0:0:0:
138,42,92164,6,0,L|138:8,1,31.4999990386963,0|0,3:0|3:0,0:0:0:0:
137,256,92378,2,0,L|137:299,1,31.4999990386963,8|0,3:2|3:0,0:0:0:0:
31,150,92592,2,0,L|-1:150,1,31.4999990386963,0|0,3:0|3:0,0:0:0:0:
240,154,92806,2,0,L|274:154,1,31.4999990386963,0|0,3:0|3:0,0:0:0:0:
137,256,93021,2,0,L|137:295,1,31.4999990386963,2|0,3:2|3:0,0:0:0:0:
302,302,93235,6,0,P|392:301|470:255,1,161.999995056153,4|0,0:0|0:0,0:0:0:0:
335,122,93878,1,4,0:0:0:0:
296,300,94092,6,0,P|392:301|473:252,1,170.999995433807,8|2,0:0|0:3,0:0:0:0:
325,40,94521,1,2,3:3:0:0:
325,40,94628,1,2,3:3:0:0:
325,40,94735,1,2,3:3:0:0:
100,47,94949,5,4,0:1:0:0:
167,293,95164,1,4,0:0:0:0:
173,311,95378,1,4,0:0:0:0:
63,132,95592,1,0,0:0:0:0:
222,155,95806,5,8,3:2:0:0:
271,167,95913,1,0,3:0:0:0:
322,166,96020,1,4,3:2:0:0:
371,151,96127,1,0,3:0:0:0:
448,73,96235,2,0,L|484:130,1,40.4999987640381,2|4,3:3|3:2,0:0:0:0:
363,42,96449,2,0,L|331:-14,1,40.4999987640381,2|0,3:3|3:0,0:0:0:0:
256,192,96664,12,8,99235,0:0:0:0:
