osu file format v14

[General]
AudioFilename: audio.mp3
AudioLeadIn: 0
PreviewTime: 54936
Countdown: 0
SampleSet: Soft
StackLeniency: 0.7
Mode: 0
LetterboxInBreaks: 0
WidescreenStoryboard: 1

[Editor]
Bookmarks: 82781,96496,127353,141067,154781,168496,183924,211353,225079,238781
DistanceSpacing: 1.4
BeatDivisor: 3
GridSize: 16
TimelineZoom: 1.6

[Metadata]
Title:404 not found
TitleUnicode:404 not found
Artist:REOL
ArtistUnicode:REOL
Creator:SnowNiNo_
Version:Hard
Source:
Tags:Σ sigma ギガ giga お菊 okiku toshitaka shinoda amana ijigen Chaoslitz DeRandom Otaku Ren
BeatmapID:1165169
BeatmapSetID:534116

[Difficulty]
HPDrainRate:5
CircleSize:4
OverallDifficulty:6
ApproachRate:7.5
SliderMultiplier:1.4
SliderTickRate:1

[Events]
//Background and Video events
0,0,"bz1080p.com_2016-07-09_17-29-02.jpg",0,0
//Break Periods
2,96493,99111
2,141936,153079
//Storyboard Layer 0 (Background)
//Storyboard Layer 1 (Fail)
//Storyboard Layer 2 (Pass)
//Storyboard Layer 3 (Foreground)
//Storyboard Sound Samples

[TimingPoints]
508,428.571428571429,4,2,0,50,1,0
508,-100,4,2,0,50,0,0
14222,-100,4,2,2,70,0,0
55365,-100,4,2,2,90,0,1
81079,-100,4,2,2,90,0,0
82793,-100,4,2,2,90,0,1
96508,-100,4,2,2,70,0,0
141936,-100,4,2,2,50,0,0
154365,-100,4,2,2,70,0,0
170650,-100,4,2,2,70,0,0
171079,-100,4,2,2,70,0,0
171508,-100,4,2,2,70,0,0
171936,-100,4,2,2,70,0,0
174079,-100,4,2,2,70,0,0
174508,-100,4,2,2,70,0,0
174936,-100,4,2,2,70,0,0
175365,-100,4,2,2,70,0,0
183508,-100,4,2,2,70,0,0
183936,-100,4,2,2,90,0,1
209650,-100,4,2,2,90,0,0
211365,-100,4,2,2,90,0,1
238793,-100,4,2,2,70,0,0
241793,-100,4,2,0,5,0,0

[Colours]
Combo1 : 128,128,128
Combo2 : 64,0,128
Combo3 : 18,124,255
Combo4 : 192,192,192

[HitObjects]
354,288,508,5,2,0:0:0:0:
354,288,1365,2,0,P|291:279|228:152,1,210,2|0,0:0|0:0,0:0:0:0:
245,77,2222,2,0,L|330:71,2,70,0|0|0,0:0|0:0|0:0,0:0:0:0:
245,77,3079,1,2,0:0:0:0:
245,77,3936,6,0,P|192:51|75:155,1,210,2|0,0:0|0:0,0:0:0:0:
72,210,4793,1,2,0:0:0:0:
72,210,5650,2,0,L|295:189,1,210,0|0,0:0|0:0,0:0:0:0:
365,183,6508,1,2,0:0:0:0:
365,183,7365,6,0,P|355:124|479:69,1,210,2|0,0:0|0:0,0:0:0:0:
438,142,8222,1,2,0:0:0:0:
438,142,9079,2,0,L|448:226,2,70,0|0|0,0:0|0:0|0:0,0:0:0:0:
438,142,9936,1,2,0:0:0:0:
438,142,10793,6,0,B|353:130|353:130|312:157|312:157|213:139,1,210,0|0,0:0|0:0,0:0:0:0:
155,128,11650,1,2,0:0:0:0:
155,128,12508,2,0,B|179:268|179:268|111:224,1,210,2|0,0:0|0:0,0:0:0:0:
71,163,13365,1,2,0:0:0:0:
43,242,13579,1,0,0:0:0:0:
43,242,13793,2,0,L|32:330,1,70,0|0,0:0|0:0,0:0:0:0:
110,347,14222,6,0,P|145:329|187:324,1,70,2|0,0:0|0:0,0:0:0:0:
268,353,14650,2,0,L|346:361,1,70,0|2,0:0|0:0,0:0:0:0:
435,350,15079,1,8,0:0:0:0:
435,350,15293,1,2,0:0:0:0:
375,271,15508,2,0,P|359:218|360:186,1,70,0|8,0:0|0:0,0:0:0:0:
379,108,15936,6,0,B|289:100|289:100|236:49,1,140,0|2,0:0|0:0,0:0:0:0:
165,22,16579,1,0,0:0:0:0:
168,119,16793,2,0,L|161:197,1,70,8|0,0:0|0:0,0:0:0:0:
149,286,17222,1,0,0:0:0:0:
149,286,17436,1,8,0:0:0:0:
239,248,17650,6,0,L|245:178,1,70,2|8,0:0|0:0,0:0:0:0:
256,80,18079,1,0,0:0:0:0:
256,80,18508,2,0,P|312:76|335:65,1,70,8|0,0:0|0:0,0:0:0:0:
414,33,18936,1,0,0:0:0:0:
414,33,19150,1,8,0:0:0:0:
402,130,19365,6,0,L|405:273,2,140,0|2|8,0:0|0:0|0:0,0:0:0:0:
324,70,20436,1,2,2:0:0:0:
314,167,20650,2,0,L|315:238,1,70,0|8,0:2|0:0,0:0:0:0:
272,325,21079,6,0,P|226:325|183:310,1,70,2|0,0:0|0:0,0:0:0:0:
152,234,21508,2,0,P|106:234|63:249,1,70,0|2,0:0|0:0,0:0:0:0:
35,325,21936,1,8,0:0:0:0:
35,325,22150,1,2,0:0:0:0:
83,240,22365,2,0,L|86:155,1,70,0|8,0:0|0:0,0:0:0:0:
71,73,22793,6,0,P|179:43|218:55,1,140,0|2,0:0|0:0,0:0:0:0:
284,102,23436,1,0,0:0:0:0:
324,190,23650,2,0,P|337:232|337:268,1,70,8|0,0:0|0:0,0:0:0:0:
282,339,24079,2,0,P|243:321|204:316,1,70,0|8,0:0|0:0,0:0:0:0:
118,319,24508,6,0,B|93:257|93:257|119:174,1,140,2|0,0:0|0:0,0:0:0:0:
98,90,25150,2,0,P|149:97|213:38,1,140,2|0,0:0|0:0,0:0:0:0:
308,22,25793,2,0,L|320:166,1,140,0|0,0:0|0:0,0:0:0:0:
331,259,26436,5,10,0:0:0:0:
331,259,26650,1,2,0:0:0:0:
240,219,26865,2,0,L|190:215,1,35
176,176,27079,2,0,L|126:180,2,35,8|0|0,0:0|0:0|0:0,0:0:0:0:
221,88,27508,1,0,0:0:0:0:
121,96,27722,1,0,0:0:0:0:
176,176,27936,6,0,P|216:266|256:281,1,140,2|0,0:0|0:0,0:0:0:0:
336,325,28579,1,2,0:0:0:0:
424,284,28793,2,0,L|436:128,1,140,8|0,0:0|0:0,0:0:0:0:
479,56,29436,1,8,0:0:0:0:
381,63,29650,6,0,P|348:91|245:94,1,140,0|2,0:0|0:0,0:0:0:0:
170,47,30293,1,0,0:0:0:0:
169,145,30508,2,0,B|146:206|191:217|159:296,1,140,8|0,0:0|0:0,0:0:0:0:
95,352,31150,1,8,0:0:0:0:
64,258,31365,6,0,P|54:211|56:179,1,70,2|8,0:0|0:0,0:0:0:0:
23,96,31793,2,0,P|33:49|31:17,1,70,0|2,0:0|0:0,0:0:0:0:
121,69,32222,2,0,P|171:92|197:91,1,70,8|0,0:0|0:0,0:0:0:0:
280,72,32650,1,0,0:0:0:0:
280,72,33079,6,0,L|289:145,1,70,0|10,0:0|0:0,0:0:0:0:
212,203,33508,2,0,L|203:276,1,70,2|0,0:0|0:0,0:0:0:0:
263,350,33936,2,0,P|296:313|384:309,1,140,8|0,0:0|0:0,0:0:0:0:
465,360,34579,1,8,0:0:0:0:
468,262,34793,6,0,L|477:111,2,140,2|0|8,0:0|0:0|0:0,0:0:0:0:
382,310,35865,1,2,0:0:0:0:
384,212,36079,2,0,P|337:186|307:183,1,70,0|8,0:0|0:0,0:0:0:0:
224,167,36508,6,0,P|242:132|210:30,1,140,0|2,0:0|0:0,0:0:0:0:
146,104,37150,1,0,0:0:0:0:
132,201,37365,2,0,L|128:277,1,70,8|0,0:0|0:0,0:0:0:0:
32,289,37793,2,0,L|36:365,1,70,0|8,0:0|0:0,0:0:0:0:
133,370,38222,6,0,P|170:354|214:351,1,70,2|8,0:0|0:0,0:0:0:0:
216,352,38543,1,0,0:0:0:0:
233,352,38650,2,0,L|313:360,1,70,0|2,0:0|0:0,0:0:0:0:
400,369,39079,1,8,0:0:0:0:
400,369,39293,1,0,0:0:0:0:
353,282,39508,2,0,L|283:275,1,70,0|8,0:0|0:0,0:0:0:0:
215,204,39936,5,0,0:0:0:0:
309,180,40150,1,10,0:0:0:0:
283,275,40365,2,0,L|277:356,1,70,2|0,0:0|0:0,0:0:0:0:
182,365,40793,2,0,L|176:284,1,70,8|2,0:0|0:0,0:0:0:0:
215,204,41222,2,0,P|152:166|64:179,1,140,0|2,0:0|0:0,0:0:0:0:
87,168,42936,6,0,L|92:90,2,70,0|8|0,0:0|0:0|0:0,0:0:0:0:
87,168,45079,5,2,0:0:0:0:
87,168,46365,6,0,L|92:90,2,70,0|8|0,0:0|0:0|0:0,0:0:0:0:
87,168,48508,6,0,P|128:176|203:94,1,140,2|0,0:0|0:0,0:0:0:0:
226,24,49150,1,2,0:0:0:0:
294,94,49365,1,8,0:0:0:0:
199,118,49579,2,0,L|109:113,1,70,2|0,0:0|0:0,0:0:0:0:
31,123,50008,6,0,P|36:65|32:41,1,70,8|0,0:0|0:0,0:0:0:0:
132,183,50436,2,0,P|127:125|131:101,1,70,8|2,0:0|0:0,0:0:0:0:
27,243,50865,1,0,0:0:0:0:
128,303,51079,2,0,P|174:300|238:230,1,140,8|0,0:0|0:0,0:0:0:0:
219,138,51722,1,0,0:0:0:0:
132,183,51936,5,2,0:0:0:0:
139,85,52150,2,0,P|169:54|272:59,1,140,8|2,0:0|0:0,0:0:0:0:
319,130,52793,2,0,L|309:273,1,140,8|0,0:0|0:0,0:0:0:0:
221,314,53436,6,0,L|215:242,1,70,8|0,0:0|0:0,0:0:0:0:
210,146,53865,1,10,0:0:0:0:
210,146,54079,1,2,0:0:0:0:
129,202,54293,2,0,L|126:236,1,35,0|0,0:0|0:0,0:0:0:0:
81,258,54508,2,0,L|83:292,2,35,8|0|0,0:0|0:0|0:0,0:0:0:0:
4,196,54936,1,0,0:0:0:0:
1,293,55150,1,0,0:0:0:0:
81,258,55365,6,0,P|143:254|168:239,1,70,6|0,0:0|0:0,0:0:0:0:
232,199,55793,2,0,L|220:292,1,70,0|2,0:0|0:0,0:0:0:0:
183,358,56222,2,0,P|219:317|324:315,1,140,8|0,0:0|0:0,0:0:0:0:
396,286,56865,6,0,L|390:366,1,70,8|0,0:0|0:0,0:0:0:0:
295,235,57293,2,0,L|301:315,1,70,8|2,0:0|0:0,0:0:0:0:
389,172,57722,1,0,0:0:0:0:
288,121,57936,2,0,P|231:95|140:104,1,140,8|0,0:0|0:0,0:0:0:0:
70,148,58579,1,8,0:0:0:0:
154,196,58793,6,0,L|161:271,1,70,2|0,0:0|0:0,0:0:0:0:
65,292,59222,2,0,L|58:367,1,70,0|0,0:0|0:0,0:0:0:0:
155,373,59650,2,0,P|200:336|294:341,1,140,8|0,0:0|0:0,0:0:0:0:
374,312,60293,6,0,L|385:393,1,70,8|0,0:0|0:0,0:0:0:0:
288,264,60722,2,0,L|277:345,1,70,10|2,0:0|0:0,0:0:0:0:
371,212,61150,1,0,0:0:0:0:
285,164,61365,2,0,P|226:123|151:136,1,140,8|0,0:0|0:0,0:0:0:0:
207,216,62008,1,0,0:0:0:0:
285,164,62222,6,0,P|293:121|291:92,1,70,2|0,0:0|0:0,0:0:0:0:
234,15,62650,2,0,L|142:24,1,70,0|2,0:0|0:0,0:0:0:0:
67,34,63079,2,0,P|103:74|82:176,1,140,8|0,0:0|0:0,0:0:0:0:
14,207,63722,1,8,0:0:0:0:
99,254,63936,6,0,P|137:263|178:263,1,70,0|8,0:0|0:0,0:0:0:0:
221,181,64365,2,0,P|259:172|300:172,1,70,0|0,0:0|0:0,0:0:0:0:
387,179,64793,2,0,L|378:335,1,140,0|0,0:0|0:0,0:0:0:0:
469,357,65436,1,8,0:0:0:0:
490,261,65650,6,0,L|485:183,1,70,2|0,0:0|0:0,0:0:0:0:
478,93,66079,1,0,0:0:0:0:
478,93,66508,2,0,P|416:98|340:37,1,140,8|0,0:0|0:0,0:0:0:0:
257,35,67150,2,0,P|242:78|242:113,1,70,8|0,0:0|0:0,0:0:0:0:
273,194,67579,5,2,0:0:0:0:
273,194,67793,1,2,0:0:0:0:
176,177,68008,2,0,L|124:182,1,35,0|0,0:0|0:0,0:0:0:0:
114,221,68222,2,0,L|62:216,2,35,8|0|0,0:0|0:0|0:0,0:0:0:0:
156,308,68650,1,0,0:0:0:0:
59,301,68865,1,0,0:0:0:0:
114,221,69079,6,0,P|113:186|106:151,1,70,6|0,0:0|0:0,0:0:0:0:
166,74,69508,2,0,L|249:63,1,70,0|2,0:0|0:0,0:0:0:0:
332,77,69936,2,0,P|367:117|367:210,1,140,8|0,0:0|0:0,0:0:0:0:
364,298,70579,6,0,L|442:308,1,70,8|0,0:0|0:0,0:0:0:0:
301,209,71008,2,8,L|379:199,1,70,8|2,0:0|0:0,0:0:0:0:
268,302,71436,1,0,0:0:0:0:
209,226,71650,2,0,P|209:161|159:88,1,140,8|0,0:0|0:0,0:0:0:0:
76,73,72293,1,8,0:0:0:0:
102,169,72508,6,0,P|97:211|103:250,1,70,2|0,0:0|0:0,0:0:0:0:
15,287,72936,2,0,P|20:329|14:368,1,70,0|2,0:0|0:0,0:0:0:0:
114,368,73365,2,0,P|154:335|252:336,1,140,8|0,0:0|0:0,0:0:0:0:
334,306,74008,6,0,L|337:384,1,70,8|0,0:0|0:0,0:0:0:0:
241,260,74436,2,0,L|238:338,1,70,10|2,0:0|0:0,0:0:0:0:
329,204,74865,1,0,0:0:0:0:
240,164,75079,2,0,P|185:161|122:92,1,140,8|0,0:0|0:0,0:0:0:0:
217,68,75722,1,8,0:0:0:0:
240,164,75936,6,0,L|245:238,1,70,2|0,0:0|0:0,0:0:0:0:
311,96,76365,2,0,P|347:84|384:85,1,70,0|2,0:0|0:0,0:0:0:0:
470,117,76793,1,8,0:0:0:0:
396,181,77008,2,0,L|393:258,2,70,2|0|8,0:0|0:0|0:0,0:0:0:0:
378,84,77650,6,0,P|403:41|437:26,1,70,0|8,0:0|0:0,0:0:0:0:
305,148,78079,2,0,P|270:158|231:158,1,70,2|0,0:0|0:0,0:0:0:0:
153,106,78508,1,8,0:0:0:0:
70,158,78722,6,0,L|63:249,2,70,0|0|8,0:0|0:0|0:0,0:0:0:0:
153,106,79365,1,2,0:0:0:0:
236,158,79579,2,0,L|243:249,2,70,0|0|0,0:0|0:0|0:0,0:0:0:0:
153,106,80222,2,0,P|189:71|280:70,1,140,8|0,0:0|0:0,0:0:0:0:
330,148,80865,6,0,P|372:159|406:155,1,70,8|0,0:0|0:0,0:0:0:0:
472,93,81293,1,10,0:0:0:0:
472,93,81508,1,2,0:0:0:0:
492,188,81722,1,0,0:0:0:0:
492,188,81829,1,0,0:0:0:0:
492,188,81936,2,0,L|496:261,2,70,8|0|0,0:0|0:0|0:0,0:0:0:0:
492,188,82793,6,0,P|442:181|400:124,1,105,6|0,0:0|0:0,0:0:0:0:
401,93,83222,2,0,P|358:74|329:73,1,70,0|0,0:0|0:0,0:0:0:0:
265,140,83650,2,0,P|222:159|193:160,1,70,8|2,0:0|0:0,0:0:0:0:
104,134,84079,2,0,L|99:190,1,35,0|0,0:0|0:0,0:0:0:0:
68,205,84293,2,0,L|71:239,1,35,8|0,0:0|0:0,0:0:0:0:
85,286,84508,6,0,P|120:289|158:321,1,70,0|0,0:0|0:0,0:0:0:0:
239,344,84936,2,0,L|246:290,1,35,2|0,0:0|0:0,0:0:0:0:
285,283,85150,2,0,L|278:229,1,35,0|0,0:0|0:0,0:0:0:0:
268,200,85365,2,0,L|275:146,2,46.6666666666667,8|0|0,0:0|0:0|0:0,0:0:0:0:
190,252,85793,2,0,L|197:306,2,46.6666666666667,0|0|0,0:0|0:0|0:0,0:0:0:0:
185,158,86222,6,0,P|134:135|69:141,1,105,2|0,0:0|0:0,0:0:0:0:
36,134,86650,2,0,P|24:95|29:52,1,70
107,12,87079,2,0,L|205:23,1,93.3333333333333,8|0,0:0|0:0,0:0:0:0:
273,34,87508,1,0,0:0:0:0:
273,34,87936,6,0,P|326:45|363:97,1,105
345,129,88365,2,0,P|292:140|255:192,1,105,2|0,0:0|0:0,0:0:0:0:
266,225,88793,1,8,0:0:0:0:
168,234,89008,2,0,L|164:81,1,140,2|8,0:0|0:0,0:0:0:0:
246,40,89650,6,0,P|270:92|413:109,1,210,2|0,0:0|0:0,0:0:0:0:
505,96,90508,2,0,L|502:16,2,70,8|2|0,0:0|0:0|0:0,0:0:0:0:
505,96,91365,6,0,P|457:112|448:204,1,140,0|2,0:0|0:0,0:0:0:0:
490,276,92008,1,0,0:0:0:0:
392,279,92222,2,0,P|353:277|312:260,1,70,8|0,0:0|0:0,0:0:0:0:
276,181,92650,2,0,P|237:183|196:200,1,70,0|8,0:0|0:0,0:0:0:0:
155,276,93079,6,0,P|183:232|150:138,1,140,2|0,0:0|0:0,0:0:0:0:
96,79,93722,1,0,0:0:0:0:
33,154,93936,2,0,L|30:237,1,70,8|0,0:0|0:0,0:0:0:0:
31,320,94365,1,0,0:0:0:0:
31,320,94472,1,0,0:0:0:0:
31,320,94579,1,8,0:0:0:0:
110,287,94793,6,0,L|112:217,2,70,0|2|2,0:0|0:0|0:0,0:0:0:0:
192,340,95436,2,0,L|244:347,1,35,0|0,0:0|0:0,0:0:0:0:
264,313,95650,2,0,L|316:306,2,35,8|0|0,0:0|0:0|0:0,0:0:0:0:
196,241,96079,1,0,0:0:0:0:
192,340,96293,1,0,0:0:0:0:
201,248,99936,6,0,P|248:204|332:204,1,140,2|0,0:0|0:0,0:0:0:0:
407,245,100579,1,2,0:0:0:0:
479,179,100793,2,0,P|491:135|491:104,1,70,8|2,0:0|0:0,0:0:0:0:
487,12,101222,2,0,L|404:18,1,70,0|8,0:0|0:0,0:0:0:0:
320,33,101650,6,0,P|365:41|418:131,1,140,0|2,0:0|0:0,0:0:0:0:
383,206,102293,1,0,0:0:0:0:
327,124,102508,2,0,L|177:120,1,140,8|0,0:0|0:0,0:0:0:0:
89,117,103150,1,8,0:0:0:0:
89,117,103365,5,2,0:0:0:0:
137,202,103579,2,0,L|276:205,1,140,8|2,0:0|0:0,0:0:0:0:
373,223,104222,2,0,P|347:247|330:307,1,70,8|0,0:0|0:0,0:0:0:0:
426,306,104650,1,0,0:0:0:0:
472,219,104865,6,0,L|466:132,1,70,8|0,0:0|0:0,0:0:0:0:
457,51,105293,1,10,0:0:0:0:
457,51,105508,1,2,0:0:0:0:
378,108,105722,2,0,L|373:177,1,70,0|8,0:0|0:0,0:0:0:0:
440,248,106150,2,0,L|397:254,1,35,2|0,0:0|0:0,0:0:0:0:
363,278,106365,2,0,L|320:272,1,35,0|0,0:0|0:0,0:0:0:0:
286,248,106579,2,0,L|243:254,1,35,8|0,0:0|0:0,0:0:0:0:
209,278,106793,6,0,P|170:264|124:266,1,70,2|0,0:0|0:0,0:0:0:0:
122,166,107222,2,0,P|83:180|37:178,1,70,0|2,0:0|0:0,0:0:0:0:
38,277,107650,2,0,P|83:302|108:401,1,140,8|0,0:0|0:0,0:0:0:0:
13,374,108293,1,8,0:0:0:0:
38,277,108508,6,0,L|41:193,1,70,0|8,0:0|0:0,0:0:0:0:
98,127,108936,2,0,L|95:57,1,70,2|0,0:0|0:0,0:0:0:0:
192,68,109365,2,0,P|221:111|306:133,1,140,8|0,0:0|0:0,0:0:0:0:
391,92,110008,1,8,0:0:0:0:
408,188,110222,6,0,L|398:262,1,70,2|8,0:0|0:0,0:0:0:0:
479,312,110650,2,0,L|489:386,1,70,0|2,0:0|0:0,0:0:0:0:
393,355,111079,1,8,0:0:0:0:
393,355,111293,1,0,0:0:0:0:
398,257,111508,2,0,P|339:240|311:240,1,70,0|8,0:0|0:0,0:0:0:0:
275,158,111936,6,0,P|309:152|342:140,1,70,0|10,0:0|0:0,0:0:0:0:
280,63,112365,2,0,L|202:56,1,70,2|0,0:0|0:0,0:0:0:0:
113,39,112793,2,0,L|109:78,1,35,8|0,0:0|0:0,0:0:0:0:
139,112,113008,2,0,L|143:151,1,35,2|0,0:0|0:0,0:0:0:0:
113,185,113222,1,0,0:0:0:0:
209,202,113436,1,0,0:0:0:0:
223,105,113650,6,0,L|380:119,1,140,2|0,0:0|0:0,0:0:0:0:
454,81,114293,1,2,0:0:0:0:
452,181,114508,2,0,P|464:221|464:259,1,70,8|2,0:0|0:0,0:0:0:0:
376,291,114936,2,0,P|364:331|364:369,1,70,0|8,0:0|0:0,0:0:0:0:
460,347,115365,5,0,0:0:0:0:
460,347,115579,1,8,0:0:0:0:
465,249,115793,2,0,P|462:214|452:181,1,70,2|0,0:0|0:0,0:0:0:0:
459,82,116222,2,0,P|444:129|348:151,1,140,8|0,0:0|0:0,0:0:0:0:
277,109,116865,1,8,0:0:0:0:
183,79,117079,6,0,P|123:91|77:155,1,140,2|0,0:0|0:0,0:0:0:0:
172,179,117722,1,2,0:0:0:0:
261,139,117936,2,0,P|304:129|338:105,1,70,8|0,0:0|0:0,0:0:0:0:
339,213,118365,2,0,P|322:251|316:289,1,70,0|8,0:0|0:0,0:0:0:0:
414,279,118793,5,0,0:0:0:0:
414,279,119008,1,10,0:0:0:0:
431,182,119222,2,0,L|422:105,1,70,2|0,0:0|0:0,0:0:0:0:
351,45,119650,1,8,0:0:0:0:
282,115,119865,2,0,L|275:167,1,35,0|0,0:0|0:0,0:0:0:0:
309,186,120079,2,0,L|316:238,1,35,0|0,0:0|0:0,0:0:0:0:
275,250,120293,2,0,L|268:302,1,35,8|0,0:0|0:0,0:0:0:0:
287,330,120508,6,0,P|337:340|421:297,1,140,2|0,0:0|0:0,0:0:0:0:
505,265,121150,1,2,0:0:0:0:
498,166,121365,2,0,P|438:132|369:140,1,140,8|0,0:0|0:0,0:0:0:0:
313,220,122008,1,8,0:0:0:0:
252,297,122222,6,0,P|210:317|167:316,1,70,0|8,0:0|0:0,0:0:0:0:
92,292,122650,2,0,P|103:242|100:207,1,70,2|0,0:0|0:0,0:0:0:0:
65,132,123079,2,0,P|112:89|201:83,1,140,8|0,0:0|0:0,0:0:0:0:
268,132,123722,1,8,0:0:0:0:
235,224,123936,6,0,B|237:301|237:301|297:249,1,140,2|0,0:0|0:0,0:0:0:0:
350,187,124579,1,2,0:0:0:0:
268,132,124793,2,8,P|219:129|154:54,1,140,8|0,0:0|0:0,0:0:0:0:
248,31,125436,1,8,0:0:0:0:
339,66,125650,6,0,P|361:97|364:130,1,70,0|10,0:0|0:0,0:0:0:0:
320,216,126079,1,2,0:0:0:0:
268,132,126293,2,0,L|121:142,1,140,0|0,0:0|0:0,0:0:0:0:
30,150,126936,1,0,0:0:0:0:
30,150,127150,1,0,0:0:0:0:
86,230,127365,6,0,P|140:223|200:290,1,140,2|0,0:0|0:0,0:0:0:0:
391,310,128222,2,0,P|337:303|277:370,1,140,8|0,0:0|0:0,0:0:0:0:
285,162,129079,2,0,L|455:179,2,140,0|0|8,0:0|0:0|0:0,0:0:0:0:
285,162,130793,6,0,P|226:153|172:83,1,140,2|0,0:0|0:0,0:0:0:0:
69,259,131650,2,0,L|216:244,1,140,8|0,0:0|0:0,0:0:0:0:
374,349,132508,2,0,L|227:334,2,140,0|2|8,0:0|0:0|0:0,0:0:0:0:
439,276,133579,2,0,L|443:235,1,35,2|0,0:0|0:0,0:0:0:0:
489,228,133793,2,0,L|485:187,1,35,0|0,0:0|0:0,0:0:0:0:
439,174,134008,2,0,L|443:133,1,35,8|0,0:0|0:0,0:0:0:0:
486,117,134222,6,0,P|458:87|360:76,1,140,2|0,0:0|0:0,0:0:0:0:
169,50,135079,2,0,P|187:116|162:180,1,140,8|0,0:0|0:0,0:0:0:0:
356,208,135936,2,0,P|417:247|492:246,2,140,0|2|8,0:0|0:0|0:0,0:0:0:0:
356,208,137650,6,0,L|203:198,1,140,2|0,0:0|0:0,0:0:0:0:
46,297,138508,2,0,L|199:287,1,140,8|0,0:0|0:0,0:0:0:0:
216,198,139150,1,8,0:0:0:0:
117,199,139365,6,0,L|47:203,1,70,0|10,0:0|0:0,0:0:0:0:
46,105,139793,2,0,L|116:110,1,70,0|0,0:0|0:0,0:0:0:0:
213,101,140222,1,8,0:0:0:0:
216,198,140436,1,2,0:0:0:0:
218,295,140650,2,0,P|249:331|361:349,1,140,0|6,0:0|0:0,0:0:0:0:
69,268,154365,6,0,P|92:224|87:167,1,93.3333333333333,0|0,0:0|0:0,0:0:0:0:
74,118,154793,6,0,L|182:107,1,93.3333333333333,8|0,0:0|0:0,0:0:0:0:
210,158,155222,2,0,L|318:169,1,93.3333333333333,8|0,0:0|0:0,0:0:0:0:
352,209,155650,2,0,P|325:247|322:300,1,93.3333333333333,8|0,0:0|0:0,0:0:0:0:
356,347,156079,1,8,0:0:0:0:
471,188,156508,6,0,L|456:77,1,93.3333333333333,8|0,0:0|0:0,0:0:0:0:
404,58,156936,2,0,P|358:94|308:102,1,93.3333333333333,8|0,0:0|0:0,0:0:0:0:
265,73,157365,2,0,P|229:53|152:55,1,93.3333333333333,8|0,0:0|0:0,0:0:0:0:
119,78,157793,1,8,0:0:0:0:
292,170,158222,6,0,L|384:181,1,93.3333333333333,8|0,0:0|0:0,0:0:0:0:
433,224,158650,2,0,P|450:273|446:320,1,93.3333333333333,8|0,0:0|0:0,0:0:0:0:
388,343,159079,2,0,L|295:354,1,93.3333333333333,8|0,0:0|0:0,0:0:0:0:
238,321,159508,2,0,L|145:309,1,93.3333333333333,8|0,0:0|0:0,0:0:0:0:
82,292,159936,6,0,P|109:232|109:185,1,93.3333333333333,8|0,0:0|0:0,0:0:0:0:
92,142,160365,2,0,P|135:105|178:93,1,93.3333333333333,8|0,0:0|0:0,0:0:0:0:
233,105,160793,1,8,0:0:0:0:
147,281,161222,2,0,L|138:231,2,46.6666666666667,8|0|0,0:0|0:0|0:0,0:0:0:0:
208,303,161650,6,0,P|262:278|314:283,1,93.3333333333333,8|0,0:0|0:0,0:0:0:0:
346,318,162079,2,0,L|354:363,2,46.6666666666667,8|0|0,0:0|0:0|0:0,0:0:0:0:
387,266,162508,2,0,L|404:168,1,93.3333333333333,8|0,0:0|0:0,0:0:0:0:
391,109,162936,2,0,P|326:99|297:74,1,93.3333333333333,8|0,0:0|0:0,0:0:0:0:
256,38,163365,6,0,L|156:48,1,93.3333333333333,8|0,0:0|0:0,0:0:0:0:
142,109,163793,2,0,L|42:99,1,93.3333333333333,8|0,0:0|0:0,0:0:0:0:
12,45,164222,1,8,0:0:0:0:
27,240,164650,2,0,P|77:256|106:308,1,93.3333333333333,8|0,0:0|0:0,0:0:0:0:
98,353,165079,6,0,L|202:361,1,93.3333333333333,8|0,0:0|0:0,0:0:0:0:
229,306,165508,2,0,L|333:314,1,93.3333333333333,8|0,0:0|0:0,0:0:0:0:
361,261,165936,2,0,L|465:269,1,93.3333333333333,8|0,0:0|0:0,0:0:0:0:
476,206,166365,2,0,P|449:156|447:120,1,93.3333333333333,8|0,0:0|0:0,0:0:0:0:
444,55,166793,6,0,L|342:46,1,93.3333333333333,8|0,0:0|0:0,0:0:0:0:
307,95,167222,2,0,L|205:86,1,93.3333333333333,8|0,0:0|0:0,0:0:0:0:
163,127,167650,2,0,L|61:118,1,93.3333333333333,8|0,0:0|0:0,0:0:0:0:
16,157,168079,1,8,0:0:0:0:
66,277,168365,1,0,0:0:0:0:
66,277,168508,6,2,P|126:247|177:251,1,93.3333333333333,2|0,0:0|0:0,0:0:0:0:
209,274,168936,2,0,P|257:297|305:299,1,93.3333333333333,0|0,0:0|0:0,0:0:0:0:
358,277,169365,2,0,P|418:247|469:251,1,93.3333333333333,2|0,0:0|0:0,0:0:0:0:
500,276,169793,1,0,0:0:0:0:
424,95,170222,6,0,L|270:80,2,140,2|0|2,0:0|0:0|0:0,0:0:0:0:
424,95,171508,1,0,0:0:0:0:
424,95,171936,6,0,P|435:160|428:193,1,93.3333333333333,2|0,0:0|0:0,0:0:0:0:
380,229,172365,2,0,P|369:294|376:327,1,93.3333333333333,0|0,0:0|0:0,0:0:0:0:
315,349,172793,2,0,P|268:326|213:324,1,93.3333333333333,2|0,0:0|0:0,0:0:0:0:
164,340,173222,1,0,0:0:0:0:
105,153,173650,6,0,L|258:164,2,140,2|0|2,0:0|0:0|0:0,0:0:0:0:
105,153,174936,1,0,0:0:0:0:
105,153,175365,6,0,P|132:105|136:76,1,70,2|0,0:0|0:0,0:0:0:0:
217,39,175793,2,0,L|229:115,1,70,2|0,0:0|0:0,0:0:0:0:
306,167,176222,2,0,L|294:243,1,70,2|0,0:0|0:0,0:0:0:0:
217,296,176650,2,0,L|229:372,1,70,2|0,0:0|0:0,0:0:0:0:
326,365,177079,6,0,P|381:348|408:350,1,70,2|0,0:0|0:0,0:0:0:0:
489,364,177508,2,0,L|499:294,1,70,2|0,0:0|0:0,0:0:0:0:
412,250,177936,2,0,L|401:180,1,70,2|0,0:0|0:0,0:0:0:0:
461,103,178365,2,0,P|427:92|394:58,1,70,2|0,0:0|0:0,0:0:0:0:
313,26,178793,5,2,0:0:0:0:
313,26,179008,1,2,0:0:0:0:
260,108,179222,2,0,L|255:182,1,70,2|2,0:0|0:0,0:0:0:0:
252,275,179650,1,2,0:0:0:0:
252,275,179865,1,2,0:0:0:0:
338,228,180079,2,0,L|342:158,1,70,2|2,0:0|0:0,0:0:0:0:
331,53,180508,6,0,L|299:8,3,35,2|2|2|2,0:0|0:0|0:0|0:0,0:0:0:0:
280,62,180936,2,0,L|230:39,3,35,2|2|2|2,0:0|0:0|0:0|0:0,0:0:0:0:
245,96,181365,2,0,L|191:101,3,35,2|2|2|2,0:0|0:0|0:0|0:0,0:0:0:0:
225,145,181793,2,0,L|216:243,1,93.3333333333333
417,184,183508,6,0,L|329:176,1,70,0|0,0:0|0:0,0:0:0:0:
255,142,183936,6,0,P|290:113|303:73,1,70,6|0,0:0|0:0,0:0:0:0:
208,55,184365,2,0,L|120:63,1,70,0|2,0:0|0:0,0:0:0:0:
52,109,184793,2,0,P|111:153|119:228,1,140,8|0,0:0|0:0,0:0:0:0:
142,303,185436,6,0,L|65:290,1,70,8|0,0:0|0:0,0:0:0:0:
191,203,185865,2,0,L|114:216,1,70,8|2,0:0|0:0,0:0:0:0:
253,296,186293,1,0,0:0:0:0:
302,196,186508,2,0,B|314:49,1,140,8|0,0:0|0:0,0:0:0:0:
404,21,187150,1,8,0:0:0:0:
495,56,187365,6,0,B|502:146,1,70,2|8,0:0|0:0,0:0:0:0:
416,175,187793,2,0,B|408:265,1,70,0|2,0:0|0:0,0:0:0:0:
364,331,188222,2,0,P|338:299|236:285,1,140,8|0,0:0|0:0,0:0:0:0:
147,271,188865,6,0,L|139:353,1,70,8|0,0:0|0:0,0:0:0:0:
238,211,189293,2,0,L|246:293,1,70,10|2,0:0|0:0,0:0:0:0:
140,162,189722,1,0,0:0:0:0:
231,102,189936,2,0,P|293:73|369:82,1,140,8|0,0:0|0:0,0:0:0:0:
431,149,190579,1,8,0:0:0:0:
427,246,190793,6,0,P|386:236|355:207,1,70,2|0,0:0|0:0,0:0:0:0:
271,187,191222,2,0,L|277:271,1,70,0|2,0:0|0:0,0:0:0:0:
321,343,191650,2,0,P|300:309|194:295,1,140,8|0,0:0|0:0,0:0:0:0:
120,332,192293,1,8,0:0:0:0:
83,240,192508,6,0,P|72:203|75:164,1,70,0|8,0:0|0:0,0:0:0:0:
83,74,192936,2,0,L|155:84,1,70,2|0,0:0|0:0,0:0:0:0:
248,63,193365,2,0,L|393:57,1,140,8|0,0:0|0:0,0:0:0:0:
483,32,194008,1,8,0:0:0:0:
454,125,194222,6,0,L|449:199,1,70,2|8,0:0|0:0,0:0:0:0:
438,292,194650,1,0,0:0:0:0:
438,292,195079,2,0,P|402:255|305:251,1,140,8|0,0:0|0:0,0:0:0:0:
221,267,195722,6,0,L|227:190,1,70,8|0,0:0|0:0,0:0:0:0:
235,99,196150,1,10,0:0:0:0:
235,99,196365,1,2,0:0:0:0:
146,141,196579,2,0,L|143:175,1,35,0|0,0:0|0:0,0:0:0:0:
107,208,196793,2,0,L|109:242,2,35,8|0|0,0:0|0:0|0:0,0:0:0:0:
28,149,197222,1,0,0:0:0:0:
20,246,197436,1,0,0:0:0:0:
107,208,197650,6,0,P|144:194|183:206,1,70,2|0,0:0|0:0,0:0:0:0:
264,236,198079,2,0,L|274:160,1,70,0|2,0:0|0:0,0:0:0:0:
264,68,198508,2,0,P|310:43|398:49,1,140,8|0,0:0|0:0,0:0:0:0:
487,81,199150,6,0,L|494:0,1,70,8|0,0:0|0:0,0:0:0:0:
401,117,199579,2,0,L|394:36,1,70,8|2,0:0|0:0,0:0:0:0:
476,173,200008,1,0,0:0:0:0:
390,209,200222,2,0,P|358:185|258:181,1,140,8|0,0:0|0:0,0:0:0:0:
216,267,200865,1,8,0:0:0:0:
262,352,201079,6,0,P|302:369|336:368,1,70,2|8,0:0|0:0,0:0:0:0:
418,330,201508,2,0,L|409:247,1,70,0|2,0:0|0:0,0:0:0:0:
350,183,201936,2,0,P|290:166|250:86,1,140,8|0,0:0|0:0,0:0:0:0:
266,5,202579,6,0,L|185:15,1,70,8|0,0:0|0:0,0:0:0:0:
320,111,203008,2,0,L|239:101,1,70,10|2,0:0|0:0,0:0:0:0:
382,10,203436,1,0,0:0:0:0:
436,116,203650,2,0,P|461:165|452:263,1,140,8|0,0:0|0:0,0:0:0:0:
379,307,204293,1,8,0:0:0:0:
368,209,204508,6,0,P|315:193|283:194,1,70,2|0,0:0|0:0,0:0:0:0:
458,248,204936,2,0,L|467:337,1,70,0|2,0:0|0:0,0:0:0:0:
367,307,205365,1,8,0:0:0:0:
368,209,205579,2,0,L|377:120,2,70,2|0|8,0:0|0:0|0:0,0:0:0:0:
289,268,206222,6,0,P|252:283|208:282,1,70,0|8,0:0|0:0,0:0:0:0:
149,218,206650,2,0,P|112:203|68:204,1,70,2|0,0:0|0:0,0:0:0:0:
95,299,207079,1,8,0:0:0:0:
149,218,207293,6,0,L|154:130,2,70,0|0|8,0:0|0:0|0:0,0:0:0:0:
95,299,207936,1,2,0:0:0:0:
41,218,208150,2,0,L|36:130,2,70,8|0|2,0:0|0:0|0:0,0:0:0:0:
95,299,208793,2,0,P|129:270|222:274,1,140,8|0,0:0|0:0,0:0:0:0:
286,345,209436,6,0,P|320:353|360:348,1,70,8|0,0:0|0:0,0:0:0:0:
438,297,209865,1,10,0:0:0:0:
438,297,210079,1,2,0:0:0:0:
377,219,210293,1,0,0:0:0:0:
377,219,210400,1,0,0:0:0:0:
377,219,210508,2,0,P|422:199|453:200,2,70,8|0|0,0:0|0:0|0:0,0:0:0:0:
377,219,211365,6,0,L|369:101,1,105,6|0,0:0|0:0,0:0:0:0:
347,70,211793,2,0,P|313:54|270:57,1,70,0|0,0:0|0:0,0:0:0:0:
239,143,212222,2,0,P|196:162|167:163,1,70,8|2,0:0|0:0,0:0:0:0:
78,137,212651,2,0,L|73:193,1,35,0|0,0:0|0:0,0:0:0:0:
42,208,212865,2,0,L|45:242,1,35,8|0,0:0|0:0,0:0:0:0:
59,289,213080,6,0,P|94:292|132:324,1,70,0|0,0:0|0:0,0:0:0:0:
213,347,213508,2,0,L|220:293,1,35,2|0,0:0|0:0,0:0:0:0:
259,286,213722,2,0,L|252:232,1,35,0|0,0:0|0:0,0:0:0:0:
242,203,213937,2,0,L|249:149,2,46.6666666666667,8|0|0,0:0|0:0|0:0,0:0:0:0:
164,255,214365,2,0,L|171:309,2,46.6666666666667,0|0|0,0:0|0:0|0:0,0:0:0:0:
159,161,214794,6,0,P|108:138|43:144,1,105,2|0,0:0|0:0,0:0:0:0:
24,105,215222,2,0,P|12:66|17:23,1,70,0|0,0:0|0:0,0:0:0:0:
107,9,215651,2,0,L|205:24,1,93.3333333333333,8|0,0:0|0:0,0:0:0:0:
272,39,216080,1,0,0:0:0:0:
272,39,216508,6,0,L|287:145,1,105,0|0,0:0|0:0,0:0:0:0:
333,156,216936,2,0,L|318:262,1,93.3333333333333,2|0,0:0|0:0,0:0:0:0:
282,302,217365,1,8,0:0:0:0:
142,237,217580,2,0,L|138:84,1,140,2|8,0:0|0:0,0:0:0:0:
220,43,218222,6,0,P|244:95|387:112,1,210,2|0,0:0|0:0,0:0:0:0:
479,99,219080,2,0,L|476:19,2,70,8|0|0,0:0|0:0|0:0,0:0:0:0:
479,99,219936,6,0,L|472:262,1,140,0|2,0:0|0:0,0:0:0:0:
449,334,220580,1,0,0:0:0:0:
380,263,220794,2,0,P|341:261|300:244,1,70,8|0,0:0|0:0,0:0:0:0:
251,174,221222,2,0,P|212:176|171:193,1,70,0|8,0:0|0:0,0:0:0:0:
125,266,221651,6,0,P|153:222|120:128,1,140,2|0,0:0|0:0,0:0:0:0:
52,86,222294,1,0,0:0:0:0:
139,42,222508,2,0,L|220:38,1,70,8|0,0:0|0:0,0:0:0:0:
307,40,222937,1,0,0:0:0:0:
307,40,223044,1,0,0:0:0:0:
307,40,223151,1,8,0:0:0:0:
255,123,223365,6,0,L|185:126,2,70,0|10|2,0:0|0:0|0:0,0:0:0:0:
278,218,224008,2,0,L|330:225,1,35,0|0,0:0|0:0,0:0:0:0:
350,191,224222,2,0,L|402:184,2,35,8|0|0,0:0|0:0|0:0,0:0:0:0:
333,93,224651,1,0,0:0:0:0:
428,115,224865,1,0,0:0:0:0:
350,191,225079,6,0,P|330:230|343:297,1,105,6|0,0:0|0:0,0:0:0:0:
336,338,225508,2,0,L|258:328,1,70,0|0,0:0|0:0,0:0:0:0:
171,351,225936,2,0,L|93:361,1,70,8|2,0:0|0:0,0:0:0:0:
3,366,226365,2,0,L|9:324,1,35,0|0,0:0|0:0,0:0:0:0:
41,295,226579,2,0,L|35:253,1,35,8|0,0:0|0:0,0:0:0:0:
3,223,226793,6,0,P|26:175|28:146,1,70,0|0,0:0|0:0,0:0:0:0:
32,60,227222,2,0,L|81:66,1,35,2|0,0:0|0:0,0:0:0:0:
98,101,227436,2,0,L|147:95,1,35,0|0,0:0|0:0,0:0:0:0:
165,60,227650,2,0,L|173:5,2,46.6666666666667,8|0|0,0:0|0:0|0:0,0:0:0:0:
202,146,228079,2,0,L|210:201,2,46.6666666666667,0|0|0,0:0|0:0|0:0,0:0:0:0:
258,71,228508,6,0,P|301:53|360:56,1,105,2|0,0:0|0:0,0:0:0:0:
402,76,228936,2,0,L|399:151,1,70,0|0,0:0|0:0,0:0:0:0:
475,208,229365,2,0,L|479:308,1,93.3333333333333,8|0,0:0|0:0,0:0:0:0:
412,351,229793,1,0,0:0:0:0:
412,351,230222,6,0,B|386:308|386:308|311:325,1,105,0|0,0:0|0:0,0:0:0:0:
284,325,230650,2,0,B|258:368|258:368|203:355,1,93.3333333333333,2|0,0:0|0:0,0:0:0:0:
151,347,231079,1,8,0:0:0:0:
111,254,231293,2,0,P|125:212|82:115,1,140,2|8,0:0|0:0,0:0:0:0:
172,66,231936,6,0,B|262:37|294:120|389:66,1,210,2|0,0:0|0:0,0:0:0:0:
471,94,232793,2,0,L|480:13,2,70,8|2|0,0:0|0:0|0:0,0:0:0:0:
471,94,233650,6,0,P|436:82|354:153,1,140,0|2,0:0|0:0,0:0:0:0:
388,228,234293,1,0,0:0:0:0:
291,209,234508,2,0,L|213:206,1,70,8|0,0:0|0:0,0:0:0:0:
155,133,234936,2,0,L|77:136,1,70,0|8,0:0|0:0,0:0:0:0:
32,218,235365,6,0,L|18:366,1,140,2|0,0:0|0:0,0:0:0:0:
116,366,236008,1,0,0:0:0:0:
158,277,236222,2,0,L|149:190,1,70,8|0,0:0|0:0,0:0:0:0:
85,135,236650,1,0,0:0:0:0:
85,135,236758,1,0,0:0:0:0:
85,135,236865,1,8,0:0:0:0:
180,112,237079,6,0,L|188:25,2,70,0|10|2,0:0|0:0|0:0,0:0:0:0:
247,183,237722,2,0,L|250:217,1,35,0|0,0:0|0:0,0:0:0:0:
294,238,237936,2,0,L|290:272,2,35,8|0|0,0:0|0:0|0:0,0:0:0:0:
367,173,238365,1,0,0:0:0:0:
385,269,238579,1,0,0:0:0:0:
247,183,238793,5,4,0:0:0:0:
256,192,239008,12,0,241793,0:0:0:0:
