osu file format v14

[General]
AudioFilename: audio.mp3
AudioLeadIn: 0
PreviewTime: 54936
Countdown: 0
SampleSet: Soft
StackLeniency: 0.5
Mode: 0
LetterboxInBreaks: 0
WidescreenStoryboard: 0

[Editor]
Bookmarks: 82781,96496,127353,141067,154781,168496,183924,211353,225079,238781
DistanceSpacing: 1
BeatDivisor: 4
GridSize: 32
TimelineZoom: 3.199999

[Metadata]
Title:404 not found
TitleUnicode:404 not found
Artist:REOL
ArtistUnicode:REOL
Creator:SnowNiNo_
Version:Collab Light Insane
Source:
Tags:Σ sigma ギガ giga お菊 okiku toshitaka shinoda amana ijigen Chaoslitz DeRandom Otaku Ren
BeatmapID:1271485
BeatmapSetID:534116

[Difficulty]
HPDrainRate:6
CircleSize:4
OverallDifficulty:7
ApproachRate:8.2
SliderMultiplier:1.5
SliderTickRate:1

[Events]
//Background and Video events
0,0,"bz1080p.com_2016-07-09_17-29-02.jpg",0,0
//Break Periods
2,96708,99216
//Storyboard Layer 0 (Background)
//Storyboard Layer 1 (Fail)
//Storyboard Layer 2 (Pass)
//Storyboard Layer 3 (Foreground)
//Storyboard Sound Samples

[TimingPoints]
508,428.571428571429,4,2,0,50,1,0
508,-166.666666666667,4,2,0,50,0,0
14222,-100,4,2,2,70,0,0
55365,-83.3333333333333,4,2,2,90,0,1
81079,-83.3333333333333,4,2,2,90,0,0
82793,-74.0740740740741,4,2,2,90,0,1
83222,-74.0740740740741,4,2,2,90,0,1
83650,-74.0740740740741,4,2,2,90,0,1
84508,-66.6666666666667,4,2,2,90,0,1
84936,-66.6666666666667,4,2,2,90,0,1
85365,-74.0740740740741,4,2,2,90,0,1
86222,-62.5,4,2,2,90,0,1
86650,-62.5,4,2,2,90,0,1
87936,-83.3333333333333,4,2,2,90,0,1
88793,-68.9655172413793,4,2,2,90,0,1
89650,-76.9230769230769,4,2,2,90,0,1
90079,-76.9230769230769,4,2,2,90,0,1
90508,-64.5161290322581,4,2,2,90,0,1
91365,-58.8235294117647,4,2,2,90,0,1
91793,-71.4285714285714,4,2,2,90,0,1
92222,-58.8235294117647,4,2,2,90,0,1
92436,-58.8235294117647,4,2,2,90,0,1
92650,-58.8235294117647,4,2,2,90,0,1
92865,-58.8235294117647,4,2,2,90,0,1
93079,-76.9230769230769,4,2,2,90,0,1
93936,-57.1428571428571,4,2,2,90,0,1
94793,-76.9230769230769,4,2,2,90,0,1
96508,-100,4,2,2,70,0,0
141936,-200,4,2,0,50,0,0
154365,-100,4,2,2,70,0,0
170650,-66.6666666666667,4,2,2,70,0,0
171079,-100,4,2,2,70,0,0
175365,-100,4,2,2,70,0,0
177936,-66.6666666666667,4,2,2,70,0,0
178150,-80,4,2,2,70,0,0
178365,-100,4,2,2,70,0,0
178579,-133.333333333333,4,2,2,70,0,0
178793,-100,4,2,2,70,0,0
183508,-200,4,2,2,70,0,0
183936,-83.3333333333333,4,2,2,90,0,1
209650,-83.3333333333333,4,2,2,90,0,0
211365,-50,4,2,2,90,0,1
211793,-100,4,2,2,90,0,1
212222,-66.6666666666667,4,2,2,90,0,1
213079,-50,4,2,2,90,0,1
213508,-83.3333333333333,4,2,2,90,0,1
213936,-66.6666666666667,4,2,2,90,0,1
214794,-50,4,2,2,90,0,1
215222,-100,4,2,2,90,0,1
217365,-66.6666666666667,4,2,2,90,0,1
218222,-50,4,2,2,90,0,1
218650,-100,4,2,2,90,0,1
219079,-100,4,2,2,90,0,1
219936,-50,4,2,2,90,0,1
221008,-66.6666666666667,4,2,2,90,0,1
221222,-100,4,2,2,90,0,1
221436,-200,4,2,2,90,0,1
221650,-66.6666666666667,4,2,2,90,0,1
222508,-50,4,2,2,90,0,1
223365,-66.6666666666667,4,2,2,90,0,1
225079,-50,4,2,2,90,0,1
225508,-100,4,2,2,90,0,1
225936,-66.6666666666667,4,2,2,90,0,1
226794,-50,4,2,2,90,0,1
227222,-83.3333333333333,4,2,2,90,0,1
227650,-66.6666666666667,4,2,2,90,0,1
228508,-50,4,2,2,90,0,1
228936,-100,4,2,2,90,0,1
231079,-66.6666666666667,4,2,2,90,0,1
231936,-50,4,2,2,90,0,1
232365,-100,4,2,2,90,0,1
232793,-200,4,2,2,90,0,1
233650,-50,4,2,2,90,0,1
234722,-66.6666666666667,4,2,2,90,0,1
234936,-100,4,2,2,90,0,1
235150,-200,4,2,2,90,0,1
235365,-66.6666666666667,4,2,2,90,0,1
236222,-50,4,2,2,90,0,1
237079,-66.6666666666667,4,2,2,90,0,1
238793,-66.6666666666667,4,2,2,70,0,0
241793,-66.6666666666667,4,2,2,5,0,0

[Colours]
Combo1 : 128,128,128
Combo2 : 64,0,128
Combo3 : 192,192,192
Combo4 : 55,131,255

[HitObjects]
121,158,508,5,2,0:0:0:0:
121,158,1365,2,0,P|183:158|228:96,1,134.999995880127,2|0,0:0|0:0,0:0:0:0:
226,28,2222,2,0,P|254:25|279:27,1,44.999998626709,0|0,0:0|0:0,0:0:0:0:
346,34,2650,2,0,P|339:80|335:142,1,89.9999972534181,0|2,0:0|0:0,0:0:0:0:
335,123,3936,5,2,0:0:0:0:
335,123,4793,2,0,P|279:123|239:198,1,134.999995880127,2|0,0:0|0:0,0:0:0:0:
238,260,5650,2,0,P|209:268|188:268,1,44.999998626709,0|0,0:0|0:0,0:0:0:0:
117,268,6079,2,0,P|121:223|118:171,1,89.9999972534181,0|2,0:0|0:0,0:0:0:0:
119,178,7365,5,2,0:0:0:0:
119,178,8222,2,0,L|264:185,1,134.999995880127,2|0,0:0|0:0,0:0:0:0:
329,196,9079,2,0,P|334:168|334:148,1,44.999998626709,0|0,0:0|0:0,0:0:0:0:
332,74,9508,2,0,L|435:76,1,89.9999972534181,0|2,0:0|0:0,0:0:0:0:
259,71,10365,1,0,0:0:0:0:
329,196,10793,5,0,0:0:0:0:
256,192,10900,12,2,13365,0:0:0:0:
175,136,13579,5,0,0:0:0:0:
175,136,13793,2,0,P|172:167|173:192,1,44.999998626709,0|0,0:0|0:0,0:0:0:0:
180,263,14222,6,0,L|90:274,1,75,2|0,0:0|0:0,0:0:0:0:
98,190,14650,2,0,L|188:179,1,75,0|2,0:0|0:0,0:0:0:0:
254,170,15079,2,0,P|248:133|253:93,1,75,8|2,0:0|0:0,0:0:0:0:
335,95,15508,2,0,P|341:132|336:172,1,75,0|8,0:0|0:0,0:0:0:0:
327,250,15936,6,0,B|405:277|400:230|483:263,2,150,0|2|8,0:0|0:0|0:0,0:0:0:0:
164,279,17222,2,0,L|162:204,1,75,0|8,0:0|0:0,0:0:0:0:
160,121,17650,6,0,P|193:116|237:116,1,75,2|8,0:0|0:0,0:0:0:0:
293,174,18079,2,0,P|330:174|367:168,1,75,0|2,0:0|0:0,0:0:0:0:
446,143,18508,1,8,0:0:0:0:
446,143,18722,1,0,0:0:0:0:
376,96,18936,2,0,P|363:132|368:169,1,75,0|8,0:0|0:0,0:0:0:0:
389,248,19365,6,0,L|231:245,2,150,0|2|8,0:0|0:0|0:0,0:0:0:0:
242,323,20650,2,0,L|168:319,1,75,0|8,0:2|0:0,0:0:0:0:
84,315,21079,6,0,P|85:279|100:243,1,75,2|0,0:0|0:0,0:0:0:0:
175,210,21508,2,0,P|189:175|190:138,1,75,0|2,0:0|0:0,0:0:0:0:
190,55,21936,2,0,L|270:57,1,75,8|2,0:0|0:0,0:0:0:0:
294,134,22365,2,0,L|368:132,1,75,0|8,0:0|0:0,0:0:0:0:
436,85,22793,6,0,P|405:130|436:218,1,150,0|2,0:0|0:0,0:0:0:0:
490,273,23436,1,0,0:0:0:0:
431,331,23650,2,0,P|393:334|356:332,1,75,8|0,0:0|0:0,0:0:0:0:
297,273,24079,2,0,P|259:271|222:274,1,75,0|8,0:0|0:0,0:0:0:0:
176,343,24508,6,0,L|174:187,1,150,2|0,0:0|0:0,0:0:0:0:
220,124,25150,2,0,L|222:280,1,150,2|0,0:0|0:0,0:0:0:0:
267,343,25793,2,0,P|301:336|345:345,1,75,0|8,0:0|0:0,0:0:0:0:
421,356,26222,6,0,B|412:280|412:280|425:203,1,150,0|2,0:0|0:0,0:0:0:0:
444,127,26865,1,0,0:0:0:0:
367,156,27079,1,8,0:0:0:0:
341,146,27186,1,0,0:0:0:0:
319,128,27293,1,2,0:0:0:0:
304,105,27400,1,0,0:0:0:0:
296,78,27508,2,0,L|208:93,1,75,0|0,0:0|0:0,0:0:0:0:
142,112,27936,5,2,0:0:0:0:
202,167,28150,1,0,0:0:0:0:
143,225,28365,2,0,B|138:261|138:261|146:309,1,75,0|2,0:0|0:0,0:0:0:0:
220,330,28793,2,0,L|66:344,1,150,8|0,0:0|0:0,0:0:0:0:
12,285,29436,1,8,0:0:0:0:
70,226,29650,6,0,L|70:146,1,75,0|8,0:0|0:0,0:0:0:0:
149,53,30079,2,0,L|149:128,1,75,2|0,0:0|0:0,0:0:0:0:
207,186,30508,2,0,P|275:179|360:188,1,150,8|0,0:0|0:0,0:0:0:0:
429,223,31150,1,8,0:0:0:0:
356,261,31365,6,0,P|349:224|356:187,1,75,2|8,0:0|0:0,0:0:0:0:
429,150,31793,2,0,P|435:186|428:223,1,75,0|2,0:0|0:0,0:0:0:0:
356,261,32222,2,0,L|263:264,1,75,8|0,0:0|0:0,0:0:0:0:
198,266,32650,1,0,0:0:0:0:
241,336,32865,1,8,0:0:0:0:
281,264,33079,6,0,P|287:225|278:185,1,75,0|10,0:0|0:0,0:0:0:0:
361,116,33508,2,0,P|355:153|362:190,1,75,2|0,0:0|0:0,0:0:0:0:
435,153,33936,2,0,P|438:91|373:34,1,150,8|0,0:0|0:0,0:0:0:0:
361,116,34579,1,8,0:0:0:0:
435,153,34793,6,0,L|427:285,1,112.5,2|0,0:0|0:0,0:0:0:0:
423,306,35222,2,0,P|387:299|343:299,1,75,0|2,0:0|0:0,0:0:0:0:
268,319,35650,2,0,L|272:239,1,75,8|2,0:0|0:0,0:0:0:0:
191,169,36079,2,0,L|188:244,1,75,0|8,0:0|0:0,0:0:0:0:
183,325,36508,6,0,P|111:320|77:256,1,150,0|2,0:0|0:0,0:0:0:0:
114,182,37150,1,0,0:0:0:0:
48,131,37365,2,0,P|57:94|79:53,1,75,8|0,0:0|0:0,0:0:0:0:
155,61,37793,2,0,P|171:94|180:130,1,75,0|8,0:0|0:0,0:0:0:0:
114,182,38222,5,2,0:0:0:0:
182,227,38436,1,8,0:0:0:0:
182,227,38543,1,0,0:0:0:0:
182,227,38650,2,0,P|221:225|262:228,1,75,0|2,0:0|0:0,0:0:0:0:
337,247,39079,2,0,L|342:162,1,75,8|0,0:0|0:0,0:0:0:0:
261,152,39508,2,0,L|256:237,1,75,0|8,0:0|0:0,0:0:0:0:
279,306,39936,5,0,0:0:0:0:
337,247,40150,1,10,0:0:0:0:
365,324,40365,2,0,P|404:333|447:333,1,75,2|0,0:0|0:0,0:0:0:0:
492,271,40793,1,8,0:0:0:0:
492,271,41008,1,2,0:0:0:0:
424,217,41222,1,0,0:0:0:0:
439,333,41436,1,0,0:0:0:0:
493,179,41650,6,0,P|437:140|363:166,1,150,2|0,0:0|0:0,0:0:0:0:
306,222,42293,1,2,0:0:0:0:
247,163,42508,2,0,L|157:170,1,75,8|2,0:0|0:0,0:0:0:0:
92,188,42936,2,0,P|104:231|104:268,1,75,0|8,0:0|0:0,0:0:0:0:
29,296,43365,6,0,L|194:307,1,150,0|2,0:0|0:0,0:0:0:0:
237,247,44008,1,0,0:0:0:0:
295,305,44222,1,8,0:0:0:0:
295,305,45079,6,0,P|344:281|344:193,1,150,2|0,0:0|0:0,0:0:0:0:
286,135,45722,1,2,0:0:0:0:
345,77,45936,2,0,P|280:52|215:91,1,150,8|0,0:0|0:0,0:0:0:0:
167,157,46579,1,8,0:0:0:0:
113,94,46793,6,0,P|122:163|132:260,1,150,0|2,0:0|0:0,0:0:0:0:
135,325,47436,1,0,0:0:0:0:
203,279,47650,2,0,L|286:281,1,75,8|2,0:0|0:0,0:0:0:0:
342,199,48079,2,0,L|268:198,1,75,0|8,0:0|0:0,0:0:0:0:
302,123,48508,6,0,P|380:123|428:186,1,150,2|0,0:0|0:0,0:0:0:0:
342,199,49150,1,2,0:0:0:0:
302,123,49365,1,8,0:0:0:0:
380,96,49579,2,0,P|348:55|251:57,1,150,2|8,0:0|0:0,0:0:0:0:
186,98,50222,6,0,L|195:173,1,75,0|8,0:0|0:0,0:0:0:0:
98,228,50650,2,0,L|107:153,1,75,2|0,0:0|0:0,0:0:0:0:
174,248,51079,2,0,P|140:293|52:292,1,150,8|0,0:0|0:0,0:0:0:0:
98,228,51722,1,0,0:0:0:0:
174,248,51936,6,0,P|237:248|293:179,1,150,2|0,0:0|0:0,0:0:0:0:
264,108,52579,1,2,0:0:0:0:
209,170,52793,2,0,L|215:326,1,150,8|0,0:0|0:0,0:0:0:0:
273,378,53436,1,8,0:0:0:0:
331,319,53650,6,0,P|367:311|413:313,1,75,0|10,0:0|0:0,0:0:0:0:
463,253,54079,1,2,0:0:0:0:
404,194,54293,1,0,0:0:0:0:
401,166,54400,1,0,0:0:0:0:
408,138,54507,1,8,0:0:0:0:
423,115,54614,1,0,0:0:0:0:
445,98,54721,1,2,0:0:0:0:
336,32,54936,5,0,0:0:0:0:
256,128,55150,1,0,0:0:0:0:
176,32,55365,6,0,P|137:32|92:53,1,89.9999972534181,6|0,0:0|0:0,0:0:0:0:
172,149,55793,2,0,P|211:149|256:128,1,89.9999972534181,0|2,0:0|0:0,0:0:0:0:
336,32,56222,1,8,0:0:0:0:
389,114,56436,2,0,L|384:216,1,89.9999972534181,2|0,0:0|0:0,0:0:0:0:
384,303,56865,6,0,P|339:303|291:266,1,89.9999972534181,8|0,0:0|0:0,0:0:0:0:
128,303,57293,2,0,P|173:303|221:266,1,89.9999972534181,8|2,0:0|0:0,0:0:0:0:
245,187,57722,1,0,0:0:0:0:
150,221,57936,1,8,0:0:0:0:
150,221,58365,5,0,0:0:0:0:
245,187,58579,1,8,0:0:0:0:
85,177,58793,6,0,P|72:217|87:267,1,89.9999972534181,2|0,0:0|0:0,0:0:0:0:
205,374,59222,2,0,P|218:334|203:284,1,89.9999972534181,0|2,0:0|0:0,0:0:0:0:
150,221,59650,2,0,P|196:244|324:244,1,179.999994506836,8|0,0:0|0:0,0:0:0:0:
418,219,60293,6,0,P|410:257|415:312,1,89.9999972534181,8|0,0:0|0:0,0:0:0:0:
318,156,60722,2,0,P|326:194|321:249,1,89.9999972534181,10|2,0:0|0:0,0:0:0:0:
305,342,61150,1,0,0:0:0:0:
305,342,61258,1,0,0:0:0:0:
305,342,61365,2,0,P|258:336|215:336,1,89.9999972534181,8|2,0:0|0:0,0:0:0:0:
116,335,61793,1,0,0:0:0:0:
159,245,62008,1,8,0:0:0:0:
62,266,62222,6,0,P|56:224|70:174,1,89.9999972534181,2|0,0:0|0:0,0:0:0:0:
165,158,62650,2,0,P|171:200|157:250,1,89.9999972534181,0|2,0:0|0:0,0:0:0:0:
116,335,63079,2,0,P|192:316|297:342,1,179.999994506836,8|0,0:0|0:0,0:0:0:0:
380,298,63722,1,8,0:0:0:0:
299,241,63936,6,0,P|299:196|323:158,1,89.9999972534181,0|8,0:0|0:0,0:0:0:0:
251,54,64365,2,0,P|251:99|227:137,1,89.9999972534181,2|0,0:0|0:0,0:0:0:0:
154,70,64793,2,0,L|161:256,1,179.999994506836,8|0,0:0|0:0,0:0:0:0:
233,316,65436,1,8,0:0:0:0:
299,241,65650,6,0,L|395:252,1,89.9999972534181,2|0,0:0|0:0,0:0:0:0:
322,326,66079,2,0,L|226:315,1,89.9999972534181,0|2,0:0|0:0,0:0:0:0:
160,250,66508,1,8,0:0:0:0:
160,250,66936,2,0,L|116:253,1,44.999998626709,0|0,0:0|0:0,0:0:0:0:
65,253,67150,6,0,P|64:208|67:154,1,89.9999972534181,8|0,0:0|0:0,0:0:0:0:
116,77,67579,1,2,0:0:0:0:
181,151,67793,2,0,P|265:151|323:76,1,179.999994506836,2|8,0:0|0:0,0:0:0:0:
224,60,68436,1,2,0:0:0:0:
181,151,68650,5,0,0:0:0:0:
338,192,68865,1,0,0:0:0:0:
181,234,69079,6,0,P|166:195|189:142,1,89.9999972534181,6|0,0:0|0:0,0:0:0:0:
337,109,69508,2,0,P|352:148|329:201,1,89.9999972534181,0|2,0:0|0:0,0:0:0:0:
281,273,69936,1,8,0:0:0:0:
379,260,70150,2,0,L|477:264,1,89.9999972534181,2|0,0:0|0:0,0:0:0:0:
337,109,70579,6,0,P|322:148|345:201,1,89.9999972534181,8|0,0:0|0:0,0:0:0:0:
378,343,71008,2,8,P|393:304|370:251,1,89.9999972534181,8|2,0:0|0:0,0:0:0:0:
400,152,71436,1,0,0:0:0:0:
470,264,71650,1,8,0:0:0:0:
470,264,72079,5,0,0:0:0:0:
400,152,72293,1,8,0:0:0:0:
379,260,72508,6,0,L|276:257,1,89.9999972534181,2|0,0:0|0:0,0:0:0:0:
310,149,72936,2,0,L|413:152,1,89.9999972534181,0|2,0:0|0:0,0:0:0:0:
249,199,73365,2,0,P|239:116|315:70,1,179.999994506836,8|0,0:0|0:0,0:0:0:0:
484,68,74008,6,0,L|479:162,1,89.9999972534181,8|0,0:0|0:0,0:0:0:0:
395,241,74436,2,0,L|400:147,1,89.9999972534181,10|2,0:0|0:0,0:0:0:0:
380,55,74865,1,0,0:0:0:0:
380,55,74972,1,0,0:0:0:0:
380,55,75079,2,0,P|339:78|288:78,1,89.9999972534181,8|2,0:0|0:0,0:0:0:0:
215,23,75508,1,0,0:0:0:0:
189,155,75722,1,8,0:0:0:0:
128,35,75936,6,0,P|171:20|226:27,1,89.9999972534181,2|0,0:0|0:0,0:0:0:0:
297,80,76365,2,0,P|341:83|383:68,1,89.9999972534181,0|2,0:0|0:0,0:0:0:0:
476,28,76793,1,8,0:0:0:0:
462,127,77008,2,0,L|467:252,1,89.9999972534181,2|0,0:0|0:0,0:0:0:0:
415,302,77436,1,8,0:0:0:0:
353,224,77650,6,0,P|311:214|265:226,1,89.9999972534181,0|8,0:0|0:0,0:0:0:0:
235,319,78079,2,0,P|191:330|148:320,1,89.9999972534181,2|0,0:0|0:0,0:0:0:0:
92,238,78508,1,8,0:0:0:0:
191,230,78722,2,0,P|200:186|189:143,2,89.9999972534181,0|0|8,0:0|0:0|0:0,0:0:0:0:
148,320,79365,5,2,0:0:0:0:
92,238,79579,2,0,P|48:228|5:239,2,89.9999972534181,0|0|2,0:0|0:0|0:0,0:0:0:0:
148,320,80222,2,0,P|124:264|215:246,1,179.999994506836,8|0,0:0|0:0,0:0:0:0:
249,337,80865,6,0,L|345:328,1,89.9999972534181,8|0,0:0|0:0,0:0:0:0:
419,271,81293,1,10,0:0:0:0:
333,221,81508,2,0,P|333:175|358:136,1,89.9999972534181,2|0,0:0|0:0,0:0:0:0:
385,99,81829,1,0,0:0:0:0:
385,99,81936,2,0,L|202:105,1,179.999994506836,8|0,0:0|0:0,0:0:0:0:
205,105,82793,6,0,B|229:151|229:151|220:270,1,151.875000579357,6|0,0:0|0:0,0:0:0:0:
175,313,83222,2,0,B|221:289|221:289|340:298,1,151.875000579357
370,306,83650,1,8,0:0:0:0:
309,211,83865,1,2,0:0:0:0:
435,161,84079,2,0,P|439:128|436:97,1,50.6250001931191,0|0,0:0|0:0,0:0:0:0:
414,33,84293,2,0,P|410:66|413:97,1,50.6250001931191,8|0,0:0|0:0,0:0:0:0:
472,219,84508,6,0,B|432:201|403:217|403:217|386:210|386:210|349:225|303:209,1,168.750006437302,0|0,0:0|0:0,0:0:0:0:
243,183,84936,2,0,B|250:160|250:160|250:116,1,56.2500021457673,2|0,0:0|0:0,0:0:0:0:
183,47,85150,2,0,B|176:70|176:70|176:114,1,56.2500021457673,0|0,0:0|0:0,0:0:0:0:
184,230,85365,5,8,0:0:0:0:
148,251,85508,1,0,0:0:0:0:
106,254,85650,1,0,0:0:0:0:
98,273,85793,5,0,0:0:0:0:
140,270,85935,1,8,0:0:0:0:
176,249,86078,1,0,0:0:0:0:
183,266,86222,6,0,B|206:312|196:354|196:354|233:331|286:336,1,180,2|0,0:0|0:0,0:0:0:0:
297,177,86650,2,0,B|256:136|256:136|260:288,1,180,0|0,0:0|0:0,0:0:0:0:
353,237,87079,2,0,P|377:198|373:147,2,80,8|0|0,0:0|0:0|0:0,0:0:0:0:
297,177,87508,2,0,L|309:48,1,120,0|8,0:0|0:0,0:0:0:0:
468,163,87936,6,0,L|366:165,1,89.9999972534181,0|2,0:0|0:0,0:0:0:0:
297,177,88258,1,0,0:0:0:0:
289,193,88365,2,0,L|187:195,1,89.9999972534181,2|0,0:0|0:0,0:0:0:0:
118,207,88686,1,0,0:0:0:0:
110,223,88793,6,0,L|41:225,1,54.3750016593934,8|0,0:0|0:0,0:0:0:0:
187,357,89008,2,0,B|195:294|195:294|192:266|192:266|202:171,1,163.12500497818,2|0,0:0|0:0,0:0:0:0:
289,193,89436,2,0,L|284:256,1,54.3750016593934,8|0,0:0|0:0,0:0:0:0:
238,133,89650,6,0,P|295:113|363:170,1,146.249993305207,2|0,0:0|0:0,0:0:0:0:
415,210,90079,2,0,P|406:162|421:112,1,97.4999955368044,0|0,0:0|0:0,0:0:0:0:
439,46,90400,1,0,0:0:0:0:
426,25,90508,6,0,B|395:21|395:21|359:29,1,58.1250004434586,8|0,0:0|0:0,0:0:0:0:
283,97,90722,2,0,B|314:101|314:101|350:93,1,58.1250004434586,2|0,0:0|0:0,0:0:0:0:
254,25,90936,2,0,B|223:21|223:21|196:26,1,58.1250004434586,0|0,0:0|0:0,0:0:0:0:
111,97,91150,2,0,B|142:101|142:101|178:93,1,58.1250004434586,0|0,0:0|0:0,0:0:0:0:
54,23,91365,6,0,B|71:92|71:92|57:137|57:137|73:216,1,191.250003647804,0|0,0:0|0:0,0:0:0:0:
153,221,91793,2,0,L|136:152,1,52.4999983978272,2|0,0:0|0:0,0:0:0:0:
30,278,92008,2,0,L|47:347,1,52.4999983978272,0|0,0:0|0:0,0:0:0:0:
183,306,92222,6,0,P|152:299|117:309,1,63.7500012159348,8|0,0:0|0:0,0:0:0:0:
286,335,92436,2,0,P|255:342|224:335,1,63.7500012159348,0|0,0:0|0:0,0:0:0:0:
389,306,92650,2,0,P|358:299|323:309,1,63.7500012159348,0|0,0:0|0:0,0:0:0:0:
492,335,92864,2,0,P|461:342|430:335,1,63.7500012159348,8|0,0:0|0:0,0:0:0:0:
460,121,93079,6,0,L|457:267,1,146.249993305207,2|0,0:0|0:0,0:0:0:0:
389,306,93508,2,0,B|348:293|348:293|322:303|322:303|291:293|291:293|243:313,1,146.249993305207,0|0,0:0|0:0,0:0:0:0:
172,344,93936,6,0,L|174:265,1,65.6250006258488,8|0,0:0|0:0,0:0:0:0:
226,119,94150,2,0,L|228:198,1,65.6250006258488,0|0,0:0|0:0,0:0:0:0:
318,226,94365,1,0,0:0:0:0:
317,206,94472,1,0,0:0:0:0:
316,186,94579,1,8,0:0:0:0:
308,36,94793,6,0,L|197:41,2,97.4999955368044,0|2|2,0:0|0:0|0:0,0:0:0:0:
446,90,95436,1,0,0:0:0:0:
446,90,95543,1,0,0:0:0:0:
446,90,95650,2,0,L|443:148,3,48.7499977684022,8|0|2|0,0:0|0:0|0:0|0:0,0:0:0:0:
438,182,96079,1,0,0:0:0:0:
368,116,96293,1,0,0:0:0:0:
316,186,96508,5,0,0:0:0:0:
299,186,99936,6,0,L|139:196,1,150,2|0,0:0|0:0,0:0:0:0:
75,230,100579,1,2,0:0:0:0:
146,269,100793,2,0,P|155:227|147:190,1,75,8|2,0:0|0:0,0:0:0:0:
90,138,101222,2,0,P|84:101|93:64,1,75,0|8,0:0|0:0,0:0:0:0:
164,22,101650,6,0,L|248:26,1,75,0|8,0:0|0:0,0:0:0:0:
321,30,102079,2,0,P|328:94|323:180,1,150,2|8,0:0|0:0,0:0:0:0:
318,261,102722,1,0,0:0:0:0:
391,224,102936,2,0,P|400:258|379:314,1,75,0|8,0:0|0:0,0:0:0:0:
387,337,103258,1,0,0:0:0:0:
387,337,103365,5,2,0:0:0:0:
318,261,103579,2,0,L|233:266,1,75,8|0,0:0|0:0,0:0:0:0:
160,274,104008,1,2,0:0:0:0:
191,198,104222,2,0,P|194:159|184:116,1,75,8|0,0:0|0:0,0:0:0:0:
172,42,104650,1,0,0:0:0:0:
246,77,104865,1,8,0:0:0:0:
308,23,105079,6,0,B|346:27|376:22|376:22|384:32|384:32|412:25|460:30,2,150,0|2|8,0:0|0:0|0:0,0:0:0:0:
246,77,106150,1,2,0:0:0:0:
307,132,106365,2,0,P|316:168|309:207,1,75,0|8,0:0|0:0,0:0:0:0:
294,285,106793,5,2,0:0:0:0:
376,293,107008,1,0,0:0:0:0:
391,214,107222,1,0,0:0:0:0:
309,206,107437,1,2,0:0:0:0:
227,199,107650,2,0,P|229:160|242:120,1,75,8|2,0:0|0:0,0:0:0:0:
321,133,108079,2,0,P|319:172|306:212,1,75,0|8,0:0|0:0,0:0:0:0:
259,273,108508,5,0,0:0:0:0:
259,273,108722,1,8,0:0:0:0:
227,199,108936,2,0,P|188:198|152:206,1,75,2|0,0:0|0:0,0:0:0:0:
117,280,109365,2,0,L|104:124,1,150,8|0,0:0|0:0,0:0:0:0:
88,49,110008,1,8,0:0:0:0:
164,79,110222,6,0,P|206:79|243:65,1,75,2|8,0:0|0:0,0:0:0:0:
319,68,110650,2,0,P|354:79|391:78,1,75,0|2,0:0|0:0,0:0:0:0:
467,46,111079,1,8,0:0:0:0:
498,122,111293,1,0,0:0:0:0:
425,161,111508,1,0,0:0:0:0:
425,161,111615,1,0,0:0:0:0:
425,161,111722,1,8,0:0:0:0:
478,223,111936,6,0,L|470:302,1,75,0|10,0:0|0:0,0:0:0:0:
411,356,112365,1,2,0:0:0:0:
352,297,112579,1,0,0:0:0:0:
324,293,112686,1,0,0:0:0:0:
296,299,112793,1,8,0:0:0:0:
273,314,112900,1,0,0:0:0:0:
255,336,113007,1,2,0:0:0:0:
197,277,113222,1,0,0:0:0:0:
255,218,113436,1,0,0:0:0:0:
175,196,113650,5,2,0:0:0:0:
197,277,113865,2,0,P|125:296|45:275,1,150,0|2,0:0|0:0,0:0:0:0:
13,206,114508,2,0,P|13:169|30:127,1,75,8|2,0:0|0:0,0:0:0:0:
60,58,114936,1,0,0:0:0:0:
105,127,115150,1,8,0:0:0:0:
158,63,115365,6,0,P|195:63|235:81,1,75,0|8,0:0|0:0,0:0:0:0:
269,149,115793,2,0,P|306:148|340:134,1,75,2|0,0:0|0:0,0:0:0:0:
379,61,116222,2,0,L|379:219,1,150,8|0,0:0|0:0,0:0:0:0:
437,269,116865,1,8,0:0:0:0:
378,327,117079,5,2,0:0:0:0:
319,268,117293,2,0,L|244:272,1,75,8|0,0:0|0:0,0:0:0:0:
161,281,117722,1,2,0:0:0:0:
194,205,117936,1,8,0:0:0:0:
194,205,118150,1,0,0:0:0:0:
244,272,118365,2,0,L|245:370,1,75,0|8,0:0|0:0,0:0:0:0:
322,374,118793,5,0,0:0:0:0:
377,312,119008,1,10,0:0:0:0:
322,250,119222,1,2,0:0:0:0:
375,187,119436,1,0,0:0:0:0:
375,187,119543,1,0,0:0:0:0:
375,187,119650,2,0,P|381:148|366:106,1,75,8|0,0:0|0:0,0:0:0:0:
356,75,119972,1,0,0:0:0:0:
356,75,120079,2,0,P|336:84|314:89,3,37.5,0|0|8|0,0:0|0:0|0:0|0:0,0:0:0:0:
280,97,120508,6,0,P|248:60|152:60,2,150,2|0|8,0:0|0:0|0:0,0:0:0:0:
202,125,121579,2,0,L|208:222,1,75,2|0,0:0|0:0,0:0:0:0:
214,282,122008,1,8,0:0:0:0:
280,233,122222,5,0,0:0:0:0:
280,233,122436,1,8,0:0:0:0:
345,282,122650,2,0,P|361:244|355:201,1,75,2|0,0:0|0:0,0:0:0:0:
351,126,123079,2,0,P|287:160|279:232,1,150,8|0,0:0|0:0,0:0:0:0:
345,282,123722,1,8,0:0:0:0:
314,358,123936,5,2,0:0:0:0:
248,308,124150,2,0,P|213:307|165:310,1,75,8|0,0:0|0:0,0:0:0:0:
90,318,124579,1,2,0:0:0:0:
126,244,124793,2,8,P|127:209|124:161,1,75,8|0,0:0|0:0,0:0:0:0:
203,75,125222,2,0,P|202:112|205:150,1,75,0|8,0:0|0:0,0:0:0:0:
239,224,125650,6,0,P|288:211|388:211,1,150,0|2,0:0|0:0,0:0:0:0:
469,210,126293,1,0,0:0:0:0:
469,210,126400,1,0,0:0:0:0:
469,210,126508,2,0,P|463:172|470:133,1,75,8|0,0:0|0:0,0:0:0:0:
474,54,126936,1,0,0:0:0:0:
405,100,127150,1,0,0:0:0:0:
361,29,127365,6,0,P|318:47|211:61,1,150,2|0,0:0|0:0,0:0:0:0:
128,41,128008,1,2,0:0:0:0:
128,41,128222,2,0,P|146:85|171:210,1,150,8|0,0:0|0:0,0:0:0:0:
412,355,129079,2,0,P|426:281|452:211,2,150,0|0|8,0:0|0:0|0:0,0:0:0:0:
420,362,130579,1,0,0:0:0:0:
420,362,130686,1,0,0:0:0:0:
420,362,130793,6,0,P|362:335|262:319,1,150,2|0,0:0|0:0,0:0:0:0:
182,336,131436,1,2,0:0:0:0:
182,336,131650,2,0,L|190:167,1,150,8|0,0:0|0:0,0:0:0:0:
16,22,132508,2,0,L|23:171,2,150,0|2|8,0:0|0:0|0:0,0:0:0:0:
16,22,133579,5,2,0:0:0:0:
44,30,133686,1,0,0:0:0:0:
72,38,133793,1,0,0:0:0:0:
100,46,133900,1,0,0:0:0:0:
128,54,134008,1,8,0:0:0:0:
156,62,134115,1,0,0:0:0:0:
184,70,134222,6,0,P|263:89|365:91,1,150,2|0,0:0|0:0,0:0:0:0:
419,72,134865,1,2,0:0:0:0:
419,72,135079,2,0,L|402:249,1,150,8|0,0:0|0:0,0:0:0:0:
147,206,135936,2,0,L|164:383,2,150,0|2|8,0:0|0:0|0:0,0:0:0:0:
154,213,137436,1,0,0:0:0:0:
154,213,137543,1,0,0:0:0:0:
154,213,137650,6,0,P|114:176|64:85,1,150,2|0,0:0|0:0,0:0:0:0:
244,179,138293,1,2,0:0:0:0:
244,179,138508,2,0,P|247:253|228:325,1,150,8|0,0:0|0:0,0:0:0:0:
172,109,139150,1,8,0:0:0:0:
172,109,139365,6,0,P|228:89|254:86,1,75,0|10,0:0|0:0,0:0:0:0:
315,201,139793,2,0,P|278:193|243:178,1,75,0|0,0:0|0:0,0:0:0:0:
92,182,140222,1,8,0:0:0:0:
121,188,140329,1,0,0:0:0:0:
147,201,140436,1,2,0:0:0:0:
164,224,140543,1,0,0:0:0:0:
173,252,140650,2,0,P|169:313|159:346,1,75,0|0,0:0|0:0,0:0:0:0:
71,358,141079,5,6,0:0:0:0:
71,358,141936,6,0,P|90:327|11:281,1,150,2|2,0:0|0:0,0:0:0:0:
15,277,143650,1,2,0:0:0:0:
15,277,144079,1,2,0:0:0:0:
62,219,144293,1,2,0:0:0:0:
134,239,144508,1,2,0:0:0:0:
134,239,145365,6,0,P|169:225|172:120,1,150,2|2,0:0|0:0,0:0:0:0:
177,125,147508,2,0,L|188:35,1,75,2|2,0:0|0:0,0:0:0:0:
186,50,148793,6,0,P|233:33|307:101,1,150,2|2,0:0|0:0,0:0:0:0:
233,111,149865,1,0,0:0:0:0:
233,111,150079,1,0,0:0:0:0:
233,111,150508,2,0,L|230:228,1,112.5,2|2,0:0|0:0,0:0:0:0:
224,298,151365,5,2,0:0:0:0:
224,298,153079,5,0,0:0:0:0:
224,298,154365,2,0,L|103:286,1,112.5,0|0,0:0|0:0,0:0:0:0:
137,216,154793,6,0,L|212:223,2,50,8|0|0,0:0|0:0|0:0,0:0:0:0:
36,227,155222,2,0,P|58:169|57:109,1,100,8|0,0:0|0:0,0:0:0:0:
67,31,155650,2,0,L|17:26,2,50,8|0|0,0:0|0:0|0:0,0:0:0:0:
149,89,156079,2,0,L|269:77,1,100,8|0,0:0|0:0,0:0:0:0:
347,57,156508,6,0,P|372:106|362:159,1,100,8|0,0:0|0:0,0:0:0:0:
441,161,156936,2,0,P|411:207|360:224,1,100,8|0,0:0|0:0,0:0:0:0:
398,294,157365,2,0,P|343:291|302:255,1,100,8|0,0:0|0:0,0:0:0:0:
303,189,157793,2,0,L|193:182,1,100,8|0,0:0|0:0,0:0:0:0:
258,261,158222,6,0,L|307:264,2,50,8|0|0,0:0|0:0|0:0,0:0:0:0:
172,312,158650,2,0,L|122:315,2,50,8|0|0,0:0|0:0|0:0,0:0:0:0:
258,261,159079,2,0,L|261:211,2,50,8|0|0,0:0|0:0|0:0,0:0:0:0:
172,312,159507,2,0,L|175:361,2,50,8|0|0,0:0|0:0|0:0,0:0:0:0:
263,354,159936,6,0,P|311:341|378:339,1,100,8|0,0:0|0:0,0:0:0:0:
459,360,160365,2,0,P|442:299|442:247,1,100,8|0,0:0|0:0,0:0:0:0:
460,164,160793,1,8,0:0:0:0:
460,164,161222,2,0,L|470:114,2,50,8|0|0,0:0|0:0|0:0,0:0:0:0:
366,198,161650,6,0,P|321:162|259:150,1,100,8|0,0:0|0:0,0:0:0:0:
190,195,162079,2,0,L|131:186,2,50,8|0|0,0:0|0:0|0:0,0:0:0:0:
275,249,162508,2,0,L|315:352,1,100,8|0,0:0|0:0,0:0:0:0:
280,150,162936,2,0,L|349:63,1,100,8|0,0:0|0:0,0:0:0:0:
190,195,163365,6,0,L|131:186,2,50,8|0|0,0:0|0:0|0:0,0:0:0:0:
275,249,163793,2,0,L|296:304,2,50,8|0|0,0:0|0:0|0:0,0:0:0:0:
280,150,164222,2,0,P|287:89|274:43,1,100,8|0,0:0|0:0,0:0:0:0:
190,195,164650,2,0,P|180:243|187:292,1,100,8|0,0:0|0:0,0:0:0:0:
275,249,165079,6,0,L|392:236,1,100,8|0,0:0|0:0,0:0:0:0:
280,150,165508,2,0,L|163:137,1,100,8|0,0:0|0:0,0:0:0:0:
372,162,165936,2,0,L|489:149,1,100,8|0,0:0|0:0,0:0:0:0:
377,63,166365,2,0,L|260:50,1,100,8|0,0:0|0:0,0:0:0:0:
180,138,166793,6,0,L|166:238,1,100,8|0,0:0|0:0,0:0:0:0:
266,225,167222,2,0,L|280:325,1,100,8|0,0:0|0:0,0:0:0:0:
103,165,167650,2,0,L|89:265,1,100,8|0,0:0|0:0,0:0:0:0:
342,249,168079,2,0,L|356:349,1,100,8|0,0:0|0:0,0:0:0:0:
282,178,168508,6,2,P|317:159|409:181,1,100,2|0,0:0|0:0,0:0:0:0:
413,193,168936,2,0,L|405:73,1,100
396,43,169365,2,0,L|342:34,1,37.5
326,55,169579,2,0,L|272:64,1,37.5
253,50,169793,2,0,L|129:29,1,100
104,24,170222,6,0,P|78:62|80:179,2,150,0|0|0,0:0|0:0|0:0,0:0:0:0:
153,17,171222,1,0,0:0:0:0:
202,13,171365,1,0,0:0:0:0:
261,84,171508,5,0,0:0:0:0:
212,88,171651,1,0,0:0:0:0:
163,92,171793,1,0,0:0:0:0:
126,166,171936,6,0,P|101:202|91:280,1,100
99,305,172365,2,0,L|216:290,1,100
240,265,172793,2,0,L|357:280,1,100
389,280,173222,1,0,0:0:0:0:
468,151,173650,6,0,L|356:136,1,100
333,102,174079,2,0,L|221:116,1,100
184,124,174508,1,0,0:0:0:0:
251,212,174722,2,0,L|233:328,1,112.5,0|0,0:0|0:0,0:0:0:0:
208,246,175150,2,0,L|198:303,1,37.5,0|0,0:0|0:0,0:0:0:0:
138,316,175365,5,0,0:0:0:0:
227,54,175793,1,0,0:0:0:0:
60,251,176222,1,0,0:0:0:0:
305,119,176650,1,0,0:0:0:0:
138,316,177079,5,0,0:0:0:0:
149,41,177508,1,0,0:0:0:0:
347,225,177936,1,0,0:0:0:0:
35,179,178365,1,0,0:0:0:0:
323,75,178793,6,0,L|413:83,1,75,0|0,0:0|0:0,0:0:0:0:
209,243,179222,2,0,L|119:251,1,75,0|0,0:0|0:0,0:0:0:0:
412,184,179650,2,0,P|429:231|431:282,1,75,0|0,0:0|0:0,0:0:0:0:
118,118,180079,2,0,P|123:81|137:46,1,75,0|0,0:0|0:0,0:0:0:0:
215,206,180508,5,2,0:0:0:0:
192,235,180615,1,2,0:0:0:0:
160,255,180722,1,2,0:0:0:0:
123,261,180829,1,2,0:0:0:0:
87,255,180936,2,0,P|68:244|56:231,1,37.5,2|2,0:0|0:0,0:0:0:0:
118,118,181150,2,0,P|137:129|149:142,1,37.5,2|2,0:0|0:0,0:0:0:0:
215,206,181365,1,2,0:0:0:0:
213,243,181472,1,2,0:0:0:0:
211,280,181579,1,2,0:0:0:0:
209,318,181686,1,2,0:0:0:0:
207,355,181793,5,0,0:0:0:0:
296,310,182079,1,0,0:0:0:0:
296,310,183508,6,0,P|323:282|331:279,1,37.5,0|0,0:0|0:0,0:0:0:0:
419,283,183936,6,0,L|413:179,1,89.9999972534181,6|0,0:0|0:0,0:0:0:0:
483,116,184365,2,0,L|489:12,1,89.9999972534181,0|2,0:0|0:0,0:0:0:0:
394,52,184793,2,0,P|359:80|224:95,1,179.999994506836,8|0,0:0|0:0,0:0:0:0:
38,110,185436,6,0,L|49:8,1,89.9999972534181,8|0,0:0|0:0,0:0:0:0:
140,203,185865,2,0,L|129:101,1,89.9999972534181,8|2,0:0|0:0,0:0:0:0:
48,200,186293,1,0,0:0:0:0:
38,289,186508,2,0,L|49:187,1,89.9999972534181,8|0,0:0|0:0,0:0:0:0:
130,292,186936,1,0,0:0:0:0:
130,292,187150,1,8,0:0:0:0:
140,203,187365,6,0,P|200:170|313:175,1,179.999994506836,2|0,0:0|0:0,0:0:0:0:
341,269,188008,1,2,0:0:0:0:
402,103,188222,2,0,L|408:202,1,89.9999972534181,8|0,0:0|0:0,0:0:0:0:
309,174,188650,1,0,0:0:0:0:
422,293,188865,6,0,P|369:289|339:267,1,89.9999972534181,8|0,0:0|0:0,0:0:0:0:
261,333,189293,2,0,P|237:285|242:248,1,89.9999972534181,10|2,0:0|0:0,0:0:0:0:
308,173,189722,1,0,0:0:0:0:
210,155,189936,1,8,0:0:0:0:
278,80,190150,2,0,L|272:33,1,44.999998626709,2|0,0:0|0:0,0:0:0:0:
184,16,190365,2,0,L|178:63,1,44.999998626709,0|0,0:0|0:0,0:0:0:0:
99,101,190579,2,0,L|93:54,1,44.999998626709,8|0,0:0|0:0,0:0:0:0:
14,16,190793,6,0,L|0:117,1,89.9999972534181,2|0,0:0|0:0,0:0:0:0:
54,188,191222,2,0,L|68:289,1,89.9999972534181,0|2,0:0|0:0,0:0:0:0:
23,356,191650,2,0,P|73:330|209:313,1,179.999994506836,8|0,0:0|0:0,0:0:0:0:
269,360,192293,1,8,0:0:0:0:
325,289,192508,6,0,P|344:239|347:190,1,89.9999972534181,0|8,0:0|0:0,0:0:0:0:
430,167,192936,2,0,P|411:117|408:68,1,89.9999972534181,2|0,0:0|0:0,0:0:0:0:
474,20,193365,2,0,P|429:45|283:68,1,179.999994506836,8|0,0:0|0:0,0:0:0:0:
225,24,194008,1,8,0:0:0:0:
182,103,194222,6,0,L|175:205,2,89.9999972534181,2|8|0,0:0|0:0|0:0,0:0:0:0:
105,54,194865,1,2,0:0:0:0:
18,180,195079,2,0,L|31:374,1,179.999994506836,8|0,0:0|0:0,0:0:0:0:
74,369,195615,1,0,0:0:0:0:
74,369,195722,1,8,0:0:0:0:
111,287,195936,6,0,L|104:197,2,89.9999972534181,0|10|2,0:0|0:0|0:0,0:0:0:0:
201,270,196579,2,0,L|198:315,1,44.999998626709,0|0,0:0|0:0,0:0:0:0:
289,357,196793,2,0,L|285:312,1,44.999998626709,8|0,0:0|0:0,0:0:0:0:
375,274,197008,2,0,L|371:319,1,44.999998626709,0|0,0:0|0:0,0:0:0:0:
452,362,197222,1,0,0:0:0:0:
499,282,197436,1,0,0:0:0:0:
378,190,197650,6,0,P|329:178|296:59,1,179.999994506836,2|0,0:0|0:0,0:0:0:0:
376,99,198293,1,2,0:0:0:0:
454,143,198508,2,0,L|468:333,1,179.999994506836,8|0,0:0|0:0,0:0:0:0:
371,279,199150,6,0,L|379:169,1,89.9999972534181,8|0,0:0|0:0,0:0:0:0:
292,349,199579,2,0,L|283:239,1,89.9999972534181,8|2,0:0|0:0,0:0:0:0:
282,158,200008,1,0,0:0:0:0:
196,211,200222,2,0,P|178:252|54:266,1,179.999994506836,8|0,0:0|0:0,0:0:0:0:
3,196,200865,1,8,0:0:0:0:
58,124,201079,6,0,L|159:117,1,89.9999972534181,2|8,0:0|0:0,0:0:0:0:
190,38,201508,2,0,L|291:45,1,89.9999972534181,0|2,0:0|0:0,0:0:0:0:
369,51,201936,2,0,P|406:123|393:241,1,179.999994506836,8|0,0:0|0:0,0:0:0:0:
281,232,202579,6,0,P|266:176|270:136,1,89.9999972534181,8|0,0:0|0:0,0:0:0:0:
388,307,203008,2,0,P|403:251|399:211,1,89.9999972534181,10|2,0:0|0:0,0:0:0:0:
284,343,203436,1,0,0:0:0:0:
284,343,203543,1,0,0:0:0:0:
284,343,203650,1,8,0:0:0:0:
182,260,203865,2,0,L|189:211,1,44.999998626709,2|0,0:0|0:0,0:0:0:0:
105,174,204079,2,0,L|98:218,1,44.999998626709,0|0,0:0|0:0,0:0:0:0:
12,249,204293,2,0,L|18:204,1,44.999998626709,8|0,0:0|0:0,0:0:0:0:
30,41,204508,6,0,P|69:85|185:116,1,179.999994506836,2|0,0:0|0:0,0:0:0:0:
262,74,205150,1,2,0:0:0:0:
297,157,205365,1,8,0:0:0:0:
174,205,205579,2,0,L|183:106,2,89.9999972534181,2|0|8,0:0|0:0|0:0,0:0:0:0:
305,246,206222,6,0,L|296:147,1,89.9999972534181,0|8,0:0|0:0,0:0:0:0:
165,294,206650,2,0,L|174:195,1,89.9999972534181,2|0,0:0|0:0,0:0:0:0:
264,357,207079,1,8,0:0:0:0:
305,246,207293,6,0,L|296:147,2,89.9999972534181,0|0|8,0:0|0:0|0:0,0:0:0:0:
264,357,207936,1,2,0:0:0:0:
405,309,208150,2,0,L|396:210,2,89.9999972534181,8|0|2,0:0|0:0|0:0,0:0:0:0:
264,357,208793,6,0,L|281:164,1,179.999994506836,8|0,0:0|0:0,0:0:0:0:
248,144,209329,1,0,0:0:0:0:
248,144,209436,2,0,L|239:54,1,89.9999972534181,8|0,0:0|0:0,0:0:0:0:
134,210,209865,2,0,L|142:120,1,89.9999972534181,10|2,0:0|0:0,0:0:0:0:
105,11,210293,1,0,0:0:0:0:
105,11,210400,1,0,0:0:0:0:
105,11,210508,2,0,P|54:39|12:47,2,89.9999972534181,8|0|0,0:0|0:0|0:0,0:0:0:0:
105,11,211365,6,0,B|116:169|116:169|167:115,1,225,6|0,0:0|0:0,0:0:0:0:
195,103,211793,6,0,P|221:139|237:211,1,112.5,0|0,0:0|0:0,0:0:0:0:
208,253,212222,5,8,0:0:0:0:
305,153,212436,1,2,0:0:0:0:
336,270,212650,2,0,L|346:338,1,56.2500021457673,0|0,0:0|0:0,0:0:0:0:
429,349,212865,2,0,L|420:293,1,56.2500021457673,8|0,0:0|0:0,0:0:0:0:
476,226,213079,6,0,P|429:161|505:49,1,225,0|0,0:0|0:0,0:0:0:0:
459,25,213508,6,0,L|398:17,1,44.999998626709,2|0,0:0|0:0,0:0:0:0:
360,91,213722,2,0,L|299:99,1,44.999998626709,0|0,0:0|0:0,0:0:0:0:
239,31,213936,6,0,L|158:20,2,75.000002861023,8|0|0,0:0|0:0|0:0,0:0:0:0:
119,124,214365,2,0,L|199:113,2,75.000002861023,0|8|0,0:0|0:0|0:0,0:0:0:0:
315,96,214793,6,0,P|270:143|285:248,1,168.750006437302,2|0,0:0|0:0,0:0:0:0:
302,270,215222,6,0,P|256:237|183:246,1,112.5
165,247,215650,2,0,L|158:134,1,100,8|0,0:0|0:0,0:0:0:0:
64,170,216079,2,0,L|73:297,1,112.5,0|0,0:0|0:0,0:0:0:0:
75,319,216508,5,0,0:0:0:0:
169,310,216722,2,0,L|161:200,1,75,10|2,0:0|0:0,0:0:0:0:
158,147,217150,1,0,0:0:0:0:
158,147,217365,1,8,0:0:0:0:
251,132,217579,6,0,L|269:307,1,168.750006437302,2|0,0:0|0:0,0:0:0:0:
268,299,218008,1,8,0:0:0:0:
362,351,218222,6,0,P|438:331|444:192,1,225,2|0,0:0|0:0,0:0:0:0:
355,267,218650,6,0,P|370:280|361:241,1,112.5,0|0,0:0|0:0,0:0:0:0:
285,196,219079,6,0,L|291:111,2,75,8|0|0,0:0|0:0|0:0,0:0:0:0:
285,196,219936,6,0,B|205:279|205:279|193:157,1,225,0|0,0:0|0:0,0:0:0:0:
121,202,220365,6,0,L|129:285,1,75,2|0,0:0|0:0,0:0:0:0:
22,293,220579,2,0,L|14:376,1,75,0|0,0:0|0:0,0:0:0:0:
117,360,220793,6,0,L|286:350,2,150,8|0|0,0:0|0:0|0:0,0:0:0:0:
117,360,221436,1,8,0:0:0:0:
28,264,221650,6,0,P|93:224|73:130,1,168.750006437302,2|0,0:0|0:0,0:0:0:0:
166,136,222079,6,0,B|187:199|162:249|162:249|213:225|237:227,1,168.750006437302,0|0,0:0|0:0,0:0:0:0:
272,273,222508,6,0,B|327:322|327:322|415:314,1,150,8|0,0:0|0:0,0:0:0:0:
470,215,222936,2,0,L|460:134,2,75,0|0|8,0:0|0:0|0:0,0:0:0:0:
392,76,223365,6,0,P|459:45|508:60,2,112.500004291535,0|10|2,0:0|0:0|0:0,0:0:0:0:
369,171,224008,2,0,L|300:165,1,56.2500021457673,0|0,0:0|0:0,0:0:0:0:
287,78,224222,2,0,L|218:84,1,56.2500021457673,8|0,0:0|0:0,0:0:0:0:
212,170,224436,2,0,L|143:164,1,56.2500021457673,2|0,0:0|0:0,0:0:0:0:
138,79,224650,2,0,L|4:90,1,112.500004291535,0|0,0:0|0:0,0:0:0:0:
12,207,225079,6,0,P|97:226|70:362,1,225,6|0,0:0|0:0,0:0:0:0:
133,338,225508,6,0,P|189:319|261:339,1,112.5,0|0,0:0|0:0,0:0:0:0:
289,355,225936,5,8,0:0:0:0:
240,234,226150,1,2,0:0:0:0:
361,272,226365,2,0,L|369:209,1,56.2500021457673,0|0,0:0|0:0,0:0:0:0:
452,200,226579,2,0,L|444:137,1,56.2500021457673,8|0,0:0|0:0,0:0:0:0:
444,40,226793,6,0,B|391:60|391:60|337:41|337:41|283:62,1,168.750006437302,0|0,0:0|0:0,0:0:0:0:
249,87,227222,6,0,P|205:67|151:58,1,89.9999972534181,2|0,0:0|0:0,0:0:0:0:
45,81,227650,6,0,L|64:176,2,75.000002861023,8|0|0,0:0|0:0|0:0,0:0:0:0:
157,228,228079,2,0,L|176:133,2,75.000002861023,0|8|0,0:0|0:0|0:0,0:0:0:0:
65,325,228508,6,0,P|146:303|270:383,1,225,2|0,0:0|0:0,0:0:0:0:
273,333,228936,6,0,P|257:298|275:223,1,112.5,0|0,0:0|0:0,0:0:0:0:
302,206,229365,2,0,P|318:171|307:98,1,100,8|0,0:0|0:0,0:0:0:0:
282,71,229793,1,0,0:0:0:0:
282,71,230008,1,8,0:0:0:0:
220,156,230222,6,0,P|180:175|96:191,1,112.5,0|0,0:0|0:0,0:0:0:0:
77,198,230650,2,0,P|113:230|153:307,1,100,2|0,0:0|0:0,0:0:0:0:
151,348,231079,1,8,0:0:0:0:
256,357,231293,2,0,B|279:284|279:284|260:224|260:224|290:136,1,225.000008583069,2|8,0:0|0:0,0:0:0:0:
388,102,231936,6,0,B|346:223|346:223|381:329,1,225,2|0,0:0|0:0,0:0:0:0:
405,338,232365,6,0,P|446:313|470:239,1,112.5,0|0,0:0|0:0,0:0:0:0:
452,215,232793,6,0,L|461:167,2,37.5,8|2|0,0:0|0:0|0:0,0:0:0:0:
452,215,233650,6,0,B|382:175|382:175|324:315,1,225,0|0,0:0|0:0,0:0:0:0:
274,224,234079,6,0,L|309:137,1,75,2|0,0:0|0:0,0:0:0:0:
386,92,234293,2,0,L|351:5,1,75,0|0,0:0|0:0,0:0:0:0:
259,55,234508,6,0,L|103:70,1,150,8|0,0:0|0:0,0:0:0:0:
192,146,234936,6,0,L|94:155,1,75,0|8,0:0|0:0,0:0:0:0:
32,245,235365,6,0,P|108:251|132:356,1,168.750006437302,2|0,0:0|0:0,0:0:0:0:
176,372,235793,2,0,P|213:313|312:332,1,168.750006437302,0|0,0:0|0:0,0:0:0:0:
371,373,236222,6,0,L|382:286,1,75,8|0,0:0|0:0,0:0:0:0:
389,224,236436,2,0,L|400:137,1,75,0|0,0:0|0:0,0:0:0:0:
410,75,236650,2,0,L|421:-12,2,75,0|0|8,0:0|0:0|0:0,0:0:0:0:
302,124,237079,6,0,P|248:159|192:169,2,112.500004291535,0|10|2,0:0|0:0|0:0,0:0:0:0:
245,26,237722,2,0,L|174:19,1,56.2500021457673,0|0,0:0|0:0,0:0:0:0:
151,98,237936,2,0,L|80:105,1,56.2500021457673,8|0,0:0|0:0,0:0:0:0:
62,26,238150,2,0,L|-9:19,1,56.2500021457673,2|0,0:0|0:0,0:0:0:0:
7,164,238365,2,0,P|44:228|45:277,1,112.500004291535,0|0,0:0|0:0,0:0:0:0:
20,360,238793,5,4,0:0:0:0:
256,192,238900,12,0,241793,0:0:0:0:
