osu file format v14

[General]
AudioFilename: audio.mp3
AudioLeadIn: 0
PreviewTime: 46446
Countdown: 0
SampleSet: Soft
StackLeniency: 0.7
Mode: 0
LetterboxInBreaks: 0
WidescreenStoryboard: 1

[Editor]
Bookmarks: 15771
DistanceSpacing: 1
BeatDivisor: 2
GridSize: 8
TimelineZoom: 1

[Metadata]
Title:Sayonara Hatsukoi
TitleUnicode:Sayonara Hatsukoi
Artist:REDSHiFT feat. Megurine Luka
ArtistUnicode:REDSHiFT feat. Megurine Luka
Creator:Jorkseljund
Version:Easy
Source:
Tags:
BeatmapID:1529568
BeatmapSetID:676659

[Difficulty]
HPDrainRate:2
CircleSize:3
OverallDifficulty:2
ApproachRate:3
SliderMultiplier:0.800000005960464
SliderTickRate:1

[Events]
//Background and Video events
0,0,"maxresdefault.jpg",0,0
//Break Periods
2,26221,34219
2,90940,98938
2,111365,120511
//Storyboard Layer 0 (Background)
//Storyboard Layer 1 (Fail)
//Storyboard Layer 2 (Pass)
//Storyboard Layer 3 (Foreground)
//Storyboard Sound Samples

[TimingPoints]
3300,337.078651685393,4,2,1,100,1,0
68019,-100,4,2,1,100,0,1
75940,-133.333333333333,4,2,1,100,0,1
78974,-100,4,2,1,100,0,1
88075,-133.333333333333,4,2,1,100,0,1
89592,-100,4,2,1,100,0,0
89760,-100,4,2,1,100,0,0
121783,-133.333333333333,4,2,1,100,0,0
132569,-100,4,2,1,100,0,0
154311,-100,4,2,1,100,0,1
175884,-100,4,2,1,100,0,0

[Colours]
Combo1 : 140,242,181
Combo2 : 0,128,192
Combo3 : 159,233,22
Combo4 : 218,218,218

[HitObjects]
88,64,3299,6,0,B|64:120|136:136|112:200|64:160,2,120.00000089407
168,72,4648,2,0,B|224:88|240:56|280:56|312:80,2,120.00000089407
128,144,5996,2,0,B|112:200|144:216|144:256|120:288,2,120.00000089407
208,168,7344,2,0,P|216:128|288:176,1,160.000001192093
432,240,8693,6,0,P|412:303|420:359,2,120.00000089407
448,160,10041,2,0,P|464:96|460:41,2,120.00000089407
368,136,11389,2,0,P|304:128|216:144,2,120.00000089407
424,192,12738,1,4,0:0:0:0:
304,88,14086,6,0,P|288:144|296:240,1,120.00000089407,2|2,0:0|0:0,0:0:0:0:
192,280,15097,1,2,0:0:0:0:
128,232,15434,2,0,P|120:176|128:112,2,120.00000089407,2|2|2,0:0|0:0|0:0,0:0:0:0:
208,224,16783,6,0,P|200:168|216:104,1,120.00000089407,2|2,0:0|0:0,0:0:0:0:
320,56,17794,1,2,0:0:0:0:
344,136,18131,2,0,P|408:152|472:136,2,120.00000089407,2|2|2,0:0|0:0|0:0,0:0:0:0:
272,176,19479,6,0,P|208:160|144:176,1,120.00000089407,2|2,0:0|0:0,0:0:0:0:
64,256,20491,1,2,0:0:0:0:
136,288,20828,2,0,P|200:304|264:288,2,120.00000089407,2|2|2,0:0|0:0|0:0,0:0:0:0:
64,256,22176,1,4,0:0:0:0:
256,192,22850,12,4,24873,0:0:0:0:
400,88,35659,6,0,P|392:144|280:80,1,240.000001788139,4|8,0:0|0:0,0:0:0:0:
200,56,37007,2,0,P|128:64|104:56,1,80.0000005960464,0|8,0:0|0:0,0:0:0:0:
64,120,37682,2,0,P|56:176|64:216,1,80.0000005960464,0|8,0:0|0:0,0:0:0:0:
112,264,38356,5,0,0:0:0:0:
168,200,38693,2,0,L|176:120,1,80.0000005960464,8|0,0:0|0:0,0:0:0:0:
240,72,39367,1,8,0:0:0:0:
288,136,39704,2,0,L|280:216,1,80.0000005960464,0|8,0:0|0:0,0:0:0:0:
328,280,40378,2,0,P|384:288|416:280,1,80.0000005960464,0|8,0:0|0:0,0:0:0:0:
376,208,41052,6,0,P|424:144|376:88,1,160.000001192093
320,40,42064,1,8,0:0:0:0:
256,88,42401,2,0,L|176:96,1,80.0000005960464,0|8,0:0|0:0,0:0:0:0:
96,72,43075,2,0,L|16:80,1,80.0000005960464,0|8,0:0|0:0,0:0:0:0:
40,160,43749,6,0,P|24:240|40:328,1,160.000001192093
112,344,44760,1,8,0:0:0:0:
160,280,45097,2,0,P|168:232|160:192,1,80.0000005960464,2|2,0:0|0:0,0:0:0:0:
232,152,45771,2,0,P|224:104|232:64,1,80.0000005960464,2|2,0:0|0:0,0:0:0:0:
304,104,46446,6,0,P|368:96|424:104,2,120.00000089407,0|0|8,0:0|0:0|0:0,0:0:0:0:
280,184,47794,2,0,P|288:248|280:304,2,120.00000089407,0|0|8,0:0|0:0|0:0,0:0:0:0:
200,160,49142,6,0,P|136:168|80:160,2,120.00000089407,0|0|8,0:0|0:0|0:0,0:0:0:0:
264,112,50491,2,0,P|312:104|352:112,1,80.0000005960464,2|8,0:0|0:0,0:0:0:0:
392,176,51165,2,0,P|408:240|400:264,1,80.0000005960464,2|8,0:0|0:0,0:0:0:0:
352,320,51839,6,0,P|296:328|264:320,1,80.0000005960464,0|8,0:0|0:0,0:0:0:0:
208,272,52513,2,0,P|152:264|120:272,1,80.0000005960464,0|8,0:0|0:0,0:0:0:0:
64,320,53187,2,0,P|48:264|56:232,1,80.0000005960464,0|8,0:0|0:0,0:0:0:0:
96,176,53861,2,0,L|32:112,2,80.0000005960464,0|8|0,0:0|0:0|0:0,0:0:0:0:
168,136,54873,5,8,0:0:0:0:
216,200,55210,2,0,P|208:248|208:288,1,80.0000005960464,0|8,0:0|0:0,0:0:0:0:
280,320,55884,2,0,P|336:328|368:320,2,80.0000005960464,2|10|2,0:0|0:0|0:0,0:0:0:0:
207,279,56895,1,10,0:0:0:0:
256,216,57232,6,0,P|264:152|256:72,2,120.00000089407,2|2|10,0:0|0:0|0:0,0:0:0:0:
176,208,58580,2,0,P|184:144|176:64,2,120.00000089407,2|2|10,0:0|0:0|0:0,0:0:0:0:
96,200,59929,6,0,P|104:136|96:56,2,120.00000089407,2|2|10,0:0|0:0|0:0,0:0:0:0:
32,248,61277,2,0,P|80:280|120:272,1,80.0000005960464,0|8,0:0|0:0,0:0:0:0:
176,248,61951,2,0,P|232:240|264:248,1,80.0000005960464,0|8,0:0|0:0,0:0:0:0:
328,280,62625,6,0,P|352:320|408:256,1,160.000001192093,2|2,0:0|0:0,0:0:0:0:
360,192,63637,2,0,P|352:128|368:32,2,160.000001192093,8|8|8,0:0|0:0|0:0,0:0:0:0:
288,224,65322,6,0,L|208:240,1,80.0000005960464,2|8,0:0|0:0,0:0:0:0:
160,176,65996,2,8,L|80:192,1,80.0000005960464,2|8,0:0|0:0,0:0:0:0:
8,224,66670,2,0,P|0:168|64:112,2,120.00000089407,2|2|10,0:0|0:0|0:0,0:0:0:0:
80,264,68019,6,0,P|88:320|24:376,2,120.00000089407,2|2|10,0:0|0:0|0:0,0:0:0:0:
144,216,69367,2,0,P|224:224|272:208,2,120.00000089407,2|2|2,0:0|0:0|0:0,0:0:0:0:
144,128,70715,6,0,P|224:120|272:136,2,120.00000089407,2|2|10,0:0|0:0|0:0,0:0:0:0:
72,168,72064,2,0,L|72:248,1,80.0000005960464,0|8,0:0|0:0,0:0:0:0:
152,240,72738,2,0,L|152:320,1,80.0000005960464,0|8,0:0|0:0,0:0:0:0:
232,328,73412,6,0,P|288:320|320:336,1,80.0000005960464,0|8,0:0|0:0,0:0:0:0:
360,264,74086,2,0,P|352:224|360:184,1,80.0000005960464,0|8,0:0|0:0,0:0:0:0:
408,120,74760,2,0,P|360:104|312:120,1,80.0000005960464,0|8,0:0|0:0,0:0:0:0:
264,160,75434,2,0,P|248:120|256:80,1,80.0000005960464,0|8,0:0|0:0,0:0:0:0:
176,64,76108,6,0,B|136:56|168:152|168:152|104:128|72:184|80:248|80:248|136:240|184:288|184:280|200:232|240:232|288:296,1,480.000021886826
336,224,79142,5,8,0:0:0:0:
408,264,79479,2,0,P|416:200|408:168,1,80.0000005960464,0|8,0:0|0:0,0:0:0:0:
344,144,80153,2,0,P|336:80|328:48,1,80.0000005960464,0|8,0:0|0:0,0:0:0:0:
256,96,80828,2,0,P|184:104|160:96,1,80.0000005960464,0|8,0:0|0:0,0:0:0:0:
96,104,81502,6,0,P|56:96|72:184,1,160.000001192093,2|2,0:0|0:0,0:0:0:0:
136,176,82513,1,2,0:0:0:0:
200,224,82850,2,0,L|248:152,1,80.0000005960464,0|8,0:0|0:0,0:0:0:0:
320,184,83524,2,0,L|368:112,1,80.0000005960464,0|8,0:0|0:0,0:0:0:0:
432,72,84198,6,0,P|448:112|432:160,1,80.0000005960464,0|8,0:0|0:0,0:0:0:0:
416,224,84873,2,0,P|408:272|408:320,1,80.0000005960464,0|8,0:0|0:0,0:0:0:0:
328,304,85547,2,0,P|288:336|240:264,1,160.000001192093
176,208,86558,1,8,0:0:0:0:
104,248,86895,6,0,P|80:200|80:160,1,80.0000005960464,0|8,0:0|0:0,0:0:0:0:
144,128,87569,2,0,P|168:80|168:40,1,80.0000005960464,0|8,0:0|0:0,0:0:0:0:
248,56,88243,2,0,B|304:80|304:80|360:56|360:56|424:88|424:88|472:56,1,240.000010943413,0|4,0:0|0:0,0:0:0:0:
88,88,100378,6,0,P|72:128|80:256,1,160.000001192093,4|0,0:0|0:0,0:0:0:0:
48,320,101389,1,8,0:0:0:0:
128,320,101726,2,0,P|192:328|216:320,1,80.0000005960464,0|8,0:0|0:0,0:0:0:0:
256,256,102401,2,0,P|264:200|256:160,1,80.0000005960464,0|8,0:0|0:0,0:0:0:0:
184,144,103075,6,0,P|176:88|184:48,1,80.0000005960464,0|8,0:0|0:0,0:0:0:0:
256,96,103749,2,0,P|304:96|344:80,1,80.0000005960464,0|8,0:0|0:0,0:0:0:0:
416,72,104423,1,0,0:0:0:0:
464,136,104760,2,0,P|472:192|464:232,2,80.0000005960464,8|0|8,0:0|0:0|0:0,0:0:0:0:
392,96,105771,6,0,P|360:64|296:136,1,160.000001192093
280,208,106783,1,8,0:0:0:0:
216,256,107120,2,0,P|208:312|208:336,1,80.0000005960464,0|8,0:0|0:0,0:0:0:0:
128,328,107794,2,0,P|129:288|136:248,1,80.0000005960464,0|8,0:0|0:0,0:0:0:0:
56,240,108468,6,0,P|48:176|72:80,1,160.000001192093
144,120,109479,1,8,0:0:0:0:
216,88,109816,2,0,P|272:80|296:88,1,80.0000005960464,2|10,0:0|0:0,0:0:0:0:
352,144,110491,2,0,P|424:152|448:144,1,80.0000005960464,2|10,0:0|0:0,0:0:0:0:
496,104,111165,1,4,0:0:0:0:
416,80,121951,6,0,P|432:152|416:184,2,90.0000041037799,2|2|2,0:0|0:0|0:0,0:0:0:0:
328,72,123468,2,0,P|256:64|168:80,1,150.000006839633,2|0,0:0|0:0,0:0:0:0:
136,120,124648,6,0,P|152:192|136:224,2,90.0000041037799,2|2|2,0:0|0:0|0:0,0:0:0:0:
56,160,126165,2,0,P|40:200|64:320,1,150.000006839633,2|0,0:0|0:0,0:0:0:0:
112,312,127344,6,0,P|128:256|160:224,2,90.0000041037799,2|2|2,0:0|0:0|0:0,0:0:0:0:
200,320,128861,2,0,P|248:304|352:328,1,150.000006839633,2|0,0:0|0:0,0:0:0:0:
384,280,130041,6,0,P|432:304|472:304,2,90.0000041037799,2|2|2,0:0|0:0|0:0,0:0:0:0:
128,280,132738,6,0,P|112:208|120:184,1,80.0000005960464
32,200,133412,2,0,P|56:144|160:136,1,160.000001192093,8|0,0:0|0:0,0:0:0:0:
216,176,134423,1,0,0:0:0:0:
272,120,134760,2,0,P|328:104|424:136,1,160.000001192093,8|0,0:0|0:0,0:0:0:0:
408,216,135771,5,0,0:0:0:0:
352,272,136108,2,0,B|272:224|272:224|200:288|200:288|152:240,1,240.000001788139,8|0,0:0|0:0,0:0:0:0:
96,208,137457,2,0,P|88:152|96:128,1,80.0000005960464
144,64,138131,6,0,P|216:48|248:64,1,80.0000005960464
280,104,138805,2,0,P|352:120|440:96,1,160.000001192093,8|0,0:0|0:0,0:0:0:0:
488,160,139816,1,0,0:0:0:0:
416,200,140153,2,0,P|352:216|328:216,1,80.0000005960464,8|0,0:0|0:0,0:0:0:0:
264,240,140828,6,0,B|224:224|224:224|192:256|192:256|160:224|160:224|128:224,1,160.000001192093,0|8,0:0|0:0,0:0:0:0:
56,200,141839,1,0,0:0:0:0:
24,272,142176,2,0,P|16:320|24:352,1,80.0000005960464
96,312,142850,2,0,P|144:328|184:320,1,80.0000005960464,8|0,0:0|0:0,0:0:0:0:
240,272,143524,5,2,0:0:0:0:
200,200,143861,1,2,0:0:0:0:
240,128,144198,1,2,0:0:0:0:
296,72,144535,2,0,P|344:40|392:120,1,160.000001192093,2|8,0:0|0:0,0:0:0:0:
424,184,145547,2,0,P|416:232|424:264,1,80.0000005960464,0|8,0:0|0:0,0:0:0:0:
344,264,146221,6,0,P|296:256|256:272,1,80.0000005960464,2|2,0:0|0:0,0:0:0:0:
216,200,146895,1,2,0:0:0:0:
160,264,147232,2,0,P|112:272|120:184,1,160.000001192093,2|8,0:0|0:0,0:0:0:0:
80,112,148243,2,0,P|64:48|72:32,1,80.0000005960464,0|8,0:0|0:0,0:0:0:0:
144,64,148917,6,0,P|208:72|232:72,1,80.0000005960464,2|10,0:0|0:0,0:0:0:0:
296,112,149592,1,2,0:0:0:0:
376,128,149929,2,0,L|384:88,1,40.0000002980232,2|2,0:0|0:0,0:0:0:0:
456,232,150771,2,0,P|384:224|328:240,1,120.00000089407,2|10,0:0|0:0,0:0:0:0:
264,264,151614,6,0,P|192:272|168:264,1,80.0000005960464,0|8,0:0|0:0,0:0:0:0:
112,232,152288,2,0,P|56:224|32:232,1,80.0000005960464,0|8,0:0|0:0,0:0:0:0:
16,152,152962,2,0,P|8:96|16:32,2,120.00000089407,2|2|2,0:0|0:0|0:0,0:0:0:0:
80,200,154311,5,4,0:0:0:0:
144,248,154648,2,0,P|128:296|136:336,2,80.0000005960464,8|0|8,0:0|0:0|0:0,0:0:0:0:
184,176,155659,2,0,P|176:128|176:96,1,80.0000005960464,0|8,0:0|0:0,0:0:0:0:
256,96,156333,2,0,P|320:80|352:96,1,80.0000005960464,0|8,0:0|0:0,0:0:0:0:
384,144,157007,5,0,0:0:0:0:
456,104,157344,1,8,0:0:0:0:
456,184,157682,2,0,P|464:240|456:272,1,80.0000005960464,0|8,0:0|0:0,0:0:0:0:
