osu file format v14

[General]
AudioFilename: audio.mp3
AudioLeadIn: 0
PreviewTime: 63691
Countdown: 0
SampleSet: Soft
StackLeniency: 0.3
Mode: 0
LetterboxInBreaks: 0
WidescreenStoryboard: 1

[Editor]
DistanceSpacing: 1.1
BeatDivisor: 8
GridSize: 32
TimelineZoom: 3

[Metadata]
Title:TPABMAT
TitleUnicode:TPABMAT
Artist:REDO
ArtistUnicode:REDO
Creator:Ksardas
Version:UNDERATED
Source:
Tags:Hip Hop WEETZY YAMELYAN UNDERATED ep травмат ameth rianno frakturehawkens colicen raikozen lynx styxwater russian rap travmat trabmat
BeatmapID:2364004
BeatmapSetID:1131760

[Difficulty]
HPDrainRate:3
CircleSize:4
OverallDifficulty:9.5
ApproachRate:9.8
SliderMultiplier:3
SliderTickRate:1

[Events]
//Background and Video events
0,0,"ed38bef8-301e-497e-a87c-f463c93b74dc.jpg",0,0
//Break Periods
//Storyboard Layer 0 (Background)
//Storyboard Layer 1 (Fail)
//Storyboard Layer 2 (Pass)
//Storyboard Layer 3 (Foreground)
//Storyboard Layer 4 (Overlay)
//Storyboard Sound Samples

[TimingPoints]
25,333.333333333333,4,2,1,70,1,0
108,-100,4,2,1,5,0,0
191,-100,4,2,1,40,0,0
608,-100,4,2,1,5,0,0
691,-100,4,2,1,40,0,0
1108,-100,4,2,1,5,0,0
1191,-100,4,2,1,40,0,0
1608,-100,4,2,1,5,0,0
1691,-100,4,2,1,40,0,0
1774,-100,4,2,1,5,0,0
1858,-100,4,2,1,40,0,0
2108,-100,4,2,1,5,0,0
2191,-100,4,2,1,40,0,0
2358,-66.6666666666667,4,2,1,40,0,0
2608,-100,4,2,1,5,0,0
2691,-100,4,2,1,40,0,0
2774,-100,4,2,1,5,0,0
2858,-100,4,2,1,40,0,0
3274,-100,4,2,1,5,0,0
3358,-100,4,2,1,40,0,0
3774,-100,4,2,1,5,0,0
3858,-100,4,2,1,40,0,0
4441,-100,4,2,1,5,0,0
4524,-100,4,2,1,40,0,0
4774,-100,4,2,1,5,0,0
4858,-100,4,2,1,40,0,0
5024,-58.8235294117647,4,2,1,40,0,0
5358,-100,4,2,1,40,0,0
5441,-100,4,2,1,5,0,0
5524,-100,4,2,1,40,0,0
5941,-100,4,2,1,5,0,0
6024,-100,4,2,1,40,0,0
6441,-100,4,2,1,5,0,0
6524,-100,4,2,1,40,0,0
6941,-100,4,2,1,5,0,0
7024,-100,4,2,1,40,0,0
7108,-100,4,2,1,5,0,0
7191,-100,4,2,1,40,0,0
7441,-100,4,2,1,5,0,0
7524,-50,4,2,1,40,0,0
8024,-100,4,2,1,40,0,0
8108,-100,4,2,1,5,0,0
8191,-100,4,2,1,40,0,0
8608,-100,4,2,1,5,0,0
8691,-100,4,2,1,40,0,0
9108,-100,4,2,1,5,0,0
9191,-100,4,2,1,40,0,0
9774,-100,4,2,1,5,0,0
9858,-100,4,2,1,40,0,0
10441,-100,4,2,1,5,0,0
10524,-100,4,2,1,40,0,0
10608,-100,4,2,1,5,0,0
10691,-50,4,2,1,80,0,0
10774,-100,4,2,1,5,0,0
10858,-50,4,2,1,80,0,0
10941,-100,4,2,1,5,0,0
11024,-50,4,2,1,80,0,0
11108,-100,4,2,1,5,0,0
11191,-50,4,2,1,80,0,0
11274,-100,4,2,1,5,0,0
11358,-100,4,2,1,80,0,0
11774,-100,4,2,1,5,0,0
11858,-100,4,2,1,80,0,0
12108,-100,4,2,1,5,0,0
12191,-100,4,2,1,80,0,0
12358,-50,4,2,1,80,0,0
12441,-100,4,2,1,5,0,0
12524,-33.3333333333333,4,2,1,80,0,0
12941,-100,4,2,1,5,0,0
13024,-33.3333333333333,4,2,1,80,0,0
13108,-100,4,2,1,5,0,0
13191,-33.3333333333333,4,2,1,80,0,0
13274,-100,4,2,1,5,0,0
13358,-100,4,2,1,80,0,0
13441,-100,4,2,1,5,0,0
13524,-133.333333333333,4,2,1,80,0,0
13608,-100,4,2,1,5,0,0
13691,-100,4,2,1,80,0,0
13941,-100,4,2,1,5,0,0
14024,-40,4,2,1,80,0,0
14274,-100,4,2,1,5,0,0
14358,-50,4,2,1,80,0,0
14441,-100,4,2,1,5,0,0
14524,-50,4,2,1,80,0,0
14608,-100,4,2,1,5,0,0
14691,-50,4,2,1,80,0,0
14941,-100,4,2,1,5,0,0
15024,-57.1428571428571,4,2,1,80,0,0
15274,-100,4,2,1,5,0,0
15358,-50,4,2,1,80,0,0
15608,-100,4,2,1,5,0,0
15691,-50,4,2,1,80,0,0
15774,-100,4,2,1,5,0,0
15858,-50,4,2,1,80,0,0
15941,-100,4,2,1,5,0,0
16024,-133.333333333333,4,2,1,80,0,0
16108,-100,4,2,1,5,0,0
16191,-100,4,2,1,80,0,0
16274,-100,4,2,1,5,0,0
16358,-100,4,2,1,80,0,0
16441,-100,4,2,1,5,0,0
16524,-50,4,2,1,80,0,0
16608,-100,4,2,1,5,0,0
16691,-50,4,2,1,80,0,0
16774,-100,4,2,1,5,0,0
16858,-50,4,2,1,80,0,0
16941,-100,4,2,1,5,0,0
17024,-100,4,2,1,80,0,0
17274,-100,4,2,1,5,0,0
17358,-50,4,2,1,80,0,0
18024,-58.4795321637427,4,2,1,80,0,0
18274,-100,4,2,1,5,0,0
18358,-57.1428571428571,4,2,1,80,0,0
18441,-100,4,2,1,5,0,0
18524,-50,4,2,1,80,0,0
18608,-100,4,2,1,5,0,0
18691,-66.6666666666667,4,2,1,80,0,0
18774,-100,4,2,1,5,0,0
18858,-100,4,2,1,80,0,0
18941,-100,4,2,1,5,0,0
19024,-100,4,2,1,80,0,0
19774,-100,4,2,1,5,0,0
19858,-133.333333333333,4,2,1,80,0,0
19941,-100,4,2,1,5,0,0
20024,-100,4,2,1,80,0,0
20108,-100,4,2,1,5,0,0
20191,-100,4,2,1,80,0,0
20274,-100,4,2,1,5,0,0
20358,-66.6666666666667,4,2,1,80,0,0
20441,-100,4,2,1,5,0,0
20524,-50,4,2,1,80,0,0
20608,-100,4,2,1,5,0,0
20691,-50,4,2,1,80,0,0
20941,-100,4,2,1,5,0,0
21024,-50,4,2,1,80,0,0
21108,-100,4,2,1,5,0,0
21191,-50,4,2,1,80,0,0
21274,-100,4,2,1,5,0,0
21358,-44.4444444444445,4,2,1,80,0,0
21858,-100,4,2,1,80,0,0
21941,-100,4,2,1,5,0,0
22024,-58.8235294117647,4,2,1,80,0,0
22274,-100,4,2,1,5,0,0
22358,-50,4,2,1,80,0,0
22441,-100,4,2,1,5,0,0
22524,-100,4,2,1,80,0,0
22608,-100,4,2,1,5,0,0
22691,-100,4,2,1,80,0,0
22941,-100,4,2,1,5,0,0
23024,-100,4,2,1,80,0,0
23108,-100,4,2,1,5,0,0
23191,-100,4,2,1,80,0,0
23274,-100,4,2,1,5,0,0
23358,-200,4,2,1,80,0,0
23441,-100,4,2,1,5,0,0
23524,-50,4,2,1,80,0,0
23774,-100,4,2,1,5,0,0
23858,-50,4,2,1,80,0,0
23941,-100,4,2,1,5,0,0
24024,-200,4,2,1,80,0,0
24108,-100,4,2,1,5,0,0
24191,-50,4,2,1,80,0,0
24441,-100,4,2,1,5,0,0
24524,-50,4,2,1,80,0,0
24608,-100,4,2,1,5,0,0
24691,-50,4,2,1,80,0,0
24941,-100,4,2,1,5,0,0
25024,-50,4,2,1,80,0,0
25108,-100,4,2,1,5,0,0
25191,-50,4,2,1,80,0,0
25274,-100,4,2,1,5,0,0
25358,-100,4,2,1,80,0,0
25774,-100,4,2,1,5,0,0
25858,-50,4,2,1,80,0,0
26274,-100,4,2,1,5,0,0
26358,-100,4,2,1,80,0,0
26441,-100,4,2,1,5,0,0
26524,-200,4,2,1,80,0,0
26774,-100,4,2,1,5,0,0
26858,-50,4,2,1,80,0,0
26941,-100,4,2,1,5,0,0
27024,-50,4,2,1,80,0,0
27274,-100,4,2,1,5,0,0
27358,-50,4,2,1,80,0,0
27608,-100,4,2,1,5,0,0
27691,-200,4,2,1,80,0,0
27774,-100,4,2,1,5,0,0
27858,-200,4,2,1,80,0,0
27941,-100,4,2,1,5,0,0
28024,-50,4,2,1,80,0,0
28274,-100,4,2,1,5,0,0
28358,-50,4,2,1,80,0,0
28441,-100,4,2,1,5,0,0
28524,-57.1428571428571,4,2,1,80,0,0
29108,-100,4,2,1,5,0,0
29191,-50,4,2,1,80,0,0
29274,-100,4,2,1,5,0,0
29358,-200,4,2,1,80,0,0
29441,-100,4,2,1,5,0,0
29524,-200,4,2,1,80,0,0
29608,-100,4,2,1,5,0,0
29691,-200,4,2,1,80,0,0
30024,-50,4,2,1,80,0,0
30274,-100,4,2,1,5,0,0
30358,-100,4,2,1,80,0,0
30441,-100,4,2,1,5,0,0
30524,-50,4,2,1,80,0,0
30608,-100,4,2,1,5,0,0
30691,-50,4,2,1,80,0,0
31108,-100,4,2,1,5,0,0
31191,-50,4,2,1,80,0,0
31691,-100,4,2,1,5,0,0
31858,-200,4,2,1,80,0,0
32024,-100,4,2,1,80,0,0
32441,-100,4,2,1,5,0,0
32524,-100,4,2,1,80,0,0
32608,-100,4,2,1,5,0,0
32691,-66.6666666666667,4,2,1,80,0,0
32774,-100,4,2,1,5,0,0
32858,-66.6666666666667,4,2,1,80,0,0
32941,-100,4,2,1,5,0,0
33024,-200,4,2,1,80,0,0
33441,-100,4,2,1,5,0,0
33524,-133.333333333333,4,2,1,80,0,0
33608,-100,4,2,1,5,0,0
33691,-50,4,2,1,80,0,0
33774,-100,4,2,1,5,0,0
33858,-50,4,2,1,80,0,0
33941,-100,4,2,1,5,0,0
34024,-66.6666666666667,4,2,1,80,0,0
34441,-100,4,2,1,5,0,0
34524,-66.6666666666667,4,2,1,80,0,0
34608,-100,4,2,1,5,0,0
34691,-66.6666666666667,4,2,1,80,0,0
35024,-66.6666666666667,4,2,1,80,0,0
35108,-100,4,2,1,5,0,0
35191,-66.6666666666667,4,2,1,80,0,0
35274,-100,4,2,1,5,0,0
35358,-50,4,2,1,80,0,0
35441,-100,4,2,1,5,0,0
35524,-50,4,2,1,80,0,0
35608,-100,4,2,1,5,0,0
35691,-66.6666666666667,4,2,1,80,0,0
36108,-100,4,2,1,5,0,0
36191,-66.6666666666667,4,2,1,80,0,0
36274,-100,4,2,1,5,0,0
36358,-50,4,2,1,80,0,0
36441,-100,4,2,1,5,0,0
36524,-50,4,2,1,80,0,0
36608,-100,4,2,1,5,0,0
36691,-40,4,2,1,80,0,0
36941,-100,4,2,1,5,0,0
37024,-200,4,2,1,80,0,0
37108,-100,4,2,1,5,0,0
37191,-100,4,2,1,80,0,0
37441,-100,4,2,1,5,0,0
37524,-100,4,2,1,80,0,0
37608,-100,4,2,1,5,0,0
37691,-50,4,2,1,80,0,0
38108,-100,4,2,1,5,0,0
38191,-50,4,2,1,80,0,0
38274,-100,4,2,1,5,0,0
38358,-50,4,2,1,80,0,0
38774,-100,4,2,1,5,0,0
38858,-100,4,2,1,80,0,0
38941,-100,4,2,1,5,0,0
39024,-100,4,2,1,80,0,0
39108,-100,4,2,1,5,0,0
39191,-40,4,2,1,80,0,0
39608,-100,4,2,1,5,0,0
39691,-50,4,2,1,80,0,0
39774,-100,4,2,1,5,0,0
39858,-50,4,2,1,80,0,0
39941,-100,4,2,1,5,0,0
40024,-50,4,2,1,80,0,0
40441,-100,4,2,1,5,0,0
40524,-50,4,2,1,80,0,0
40608,-100,4,2,1,5,0,0
40691,-50,4,2,1,80,0,0
40941,-100,4,2,1,5,0,0
41024,-57.1428571428571,4,2,1,80,0,0
41108,-100,4,2,1,5,0,0
41191,-66.6666666666667,4,2,1,80,0,0
41274,-100,4,2,1,5,0,0
41358,-200,4,2,1,80,0,0
42274,-200,4,2,1,5,0,0
42358,-33.3333333333333,4,2,1,80,0,0
42941,-33.3333333333333,4,2,1,5,0,0
43024,-33.3333333333333,4,2,1,80,0,0
43108,-33.3333333333333,4,2,1,5,0,0
43191,-50,4,2,1,80,0,0
43274,-33.3333333333333,4,2,1,5,0,0
43358,-33.3333333333333,4,2,1,80,0,0
43691,-666.666666666658,4,2,1,80,0,0
44108,-33.3333333333333,4,2,1,5,0,0
44191,-100,4,2,1,80,0,0
44274,-33.3333333333333,4,2,1,5,0,0
44358,-52.6315789473684,4,2,1,80,0,0
44441,-33.3333333333333,4,2,1,5,0,0
44524,-33.3333333333333,4,2,1,80,0,0
44608,-33.3333333333333,4,2,1,5,0,0
44691,-33.3333333333333,4,2,1,80,0,0
45274,-33.3333333333333,4,2,1,5,0,0
45358,-33.3333333333333,4,2,1,80,0,0
45608,-33.3333333333333,4,2,1,5,0,0
45691,-33.3333333333333,4,2,1,80,0,0
45774,-33.3333333333333,4,2,1,5,0,0
45858,-33.3333333333333,4,2,1,80,0,0
45941,-33.3333333333333,4,2,1,5,0,0
46024,-33.3333333333333,4,2,1,80,0,0
46358,-666.666666666658,4,2,1,80,0,0
46941,-33.3333333333333,4,2,1,5,0,0
47024,-100,4,2,1,80,0,0
47274,-33.3333333333333,4,2,1,5,0,0
47358,-50,4,2,1,80,0,0
47441,-33.3333333333333,4,2,1,5,0,0
47524,-37.037037037037,4,2,1,80,0,0
47608,-33.3333333333333,4,2,1,5,0,0
47691,-25,4,2,1,80,0,0
47941,-33.3333333333333,4,2,1,5,0,0
48024,-33.3333333333333,4,2,1,80,0,0
48274,-33.3333333333333,4,2,1,5,0,0
48358,-33.3333333333333,4,2,1,80,0,0
48441,-33.3333333333333,4,2,1,5,0,0
48524,-33.3333333333333,4,2,1,80,0,0
48608,-33.3333333333333,4,2,1,5,0,0
48691,-33.3333333333333,4,2,1,80,0,0
48941,-33.3333333333333,4,2,1,5,0,0
49024,-166.666666666667,4,2,1,80,0,0
49441,-33.3333333333333,4,2,1,5,0,0
49524,-399.999999999997,4,2,1,80,0,0
49608,-33.3333333333333,4,2,1,5,0,0
49691,-40,4,2,1,80,0,0
49941,-33.3333333333333,4,2,1,5,0,0
50024,-50,4,2,1,80,0,0
50274,-33.3333333333333,4,2,1,5,0,0
50358,-40,4,2,1,80,0,0
52691,-222.222222222221,4,2,1,80,0,0
52941,-33.3333333333333,4,2,1,5,0,0
53024,-38.4615384615385,4,2,1,80,0,0
53358,-33.3333333333333,4,2,1,80,0,0
53608,-33.3333333333333,4,2,1,5,0,0
53691,-33.3333333333333,4,2,1,80,0,0
53774,-33.3333333333333,4,2,1,5,0,0
53858,-33.3333333333333,4,2,1,80,0,0
53941,-33.3333333333333,4,2,1,5,0,0
54024,-33.3333333333333,4,2,1,80,0,0
54358,-666.666666666658,4,2,1,80,0,0
54774,-33.3333333333333,4,2,1,5,0,0
54858,-100,4,2,1,80,0,0
54941,-33.3333333333333,4,2,1,5,0,0
55024,-52.6315789473684,4,2,1,80,0,0
55108,-33.3333333333333,4,2,1,5,0,0
55191,-28.5714285714286,4,2,1,80,0,0
55274,-33.3333333333333,4,2,1,5,0,0
55358,-28.5714285714286,4,2,1,80,0,0
55941,-33.3333333333333,4,2,1,5,0,0
56024,-33.3333333333333,4,2,1,80,0,0
56274,-33.3333333333333,4,2,1,5,0,0
56358,-33.3333333333333,4,2,1,80,0,0
56441,-33.3333333333333,4,2,1,5,0,0
56524,-33.3333333333333,4,2,1,80,0,0
56608,-33.3333333333333,4,2,1,5,0,0
56691,-33.3333333333333,4,2,1,80,0,0
57024,-399.999999999997,4,2,1,80,0,0
57608,-33.3333333333333,4,2,1,5,0,0
57691,-100,4,2,1,80,0,0
57941,-33.3333333333333,4,2,1,5,0,0
58024,-50,4,2,1,80,0,0
58108,-33.3333333333333,4,2,1,5,0,0
58191,-37.037037037037,4,2,1,80,0,0
58274,-33.3333333333333,4,2,1,5,0,0
58358,-37.037037037037,4,2,1,80,0,0
58608,-33.3333333333333,4,2,1,5,0,0
58691,-33.3333333333333,4,2,1,80,0,0
58941,-33.3333333333333,4,2,1,5,0,0
59024,-33.3333333333333,4,2,1,80,0,0
59108,-33.3333333333333,4,2,1,5,0,0
59191,-33.3333333333333,4,2,1,80,0,0
59274,-33.3333333333333,4,2,1,5,0,0
59358,-33.3333333333333,4,2,1,80,0,0
59691,-166.666666666667,4,2,1,80,0,0
60108,-33.3333333333333,4,2,1,5,0,0
60191,-333.333333333333,4,2,1,80,0,0
60274,-33.3333333333333,4,2,1,5,0,0
60358,-40,4,2,1,80,0,0
60608,-33.3333333333333,4,2,1,5,0,0
60691,-33.3333333333333,4,2,1,80,0,0
60941,-33.3333333333333,4,2,1,5,0,0
61024,-33.3333333333333,4,2,1,80,0,0
62691,-66.6666666666667,4,2,1,80,0,0
63358,-222.222222222221,4,2,1,80,0,0
63608,-33.3333333333333,4,2,1,5,0,0
63691,-222.222222222221,4,2,1,80,0,0
64024,-100,4,2,1,80,0,0
66024,-71.4285714285714,4,2,1,80,0,0
66649,-71.4285714285714,4,2,1,5,0,0
66691,-58.8235294117647,4,2,1,80,0,0
66774,-71.4285714285714,4,2,1,5,0,0
66858,-133.333333333333,4,2,1,80,0,0
66941,-71.4285714285714,4,2,1,5,0,0
67024,-45.4545454545455,4,2,1,80,0,0
67149,-71.4285714285714,4,2,1,5,0,0
67191,-222.222222222221,4,2,1,80,0,0
67274,-71.4285714285714,4,2,1,5,0,0
67358,-52.6315789473684,4,2,1,80,0,0
67649,-71.4285714285714,4,2,1,5,0,0
67691,-66.6666666666667,4,2,1,80,0,0
67774,-71.4285714285714,4,2,1,5,0,0
67858,-100,4,2,1,80,0,0
67941,-71.4285714285714,4,2,1,5,0,0
68024,-83.3333333333333,4,2,1,80,0,0
68108,-71.4285714285714,4,2,1,5,0,0
68191,-83.3333333333333,4,2,1,80,0,0
68274,-71.4285714285714,4,2,1,5,0,0
68358,-43.4782608695652,4,2,1,80,0,0
69358,-58.8235294117647,4,2,1,80,0,0
69608,-71.4285714285714,4,2,1,5,0,0
69691,-71.4285714285714,4,2,1,80,0,0
69816,-71.4285714285714,4,2,1,5,0,0
69858,-100,4,2,1,80,0,0
69941,-71.4285714285714,4,2,1,5,0,0
70024,-50,4,2,1,80,0,0
70358,-133.333333333333,4,2,1,80,0,0
70441,-71.4285714285714,4,2,1,5,0,0
70524,-83.3333333333333,4,2,1,80,0,0
70608,-71.4285714285714,4,2,1,5,0,0
70691,-58.8235294117647,4,2,1,80,0,0
70816,-71.4285714285714,4,2,1,5,0,0
70858,-133.333333333333,4,2,1,80,0,0
70941,-71.4285714285714,4,2,1,5,0,0
71024,-66.6666666666667,4,2,1,80,0,0
71358,-66.6666666666667,4,2,1,80,0,0
71483,-71.4285714285714,4,2,1,5,0,0
71524,-100,4,2,1,80,0,0
71608,-71.4285714285714,4,2,1,5,0,0
71691,-55.5555555555556,4,2,1,80,0,0
71983,-71.4285714285714,4,2,1,5,0,0
72024,-66.6666666666667,4,2,1,80,0,0
72108,-71.4285714285714,4,2,1,5,0,0
72191,-100,4,2,1,80,0,0
72274,-71.4285714285714,4,2,1,5,0,0
72358,-50,4,2,1,80,0,0
72483,-71.4285714285714,4,2,1,5,0,0
72524,-66.6666666666667,4,2,1,80,0,0
72608,-71.4285714285714,4,2,1,5,0,0
72691,-133.333333333333,4,2,1,80,0,0
72774,-71.4285714285714,4,2,1,5,0,0
72858,-222.222222222221,4,2,1,80,0,0
72941,-71.4285714285714,4,2,1,5,0,0
73024,-133.333333333333,4,2,1,80,0,0
73108,-71.4285714285714,4,2,1,5,0,0
73191,-83.3333333333333,4,2,1,80,0,0
73441,-71.4285714285714,4,2,1,5,0,0
73524,-83.3333333333333,4,2,1,80,0,0
73608,-71.4285714285714,4,2,1,5,0,0
73691,-58.8235294117647,4,2,1,80,0,0
73816,-71.4285714285714,4,2,1,5,0,0
73858,-133.333333333333,4,2,1,80,0,0
73941,-71.4285714285714,4,2,1,5,0,0
74024,-50,4,2,1,80,0,0
74524,-66.6666666666667,4,2,1,80,0,0
74608,-71.4285714285714,4,2,1,5,0,0
74691,-500,4,2,1,80,0,0
75024,-100,4,2,1,80,0,0
76358,-133.333333333333,4,2,1,80,0,0
76441,-71.4285714285714,4,2,1,5,0,0
76524,-133.333333333333,4,2,1,80,0,0
76608,-71.4285714285714,4,2,1,5,0,0
76691,-83.3333333333333,4,2,1,80,0,0
77274,-71.4285714285714,4,2,1,5,0,0
77358,-58.8235294117647,4,2,1,80,0,0
77649,-71.4285714285714,4,2,1,5,0,0
77691,-95.2380952380952,4,2,1,80,0,0
78024,-133.333333333333,4,2,1,80,0,0
78108,-71.4285714285714,4,2,1,5,0,0
78191,-76.9230769230769,4,2,1,80,0,0
78316,-71.4285714285714,4,2,1,5,0,0
78358,-133.333333333333,4,2,1,80,0,0
78441,-71.4285714285714,4,2,1,5,0,0
78524,-399.999999999997,4,2,1,80,0,0
78733,-71.4285714285714,4,2,1,5,0,0
78774,-399.999999999997,4,2,1,80,0,0
78816,-71.4285714285714,4,2,1,5,0,0
78858,-399.999999999997,4,2,1,80,0,0
78899,-71.4285714285714,4,2,1,5,0,0
78941,-200,4,2,1,80,0,0
78983,-71.4285714285714,4,2,1,5,0,0
79024,-133.333333333333,4,2,1,80,0,0
79108,-71.4285714285714,4,2,1,5,0,0
79191,-83.3333333333333,4,2,1,80,0,0
79316,-71.4285714285714,4,2,1,5,0,0
79358,-50,4,2,1,80,0,0
80024,-58.8235294117647,4,2,1,80,0,0
80108,-71.4285714285714,4,2,1,5,0,0
80191,-181.818181818181,4,2,1,80,0,0
80274,-71.4285714285714,4,2,1,5,0,0
80358,-66.6666666666667,4,2,1,80,0,0
80649,-71.4285714285714,4,2,1,5,0,0
80691,-45.4545454545455,4,2,1,80,0,0
81191,-83.3333333333333,4,2,1,80,0,0
81274,-71.4285714285714,4,2,1,5,0,0
81358,-50,4,2,1,80,0,0
81483,-71.4285714285714,4,2,1,5,0,0
81524,-285.714285714284,4,2,1,80,0,0
81608,-71.4285714285714,4,2,1,5,0,0
81691,-133.333333333333,4,2,1,80,0,0
81941,-71.4285714285714,4,2,1,5,0,0
82024,-58.8235294117647,4,2,1,80,0,0
82274,-71.4285714285714,4,2,1,5,0,0
82358,-50,4,2,1,80,0,0
82483,-71.4285714285714,4,2,1,5,0,0
82524,-117.647058823529,4,2,1,80,0,0
82649,-71.4285714285714,4,2,1,5,0,0
82691,-66.6666666666667,4,2,1,80,0,0
83358,-58.8235294117647,4,2,1,80,0,0
83691,-100,4,2,1,80,0,0
83774,-71.4285714285714,4,2,1,5,0,0
83858,-66.6666666666667,4,2,1,80,0,0
83983,-71.4285714285714,4,2,1,5,0,0
84024,-1000,4,2,1,80,0,0
85024,-66.6666666666667,4,2,1,80,0,0
85149,-71.4285714285714,4,2,1,5,0,0
85191,-58.8235294117647,4,2,1,80,0,0
85358,-50,4,2,1,80,0,0
106691,-100,4,2,1,70,0,0
106941,-100,4,2,1,5,0,0
107024,-33.3333333333333,4,2,1,70,0,0
107149,-100,4,2,1,5,0,0
107191,-181.818181818181,4,2,1,70,0,0
107274,-100,4,2,1,5,0,0
107358,-27.7777777777778,4,2,1,70,0,0
107524,-100,4,2,1,5,0,0
107608,-86.9565217391304,4,2,1,70,0,0
107774,-100,4,2,1,5,0,0
107858,-399.999999999997,4,2,1,70,0,0
107941,-100,4,2,1,5,0,0
108024,-83.3333333333333,4,2,1,70,0,0
108274,-100,4,2,1,5,0,0
108358,-28.5714285714286,4,2,1,70,0,0
108608,-100,4,2,1,5,0,0
108691,-57.1428571428571,4,2,1,70,0,0
108774,-100,4,2,1,5,0,0
108858,-57.1428571428571,4,2,1,70,0,0
108899,-100,4,2,1,5,0,0
108941,-57.1428571428571,4,2,1,70,0,0
108983,-100,4,2,1,5,0,0
109024,-38.4615384615385,4,2,1,70,0,0
109149,-100,4,2,1,5,0,0
109191,-666.666666666658,4,2,1,70,0,0
109274,-100,4,2,1,5,0,0
109358,-100,4,2,1,70,0,0
109608,-100,4,2,1,5,0,0
109691,-25,4,2,1,70,0,0
109816,-100,4,2,1,5,0,0
109858,-100,4,2,1,70,0,0
109941,-100,4,2,1,5,0,0
110024,-28.5714285714286,4,2,1,70,0,0
110108,-100,4,2,1,5,0,0
110191,-66.6666666666667,4,2,1,70,0,0
110441,-100,4,2,1,5,0,0
110524,-32.258064516129,4,2,1,70,0,0
110608,-100,4,2,1,5,0,0
110691,-100,4,2,1,70,0,0
111108,-100,4,2,1,5,0,0
111191,-333.333333333333,4,2,1,70,0,0
111274,-100,4,2,1,5,0,0
111358,-28.5714285714286,4,2,1,70,0,0
111524,-100,4,2,1,5,0,0
111608,-55.5555555555556,4,2,1,70,0,0
111774,-100,4,2,1,5,0,0
111858,-100,4,2,1,70,0,0
112274,-100,4,2,1,5,0,0
112358,-33.3333333333333,4,2,1,70,0,0
112483,-100,4,2,1,5,0,0
112524,-50,4,2,1,70,0,0
112608,-100,4,2,1,5,0,0
112691,-33.3333333333333,4,2,1,70,0,0
112858,-100,4,2,1,5,0,0
112941,-100,4,2,1,70,0,0
113108,-100,4,2,1,5,0,0
113191,-33.3333333333333,4,2,1,70,0,0
113274,-100,4,2,1,5,0,0
113358,-133.333333333333,4,2,1,70,0,0
113608,-100,4,2,1,5,0,0
113691,-33.3333333333333,4,2,1,70,0,0
113941,-100,4,2,1,5,0,0
114024,-57.1428571428571,4,2,1,70,0,0
114108,-100,4,2,1,5,0,0
114191,-66.6666666666667,4,2,1,70,0,0
114233,-100,4,2,1,5,0,0
114274,-66.6666666666667,4,2,1,70,0,0
114316,-100,4,2,1,5,0,0
114358,-33.3333333333333,4,2,1,70,0,0
114441,-100,4,2,1,5,0,0
114524,-66.6666666666667,4,2,1,70,0,0
114774,-100,4,2,1,5,0,0
114858,-100,4,2,1,70,0,0
115024,-28.5714285714286,4,2,1,70,0,0
115149,-100,4,2,1,5,0,0
115191,-133.333333333333,4,2,1,70,0,0
115274,-100,4,2,1,5,0,0
115358,-50,4,2,1,70,0,0
115441,-100,4,2,1,5,0,0
115524,-100,4,2,1,70,0,0
115774,-100,4,2,1,5,0,0
115858,-28.5714285714286,4,2,1,70,0,0
116816,-100,4,2,1,5,0,0
116858,-222.222222222221,4,2,1,70,0,0
116941,-100,4,2,1,5,0,0
117024,-66.6666666666667,4,2,1,70,0,0
117108,-100,4,2,1,5,0,0
117191,-100,4,2,1,70,0,0
117358,-100,4,2,1,70,0,0
117608,-100,4,2,1,5,0,0
117691,-66.6666666666667,4,2,1,70,0,0
117816,-100,4,2,1,5,0,0
117858,-133.333333333333,4,2,1,70,0,0
117941,-100,4,2,1,5,0,0
118024,-58.8235294117647,4,2,1,70,0,0
118274,-100,4,2,1,5,0,0
118358,-222.222222222221,4,2,1,70,0,0
118441,-100,4,2,1,5,0,0
118524,-222.222222222221,4,2,1,70,0,0
118608,-100,4,2,1,5,0,0
118691,-222.222222222221,4,2,1,70,0,0
118858,-50,4,2,1,70,0,0
118983,-100,4,2,1,5,0,0
119024,-58.8235294117647,4,2,1,70,0,0
119524,-100,4,2,1,70,0,0
119608,-100,4,2,1,5,0,0
119691,-40,4,2,1,70,0,0
119983,-100,4,2,1,5,0,0
120024,-100,4,2,1,70,0,0
120274,-100,4,2,1,5,0,0
120358,-66.6666666666667,4,2,1,70,0,0
120483,-100,4,2,1,5,0,0
120524,-133.333333333333,4,2,1,70,0,0
120608,-100,4,2,1,5,0,0
120691,-133.333333333333,4,2,1,70,0,0
120774,-100,4,2,1,5,0,0
120858,-58.8235294117647,4,2,1,70,0,0
121358,-222.222222222221,4,2,1,70,0,0
121441,-100,4,2,1,5,0,0
121524,-58.8235294117647,4,2,1,70,0,0
121941,-100,4,2,1,5,0,0
122024,-133.333333333333,4,2,1,70,0,0
122108,-100,4,2,1,5,0,0
122191,-66.6666666666667,4,2,1,70,0,0
122316,-100,4,2,1,5,0,0
122358,-45.4545454545455,4,2,1,70,0,0
122608,-100,4,2,1,5,0,0
122691,-100,4,2,1,70,0,0
122941,-100,4,2,1,5,0,0
123024,-66.6666666666667,4,2,1,70,0,0
123149,-100,4,2,1,5,0,0
123191,-133.333333333333,4,2,1,70,0,0
123274,-100,4,2,1,5,0,0
123358,-58.8235294117647,4,2,1,70,0,0
123608,-100,4,2,1,5,0,0
123691,-222.222222222221,4,2,1,70,0,0
123774,-100,4,2,1,5,0,0
123858,-222.222222222221,4,2,1,70,0,0
123941,-100,4,2,1,5,0,0
124024,-50,4,2,1,70,0,0
124316,-100,4,2,1,5,0,0
124358,-58.8235294117647,4,2,1,70,0,0
124858,-100,4,2,1,70,0,0
124941,-100,4,2,1,5,0,0
125024,-40,4,2,1,70,0,0
125316,-100,4,2,1,5,0,0
125358,-100,4,2,1,70,0,0
125608,-100,4,2,1,5,0,0
125691,-66.6666666666667,4,2,1,70,0,0
125816,-100,4,2,1,5,0,0
125858,-133.333333333333,4,2,1,70,0,0
125941,-100,4,2,1,5,0,0
126024,-133.333333333333,4,2,1,70,0,0
126108,-100,4,2,1,5,0,0
126191,-58.8235294117647,4,2,1,70,0,0
126691,-222.222222222221,4,2,1,70,0,0
126774,-100,4,2,1,5,0,0
126858,-58.8235294117647,4,2,1,70,0,0
127274,-100,4,2,1,5,0,0
127358,-133.333333333333,4,2,1,70,0,0
127441,-100,4,2,1,5,0,0
127524,-66.6666666666667,4,2,1,70,0,0
127649,-100,4,2,1,5,0,0
127691,-45.4545454545455,4,2,1,70,0,0
127816,-100,4,2,1,5,0,0
127858,-285.714285714284,4,2,1,70,0,0
127983,-100,4,2,1,5,0,0
128024,-33.3333333333333,4,2,1,70,0,0
128316,-33.3333333333333,4,2,1,5,0,0
128358,-100,4,2,1,70,0,0
128441,-33.3333333333333,4,2,1,5,0,0
128524,-100,4,2,1,70,0,0
128691,-33.3333333333333,4,2,1,70,0,0
128774,-33.3333333333333,4,2,1,5,0,0
128858,-66.6666666666667,4,2,1,70,0,0
128941,-33.3333333333333,4,2,1,5,0,0
129024,-100,4,2,1,70,0,0
129608,-33.3333333333333,4,2,1,5,0,0
129691,-200,4,2,1,70,0,0
129816,-33.3333333333333,4,2,1,5,0,0
129858,-33.3333333333333,4,2,1,70,0,0
130149,-33.3333333333333,4,2,1,5,0,0
130191,-100,4,2,1,70,0,0
130274,-33.3333333333333,4,2,1,5,0,0
130358,-33.3333333333333,4,2,1,70,0,0
130649,-33.3333333333333,4,2,1,5,0,0
130691,-50,4,2,1,70,0,0
131149,-33.3333333333333,4,2,1,5,0,0
131191,-200,4,2,1,70,0,0
131274,-33.3333333333333,4,2,1,5,0,0
131358,-100,4,2,1,70,0,0
131941,-33.3333333333333,4,2,1,5,0,0
132024,-200,4,2,1,70,0,0
132149,-33.3333333333333,4,2,1,5,0,0
132191,-50,4,2,1,70,0,0
132483,-33.3333333333333,4,2,1,5,0,0
132524,-33.3333333333333,4,2,1,70,0,0
132941,-33.3333333333333,4,2,1,5,0,0
133024,-33.3333333333333,4,2,1,70,0,0
133149,-33.3333333333333,4,2,1,5,0,0
133191,-66.6666666666667,4,2,1,60,0,0
133483,-33.3333333333333,4,2,1,5,0,0
133524,-133.333333333333,4,2,1,60,0,0
133608,-33.3333333333333,4,2,1,5,0,0
133691,-57.1428571428571,4,2,1,60,0,0
133774,-33.3333333333333,4,2,1,5,0,0
133858,-33.3333333333333,4,2,1,60,0,0
134066,-33.3333333333333,4,2,1,5,0,0
134191,-33.3333333333333,4,2,1,60,0,0
134608,-33.3333333333333,4,2,1,5,0,0
134691,-133.333333333333,4,2,1,60,0,0
134774,-33.3333333333333,4,2,1,5,0,0
134858,-133.333333333333,4,2,1,60,0,0
135108,-33.3333333333333,4,2,1,5,0,0
135191,-133.333333333333,4,2,1,60,0,0
135274,-33.3333333333333,4,2,1,5,0,0
135358,-33.3333333333333,4,2,1,60,0,0
135483,-33.3333333333333,4,2,1,5,0,0
135524,-66.6666666666667,4,2,1,60,0,0
135649,-33.3333333333333,4,2,1,5,0,0
135691,-50,4,2,1,60,0,0
135816,-33.3333333333333,4,2,1,5,0,0
135858,-25,4,2,1,60,0,0
135983,-33.3333333333333,4,2,1,5,0,0
136024,-66.6666666666667,4,2,1,55,0,0
136483,-33.3333333333333,4,2,1,5,0,0
136524,-33.3333333333333,4,2,1,55,0,0
136733,-33.3333333333333,4,2,1,5,0,0
136858,-66.6666666666667,4,2,1,55,0,0
137066,-33.3333333333333,4,2,1,5,0,0
137191,-33.3333333333333,4,2,1,55,0,0
138316,-33.3333333333333,4,2,1,5,0,0
138358,-33.3333333333333,4,2,1,55,0,0
138691,-66.6666666666667,4,2,1,50,0,0

[Colours]
Combo1 : 162,134,156
Combo2 : 255,255,66
Combo3 : 211,166,109
Combo4 : 255,66,66
Combo5 : 146,26,234
Combo6 : 66,255,255
Combo7 : 143,175,177
Combo8 : 255,66,255
SliderBorder : 100,100,100

[HitObjects]
397,18,25,38,0,L|380:112,1,75,2|0,3:2|0:0,0:0:0:0:
370,165,191,1,0,0:0:0:0:
296,178,358,1,0,0:0:0:0:
377,91,524,2,0,L|391:18,1,75,0|0,3:2|0:0,0:0:0:0:
0,230,691,37,8,0:2:0:0:
0,230,858,1,0,0:0:0:0:
123,85,1024,22,0,P|132:126|112:173,1,75,0|0,3:2|0:0,0:0:0:0:
74,217,1191,1,0,0:0:0:0:
74,217,1358,1,0,0:0:0:0:
166,325,1524,22,0,P|161:282|125:245,1,75,0|0,3:2|0:0,0:0:0:0:
0,230,1691,2,0,L|94:213,1,75,0|0,3:2|0:0,0:0:0:0:
220,189,1858,1,0,0:0:0:0:
92,311,2024,54,0,L|186:327,1,75,8|0,0:2|0:0,0:0:0:0:
238,337,2191,1,0,0:0:0:0:
123,85,2358,22,0,B|34:133|34:133|317:83,1,337.500012874604,0|0,3:2|0:0,0:0:0:0:
412,65,2691,22,0,L|506:48,1,75,0|0,3:2|0:0,0:0:0:0:
338,78,2858,1,0,0:0:0:0:
438,212,3024,1,0,0:0:0:0:
485,46,3191,2,0,L|411:59,1,75,0|0,3:2|0:0,0:0:0:0:
465,365,3358,53,8,0:2:0:0:
465,365,3524,1,0,0:0:0:0:
438,212,3691,22,0,P|407:182|356:176,1,75,0|0,3:2|0:0,0:0:0:0:
299,188,3858,1,0,0:0:0:0:
485,46,4024,21,0,0:0:0:0:
485,46,4191,1,0,0:0:0:0:
438,212,4358,54,0,P|419:250|373:273,1,75,0|0,3:2|0:0,0:0:0:0:
316,282,4524,1,0,0:0:0:0:
300,48,4691,22,0,P|323:83|320:134,1,75,8|0,0:2|0:0,0:0:0:0:
299,188,4858,1,0,0:0:0:0:
0,64,5024,22,0,B|123:85|123:85|133:82|133:82|301:112,1,255.000004863739,0|0,3:2|0:0,0:0:0:0:
73,370,5358,6,0,B|-50:391,1,75,2|0,3:2|0:0,0:0:0:0:
99,222,5524,1,0,0:0:0:0:
25,208,5691,1,0,0:0:0:0:
0,378,5858,2,0,B|73:365,1,75,0|0,3:2|0:0,0:0:0:0:
369,313,6024,37,8,0:2:0:0:
369,313,6191,1,0,0:0:0:0:
158,377,6358,22,0,P|187:346|193:295,1,75,0|0,3:2|0:0,0:0:0:0:
182,238,6524,1,0,0:0:0:0:
182,238,6691,1,0,0:0:0:0:
406,245,6858,22,0,P|364:235|317:255,1,75,0|0,3:2|0:0,0:0:0:0:
195,315,7024,2,0,B|268:328,1,75,0|0,3:2|0:0,0:0:0:0:
489,367,7191,1,0,0:0:0:0:
244,135,7358,54,0,P|284:147|315:188,1,75,8|0,0:2|0:0,0:0:0:0:
334,243,7524,1,0,0:0:0:0:
512,0,7691,22,0,L|161:30,1,300,0|0,3:2|0:0,0:0:0:0:
1,244,8024,22,0,P|39:225|62:179,1,75,0|0,3:2|0:0,0:0:0:0:
69,121,8191,1,0,0:0:0:0:
69,121,8358,1,0,0:0:0:0:
0,0,8524,2,0,P|-2:42|25:85,1,75,0|0,3:2|0:0,0:0:0:0:
334,243,8691,53,8,0:2:0:0:
334,243,8858,1,0,0:0:0:0:
314,170,9024,22,0,B|349:159|349:159|379:181,1,75,0|0,3:2|0:0,0:0:0:0:
512,358,9191,1,0,0:0:0:0:
438,371,9358,21,0,0:0:0:0:
364,384,9524,1,0,0:0:0:0:
234,130,9691,54,0,L|217:224,1,75,0|0,3:2|0:0,0:0:0:0:
194,351,9858,1,0,0:0:0:0:
78,0,10024,21,8,0:2:0:0:
78,0,10358,22,0,P|40:25|32:73,1,75
78,0,10524,2,0,P|103:37|95:84,1,75,0|0,0:0|0:0,0:0:0:0:
60,351,10691,102,0,B|35:388|35:388|175:363,1,150,0|0,3:2|0:0,0:0:0:0:
284,148,10858,6,0,P|220:212|220:308,1,150
0,198,11024,2,0,P|82:236|114:326,1,150,0|0,0:0|0:0,0:0:0:0:
280,312,11191,102,0,B|316:338|316:338|176:362,1,150,0|0,3:2|0:0,0:0:0:0:
143,173,11358,5,8,0:2:0:0:
143,173,11524,1,0,0:0:0:0:
408,364,11691,102,0,L|421:285,1,75,0|0,3:2|0:0,0:0:0:0:
459,67,11858,1,0,0:0:0:0:
512,189,12024,6,0,L|418:205,1,75,0|0,0:0|0:0,0:0:0:0:
215,240,12191,1,0,3:2:0:0:
512,51,12358,102,0,L|360:24,1,150,0|0,3:2|0:0,0:0:0:0:
215,0,12524,1,0,0:0:0:0:
502,290,12691,6,0,B|312:256|312:256|266:151|266:151|93:120|93:120|139:226|139:226|234:242,1,675.000025749207,8|0,0:2|0:0,0:0:0:0:
361,147,13024,102,0,B|445:162|445:162|501:289,1,225.000008583069,0|0,3:2|0:0,0:0:0:0:
495,296,13191,2,0,B|411:281|411:281|355:154,1,225.000008583069,2|0,0:0|0:0,0:0:0:0:
512,0,13358,6,0,L|497:80,1,75,0|0,3:2|0:0,0:0:0:0:
220,247,13524,102,0,L|140:232,1,56.2500021457673
314,370,13691,1,0,0:0:0:0:
259,75,13858,6,0,L|274:155,1,75,0|0,3:0|0:0,0:0:0:0:
80,230,14024,102,0,B|-29:389|-29:389|5:192|5:192|14:185|14:185|43:20,1,562.5,8|0,0:2|0:0,0:0:0:0:
294,5,14358,6,0,B|239:-44|239:-44|203:22,1,150,0|0,3:0|0:0,0:0:0:0:
237,218,14524,102,0,B|292:267|292:267|328:201,1,150
512,116,14691,6,0,B|447:-10|447:-10|375:50|375:50|394:94|394:94|232:123,1,450,0|0,0:0|0:0,0:0:0:0:
110,136,15024,102,0,P|86:-3|138:118,1,393.750003755093,0|0,3:2|0:0,0:0:0:0:
0,308,15358,6,0,B|97:325|52:260|174:282|174:282|220:346|220:346|317:364|278:300|400:321,1,450,10|0,0:0|0:0,0:0:0:0:
503,345,15691,102,0,P|468:337|405:236,1,150,0|0,3:2|0:0,0:0:0:0:
354,166,15858,6,0,P|312:225|321:298,1,150,0|0,0:0|0:0,0:0:0:0:
496,254,16024,102,0,L|511:167,1,56.2500021457673,0|0,3:2|0:0,0:0:0:0:
491,249,16191,2,0,L|506:162,1,75,0|0,0:0|0:0,0:0:0:0:
420,78,16358,6,0,L|433:151,1,75,0|0,0:0|0:0,0:0:0:0:
503,345,16524,102,0,P|468:337|405:236,1,150,0|0,3:2|0:0,0:0:0:0:
459,4,16691,6,0,L|430:166,1,150,8|0,0:2|0:0,0:0:0:0:
321,298,16858,102,0,P|290:231|223:202,1,150
53,295,17024,5,0,3:0:0:0:
50,311,17108,1,0,0:0:0:0:
47,327,17191,2,0,L|128:312,1,75,0|0,0:0|0:0,0:0:0:0:
491,249,17358,101,0,0:0:0:0:
31,330,17524,1,0,3:2:0:0:
234,71,17691,5,0,3:2:0:0:
194,300,17858,1,0,0:0:0:0:
37,24,18024,102,0,B|-30:118|-30:118|295:60,1,384.75001203518,8|0,0:2|0:0,0:0:0:0:
493,1,18358,6,0,P|437:32|415:93,1,131.250001251698,0|0,3:2|0:0,0:0:0:0:
265,200,18524,102,0,P|276:128|233:70,1,150,2|0,0:0|0:0,0:0:0:0:
37,24,18691,6,0,B|151:43,1,112.500004291535,0|0,3:2|0:0,0:0:0:0:
201,152,18858,2,0,B|127:165,1,75,0|0,0:0|0:0,0:0:0:0:
45,158,19024,101,0,0:0:0:0:
415,93,19191,1,0,3:0:0:0:
37,24,19358,5,8,0:0:0:0:
423,227,19524,101,0,0:0:0:0:
423,227,19608,1,0,0:0:0:0:
423,227,19691,2,0,L|437:307,1,75,0|0,3:0|0:0,0:0:0:0:
342,384,19858,2,0,L|355:310,1,56.2500021457673,0|0,0:0|0:0,0:0:0:0:
415,93,20024,6,0,P|381:72|320:79,1,75,0|0,0:0|0:0,0:0:0:0:
287,121,20191,2,0,P|321:142|382:135,1,75,0|0,0:0|0:0,0:0:0:0:
445,20,20358,102,0,P|491:74|479:138,1,112.500004291535,0|0,3:0|0:0,0:0:0:0:
255,193,20524,2,0,P|209:139|227:69,1,150,0|0,0:0|0:0,0:0:0:0:
479,324,20691,6,0,B|391:307|342:384|342:384|255:233|83:251,1,450,10|0,0:0|0:0,0:0:0:0:
0,324,21024,102,0,B|31:342|43:382|43:382|40:340|63:312,1,150,0|0,3:2|0:0,0:0:0:0:
387,258,21191,2,0,B|363:230|366:188|366:188|354:228|323:246,1,150,0|0,0:0|0:0,0:0:0:0:
178,384,21358,6,2,B|148:224|148:224|138:216|138:216|110:57,2,337.500012874604,6|0|0,3:2|0:0|0:0,0:0:0:0:
312,19,21858,102,0,B|297:100,1,75,0|0,3:2|0:0,0:0:0:0:
15,158,22024,6,0,B|-29:110|-29:110|340:175,1,382.500007295609,8|0,0:2|0:0,0:0:0:0:
360,176,22358,102,0,B|346:254|346:254|251:238,1,150,0|0,3:2|0:0,0:0:0:0:
178,50,22524,6,0,B|184:10|184:10|232:18,1,75,0|0,0:0|0:0,0:0:0:0:
406,341,22691,101,0,0:0:0:0:
444,11,22858,6,0,L|457:89,1,75,0|0,3:2|0:0,0:0:0:0:
495,307,23024,2,0,L|509:381,1,75,0|0,3:2|0:0,0:0:0:0:
506,202,23191,102,0,L|427:188,1,75
64,123,23358,6,0,L|24:116,1,37.5,8|0,0:2|0:0,0:0:0:0:
64,123,23524,1,0,0:0:0:0:
262,21,23691,102,0,P|221:82|150:98,1,150,0|0,3:2|0:0,0:0:0:0:
134,176,23858,2,0,P|196:214|214:285,1,150,2|0,0:0|0:0,0:0:0:0:
473,199,24024,6,0,L|513:206,1,37.5,0|0,3:2|0:0,0:0:0:0:
473,199,24191,1,0,0:0:0:0:
442,283,24358,102,0,B|363:269|363:269|323:211,1,150
336,136,24524,2,0,B|394:96|394:96|473:110,1,150,0|0,3:2|0:0,0:0:0:0:
367,356,24691,6,0,B|512:306|512:306|219:253,1,450,8|0,0:2|0:0,0:0:0:0:
2,244,25024,102,0,P|-16:305|34:380,1,150,0|0,3:2|0:0,0:0:0:0:
130,356,25191,2,0,P|148:285|108:225,1,150,0|0,0:0|0:0,0:0:0:0:
67,301,25358,5,0,0:0:0:0:
367,356,25524,1,0,0:0:0:0:
33,111,25691,102,0,L|48:197,1,75,0|0,3:2|0:0,0:0:0:0:
67,301,25858,1,0,0:0:0:0:
405,29,26024,6,0,B|450:93|529:107|529:107|434:91|434:91|428:81|428:81|199:41,1,450,10|0,0:2|0:0,0:0:0:0:
91,22,26358,102,0,L|169:35,1,75,0|0,3:2|0:0,0:0:0:0:
512,0,26524,1,0,0:0:0:0:
281,277,26691,6,0,L|289:324,1,37.5,0|0,3:2|0:0,0:0:0:0:
279,269,26858,102,0,L|249:103,1,150
239,48,27024,6,0,B|374:24|374:24|352:263|352:263|281:277,1,450,0|0,0:0|0:0,0:0:0:0:
139,66,27358,102,0,B|-9:92|-9:92|305:148,1,450,8|0,0:2|0:0,0:0:0:0:
433,170,27691,6,0,B|469:176,1,37.5,0|0,3:2|0:0,0:0:0:0:
505,182,27858,2,0,B|469:176,1,37.5,0|0,0:0|0:0,0:0:0:0:
286,144,28024,101,0,0:0:0:0:
495,28,28191,6,0,L|464:201,1,150,0|0,3:2|0:0,0:0:0:0:
442,323,28358,2,0,L|468:175,1,150,0|0,3:2|0:0,0:0:0:0:
498,9,28524,101,0,0:0:0:0:
439,342,28691,1,8,0:2:0:0:
436,361,28858,1,0,0:0:0:0:
372,53,29024,6,0,P|316:85|284:142,1,131.250001251698,0|0,3:2|0:0,0:0:0:0:
223,291,29191,2,0,P|229:210|123:119,1,150,2|0,0:0|0:0,0:0:0:0:
8,312,29358,102,0,L|16:359,1,37.5,0|0,3:2|0:0,0:0:0:0:
114,276,29524,2,0,L|121:240,1,37.5,0|0,0:0|0:0,0:0:0:0:
33,52,29691,5,0,0:0:0:0:
83,384,29858,1,0,0:0:0:0:
388,300,30024,102,0,B|452:298|511:332|511:332|405:192|199:302,1,450,8|0,0:2|0:0,0:0:0:0:
188,364,30358,6,0,P|242:372|292:329,1,75,0|0,3:0|0:0,0:0:0:0:
229,162,30524,102,0,P|191:224|221:290,1,150
388,300,30691,5,0,0:0:0:0:
268,230,30858,1,0,0:0:0:0:
336,6,31024,102,0,L|362:155,1,150,0|0,3:2|0:0,0:0:0:0:
388,300,31191,1,0,0:0:0:0:
512,0,31358,6,0,B|480:181|480:181|486:190|486:190|453:379|453:379|422:325|422:325|438:230|438:230|448:224|448:224|457:169,1,600,10|0,0:0|0:0,0:0:0:0:
454,181,31858,1,0,0:0:0:0:
0,150,32024,101,0,3:2:0:0:
0,150,32191,1,0,0:0:0:0:
85,123,32358,6,0,P|109:96|122:61,1,75
70,202,32524,2,0,P|84:237|84:275,1,75
181,125,32691,102,0,P|233:104|267:60,1,112.500004291535,8|0,0:0|0:0,0:0:0:0:
163,234,32858,2,0,P|204:271|220:325,1,112.500004291535
512,0,33024,5,0,3:2:0:0:
512,0,33191,1,0,0:0:0:0:
489,100,33358,102,0,L|449:93,1,37.5
378,80,33524,2,0,L|313:68,1,56.2500021457673,0|0,0:0|0:0,0:0:0:0:
15,260,33691,6,0,L|162:233,1,150,0|0,3:2|0:0,0:0:0:0:
236,220,33858,2,0,L|430:185,1,150,0|0,0:0|0:0,0:0:0:0:
512,384,34024,101,8,0:2:0:0:
512,384,34191,1,0,0:0:0:0:
467,182,34358,6,0,P|456:237|473:290,1,112.500004291535,0|0,3:2|0:0,0:0:0:0:
419,345,34524,2,0,P|339:330|271:373,1,112.500004291535,0|0,0:0|0:0,0:0:0:0:
0,88,34691,101,0,3:2:0:0:
0,88,34858,1,0,0:0:0:0:
196,36,35024,6,0,B|184:102|184:102|146:128,1,112.500004291535,0|0,0:0|0:0,0:0:0:0:
55,192,35191,2,0,B|17:218|17:218|0:320,1,112.500004291535,0|0,3:0|0:0,0:0:0:0:
212,372,35358,102,0,B|230:269|230:269|203:231,1,150,8|0,0:0|0:0,0:0:0:0:
138,140,35524,2,0,B|111:102|111:102|129:0,1,150,0|0,0:0|0:0,0:0:0:0:
512,94,35691,5,0,3:0:0:0:
512,94,35858,1,0,0:0:0:0:
404,64,36024,102,0,P|481:117|495:178,1,112.500004291535
403,158,36191,2,0,P|395:251|349:293,1,112.500004291535,0|0,0:0|0:0,0:0:0:0:
94,271,36358,6,0,P|101:177|179:122,1,150,0|0,3:0|0:0,0:0:0:0:
175,224,36524,2,0,P|259:183|346:223,1,150,0|0,0:0|0:0,0:0:0:0:
458,338,36691,102,0,B|182:386|182:386|250:347|259:277|259:277|316:329|414:309,1,562.5,10|0,0:0|0:0,0:0:0:0:
496,167,37024,6,0,L|485:224,1,37.5,0|0,3:2|0:0,0:0:0:0:
458,338,37191,1,0,0:0:0:0:
258,0,37358,102,0,B|278:28|278:28|271:68,1,75,0|0,3:2|0:0,0:0:0:0:
385,22,37524,2,0,B|356:42|356:42|349:81,1,75,0|0,0:0|0:0,0:0:0:0:
299,138,37691,5,0,0:0:0:0:
298,145,37774,1,0,0:0:0:0:
296,153,37858,1,0,3:0:0:0:
0,384,38024,102,0,B|39:327|39:327|26:248,1,150,8|0,0:2|0:0,0:0:0:0:
252,341,38191,2,0,B|195:301|195:301|181:222,1,150
81,111,38358,5,0,3:2:0:0:
78,97,38441,1,0,0:0:0:0:
75,82,38524,1,0,0:0:0:0:
322,5,38691,102,0,L|292:170,1,150
107,245,38858,2,0,L|93:171,1,75,0|0,3:0|0:0,0:0:0:0:
61,8,39024,2,0,L|75:82,1,75,0|0,3:2|0:0,0:0:0:0:
120,318,39191,1,0,0:0:0:0:
486,32,39358,6,0,B|279:-3|279:-3|316:115|492:88|365:331,1,562.5,8|0,0:0|0:0,0:0:0:0:
286,184,39691,102,0,P|334:176|286:192,1,150,0|0,3:2|0:0,0:0:0:0:
486,32,39858,2,0,L|513:189,1,150,2|0,0:0|0:0,0:0:0:0:
256,384,40024,5,0,3:2:0:0:
256,384,40191,1,0,0:0:0:0:
63,296,40358,102,0,P|136:286|199:324,1,150
428,260,40524,2,0,P|399:328|335:364,1,150,0|0,3:0|0:0,0:0:0:0:
256,384,40691,1,8,0:0:0:0:
235,172,40858,6,0,P|280:231|279:305,1,150,0|0,0:0|0:0,0:0:0:0:
63,296,41024,2,0,P|91:228|155:192,1,131.250001251698,0|0,3:0|0:0,0:0:0:0:
439,165,41191,2,0,P|366:174|303:136,1,112.500004291535
161,111,41358,101,0,0:0:0:0:
501,215,41524,1,0,0:0:0:0:
301,19,41691,5,0,3:0:0:0:
256,384,41858,1,0,0:0:0:0:
337,0,42024,102,0,B|391:9|368:-23|446:18|359:31|391:9|337:0,1,112.5
328,0,42358,1,2,0:0:0:0:
328,0,42691,86,0,B|341:42|390:51|390:51|467:62|503:137|468:219|468:219|408:107|270:60|146:138,1,675.000025749207,0|0,3:2|0:0,0:0:0:0:
79,171,43024,2,0,P|17:207|86:179,1,225.000008583069,0|0,0:0|0:0,0:0:0:0:
241,381,43191,2,0,P|191:312|134:285,1,150,0|0,3:2|0:0,0:0:0:0:
452,300,43358,2,0,B|457:375|389:399|389:399|370:280|282:203|165:211,1,450.000017166138,8|0,0:2|0:0,0:0:0:0:
35,34,43691,86,0,L|94:24,1,56.2499982833863,0|0,3:2|0:0,0:0:0:0:
174,5,44191,22,0,L|145:109,1,75,0|0,3:2|0:0,0:0:0:0:
69,379,44358,2,0,B|91:317|91:317|86:306|86:306|107:244,1,142.49999619484,0|0,3:2|0:0,0:0:0:0:
1,179,44524,2,0,L|272:140,1,225.000008583069,0|0,0:0|0:0,0:0:0:0:
496,111,44691,1,8,0:2:0:0:
1,179,44858,1,0,0:0:0:0:
512,233,45024,2,0,B|475:283|485:363|485:363|443:91|443:91|432:18|371:-29|283:-19|241:42,1,675.000025749207,2|0,3:2|0:0,0:0:0:0:
144,261,45358,6,0,B|129:203|69:188|69:188|200:165|305:254|332:378|332:378|378:366|412:312|405:252|356:215,1,675.000025749207,0|0,3:2|0:0,0:0:0:0:
306,132,45691,2,0,P|296:100|312:137,1,225.000008583069,0|0,0:0|0:0,0:0:0:0:
60,364,45858,2,0,B|24:362|3:349|3:349|59:359|112:330|139:274,1,225.000008583069,0|0,3:0|0:0,0:0:0:0:
215,307,46024,2,0,B|204:341|175:372|175:372|268:300|269:198|217:111|126:66,1,450.000017166138,8|0,0:2|0:0,0:0:0:0:
492,4,46358,70,0,P|472:44|438:57,1,78.7499975967408,0|0,3:0|0:0,0:0:0:0:
453,69,47024,38,0,L|210:33,1,225,0|0,3:2|0:0,0:0:0:0:
464,154,47358,2,0,P|398:164|342:235,1,150,10|0,0:0|0:0,0:0:0:0:
346,225,47524,2,0,P|301:146|198:119,1,202.500000772476,0|0,0:0|0:0,0:0:0:0:
411,293,47691,2,0,B|422:330|459:355|499:352|499:352|539:349|571:318|577:279|577:279|582:239|560:202|523:186|523:186|486:172|444:185|422:218|422:218|384:213|349:237|338:272|338:272|320:327|277:370|222:387|222:387|168:405|108:396|61:363,1,900,0|0,3:2|0:0,0:0:0:0:
289,0,48024,102,0,B|132:-50|-18:11|-9:111|74:134|122:81|122:81|166:70|212:85|242:120|242:120|271:155|278:202|259:244,1,675.000025749207,0|0,3:2|0:0,0:0:0:0:
155,236,48358,2,0,P|126:164|170:227,1,225.000008583069,0|0,0:0|0:0,0:0:0:0:
357,45,48524,2,0,B|402:4|467:27|467:27|412:18|369:59,1,225.000008583069,0|0,3:2|0:0,0:0:0:0:
507,368,48691,2,0,B|305:251|60:271|60:271|174:268|263:331,1,675.000025749207,8|0,0:2|0:0,0:0:0:0:
407,234,49024,86,0,B|485:208|494:88|441:61|404:123|445:175,1,224.999993133545,0|0,3:2|0:0,0:0:0:0:
236,305,49524,22,0,L|228:271,1,18.75,0|0,3:2|0:0,0:0:0:0:
219,278,49691,2,0,B|349:240|423:71|366:-56|243:-101|170:12|213:79|272:119,1,562.5,0|0,3:2|0:0,0:0:0:0:
436,158,50024,1,8,0:2:0:0:
436,158,50191,2,0,L|472:338,1,150,0|0,0:0|0:0,0:0:0:0:
456,384,50358,2,0,B|405:375|389:327|389:327|310:280|207:291|132:370,1,375,0|2,3:2|0:0,0:0:0:0:
132,369,50691,5,0,3:2:0:0:
132,369,50858,1,0,0:0:0:0:
423,0,51024,101,0,0:0:0:0:
423,0,51191,1,0,3:0:0:0:
58,326,51358,5,8,0:0:0:0:
58,326,51691,101,0,3:0:0:0:
30,29,51858,1,0,0:0:0:0:
512,152,52024,5,0,0:0:0:0:
352,384,52191,1,0,0:0:0:0:
202,374,52358,101,0,3:0:0:0:
294,11,52524,1,0,0:0:0:0:
188,366,52691,6,0,L|166:244,1,101.249996910095,10|0,0:0|0:0,0:0:0:0:
168,251,53024,102,0,P|242:195|107:220,1,389.999982147218
512,343,53358,6,0,B|465:357|416:332|398:287|398:287|428:304|465:301|492:280|492:280|519:258|529:222|518:189|518:189|464:170|405:175|356:204|356:204|307:234|273:284|265:340,1,675,0|0,3:2|0:0,0:0:0:0:
71,302,53691,2,0,P|36:370|84:310,1,225.000008583069,0|0,0:0|0:0,0:0:0:0:
265,337,53858,2,0,P|276:228|219:125,1,225.000008583069,0|0,3:0|0:0,0:0:0:0:
198,273,54024,2,0,B|170:321|179:374|179:374|124:13,1,450.000017166138,8|0,0:2|0:0,0:0:0:0:
512,5,54358,70,0,L|459:25,1,56.2499982833863,0|0,3:0|0:0,0:0:0:0:
479,106,54858,22,0,L|378:92,1,75,0|0,3:0|0:0,0:0:0:0:
0,47,55024,2,0,B|61:55|61:55|75:52|75:52|140:60,1,142.49999619484,0|0,3:2|0:0,0:0:0:0:
319,132,55191,2,0,B|337:63|289:2|209:7|209:7|231:36|226:71,1,262.500002503395,0|0,0:0|0:0,0:0:0:0:
15,333,55358,1,8,0:0:0:0:
469,286,55524,1,0,0:0:0:0:
15,333,55691,6,0,B|130:311|130:311|118:292|120:269|135:252|135:252|150:236|173:231|193:241|193:241|213:250|224:271|220:293|220:293|236:267|235:237|235:237|267:281|264:337|238:390|238:390|254:346|287:309|330:290|330:290|373:270|422:268|466:285,1,787.500007510185,2|0,3:2|0:0,0:0:0:0:
511,137,56024,102,0,B|474:83|480:9|480:9|448:120|352:176|250:160|250:160|165:148|147:63|188:21|249:28|255:83,1,675.000025749207,0|0,3:2|0:0,0:0:0:0:
347,48,56358,2,0,P|357:-25|354:48,1,225.000008583069,0|0,0:0|0:0,0:0:0:0:
122,0,56524,2,0,B|59:25|11:9|11:9|59:25|91:82,1,225.000008583069,0|0,3:0|0:0,0:0:0:0:
18,257,56691,2,0,B|124:210|174:96|135:-16|135:-16|149:50|99:94,1,450.000017166138,8|0,0:0|0:0,0:0:0:0:
29,337,57024,86,0,B|74:322|109:355|109:355|90:347|65:349,1,131.25,0|0,3:0|0:0,0:0:0:0:
65,349,57691,22,0,P|148:300|299:308,1,225,0|0,3:0|0:0,0:0:0:0:
273,298,58024,2,0,P|221:252|237:161,1,150,10|0,0:0|0:0,0:0:0:0:
351,317,58191,2,0,P|416:258|366:140,1,202.500000772476,0|0,0:0|0:0,0:0:0:0:
320,18,58358,2,0,B|341:69|398:89|445:78|445:78|366:189|223:199|110:131|99:9,1,607.500002317429,0|0,0:0|0:0,0:0:0:0:
126,277,58691,6,0,B|132:353|132:353|132:373|148:389|168:389|168:389|188:389|204:374|205:354|205:354|200:275|200:275|195:215|242:108|425:94|507:215,1,675.000025749207,0|0,3:2|0:0,0:0:0:0:
89,184,59024,2,0,P|18:199|88:192,1,225.000008583069,0|0,0:0|0:0,0:0:0:0:
361,282,59191,2,0,B|379:242|421:236|421:236|257:262,1,225.000008583069,0|0,3:0|0:0,0:0:0:0:
226,157,59358,2,0,B|314:128|389:1|343:-66|258:-53|228:22|337:126|429:125,1,450.000017166138,8|0,0:0|0:0,0:0:0:0:
476,378,59691,70,0,B|502:253|502:253|494:287|470:312|436:316,1,224.999993133545,0|0,3:0|0:0,0:0:0:0:
271,95,60191,22,0,L|244:109,1,22.4999993133545,0|0,3:0|0:0,0:0:0:0:
234,113,60358,2,0,B|170:79|153:14|165:-47|165:-47|82:341,1,562.5,0|0,3:0|0:0,0:0:0:0:
165,335,60691,1,8,0:0:0:0:
165,335,60858,2,0,B|227:349|227:349|231:354|231:354|310:370|310:370|316:369|316:369|383:384,1,225.000008583069,0|0,0:0|0:0,0:0:0:0:
358,298,61024,2,0,B|315:288|315:288|310:291|310:291|269:282|269:282|266:277|266:277|233:270|233:270|353:231|418:145|395:26,1,450.000017166138,0|2,3:2|0:0,0:0:0:0:
396,32,61358,5,0,3:0:0:0:
396,32,61524,1,0,0:0:0:0:
20,299,61691,101,0,0:0:0:0:
20,299,61858,1,0,3:0:0:0:
322,0,62024,5,8,0:0:0:0:
322,0,62358,101,0,3:0:0:0:
512,314,62524,1,0,0:0:0:0:
58,372,62691,5,0,0:0:0:0:
162,20,62858,1,0,0:0:0:0:
246,41,63024,101,0,3:0:0:0:
288,375,63191,1,0,0:0:0:0:
256,51,63358,2,0,L|237:175,1,101.249996910095,10|0,0:0|0:0,0:0:0:0:
240,151,63691,1,0,0:0:0:0:
240,151,63858,1,0,0:0:0:0:
512,314,64024,37,0,0:0:0:0:
512,314,64191,1,0,0:0:0:0:
512,314,64358,1,0,0:0:0:0:
512,314,64524,1,0,0:0:0:0:
512,314,64691,1,0,0:0:0:0:
512,314,64858,1,0,0:0:0:0:
512,314,65024,1,0,0:0:0:0:
512,314,65191,1,0,0:0:0:0:
460,259,65358,53,0,0:0:0:0:
390,287,65524,1,0,0:0:0:0:
502,185,65691,21,0,0:0:0:0:
474,115,65857,1,0,0:0:0:0:
306,136,66024,22,0,B|325:262|288:180|229:280|229:280|261:220|206:242|310:140|474:110|474:110|473:115|473:115|461:40|507:-20|507:-20|461:37|367:51,1,787.499975967408
314,305,66691,6,0,P|320:346|402:311,1,127.50000243187,6|0,3:2|0:0,0:0:0:0:
387,266,66858,2,0,P|390:246|382:263,1,56.2500021457673,0|0,0:0|0:0,0:0:0:0:
467,342,67024,102,0,P|352:299|230:281,1,247.500007553101
229,281,67191,2,0,B|231:265|231:265|259:235,1,33.7499989700318,0|0,3:2|0:0,0:0:0:0:
10,217,67358,6,0,B|113:156|230:171|230:171|220:136|240:101|240:101|235:103|235:103|123:77|123:77|146:112|143:161,1,498.749986681939,8|0,0:2|0:0,0:0:0:0:
0,94,67691,2,0,B|30:120|30:120|75:104|124:93,1,112.500004291535,0|0,3:2|0:0,0:0:0:0:
333,145,67858,2,0,P|313:139|334:150,1,75,0|0,0:0|0:0,0:0:0:0:
160,249,68024,102,0,P|138:307|124:356,1,89.9999972534181
0,327,68191,2,0,P|34:373|98:333,1,89.9999972534181,0|0,0:0|0:0,0:0:0:0:
0,94,68358,1,0,3:2:0:0:
0,94,68524,1,0,0:0:0:0:
418,198,68691,6,0,B|496:259|518:355|518:355|483:272|414:227|414:227|445:206|445:206|444:190|451:172|451:172|355:44|290:201|194:55|194:55|373:-19|373:-19|326:31|339:97,1,1035.00001974106,10|0,0:2|0:0,0:0:0:0:
21,18,69358,101,0,3:2:0:0:
459,64,69524,2,0,P|423:51|459:67,1,127.50000243187,0|0,0:0|0:0,0:0:0:0:
401,157,69691,6,0,B|425:260|449:180|483:295,1,157.499995193482
476,314,69858,2,0,B|457:334|457:334|383:314,1,75,0|0,3:2|0:0,0:0:0:0:
512,179,70024,2,0,P|385:246|214:250,1,300,8|0,0:2|0:0,0:0:0:0:
425,0,70358,102,0,P|396:21|382:75,1,56.2500021457673,0|0,3:2|0:0,0:0:0:0:
184,320,70524,2,0,B|216:351|216:351|284:318,1,89.9999972534181,0|0,0:0|0:0,0:0:0:0:
285,170,70691,6,0,B|323:176|389:241|349:348|286:292|333:225,1,191.250003647804
191,132,70858,2,0,P|210:140|190:138,1,56.2500021457673,0|0,3:2|0:0,0:0:0:0:
124,89,71024,2,0,B|159:44|146:-15|146:-15|166:42|232:49,1,225.000008583069,0|0,3:2|0:0,0:0:0:0:
41,284,71358,102,0,P|104:336|184:320,1,168.750006437302,8|0,0:2|0:0,0:0:0:0:
136,238,71524,2,0,P|123:260|138:240,1,75,0|0,0:0|0:0,0:0:0:0:
8,372,71691,2,0,B|95:151|206:326|286:169|286:169|150:126,1,472.499985580445,2|0,3:2|0:0,0:0:0:0:
176,149,72024,6,0,B|142:142|142:142|114:35,1,112.500004291535,0|0,3:2|0:0,0:0:0:0:
86,0,72191,2,0,B|64:4|64:4|24:80,1,75,0|0,0:0|0:0,0:0:0:0:
265,75,72358,102,0,P|115:144|19:208,1,225
64,175,72524,2,0,P|45:247|15:253,1,112.500004291535,0|0,3:2|0:0,0:0:0:0:
63,327,72691,6,0,P|77:342|61:331,1,56.2500021457673,8|0,0:2|0:0,0:0:0:0:
161,342,72858,2,0,L|186:402,1,33.7499989700318,0|0,0:0|0:0,0:0:0:0:
237,277,73024,2,0,P|227:295|240:280,1,56.2500021457673,0|0,3:2|0:0,0:0:0:0:
39,50,73191,101,0,0:0:0:0:
277,203,73358,6,0,P|238:249|244:302,1,89.9999972534181
405,381,73524,2,0,P|374:345|368:272,1,89.9999972534181,0|0,0:0|0:0,0:0:0:0:
400,139,73691,102,0,P|359:222|260:161,1,191.250003647804,0|0,3:2|0:0,0:0:0:0:
315,132,73858,2,0,P|313:112|319:131,1,56.2500021457673,0|0,0:0|0:0,0:0:0:0:
252,372,74024,6,0,B|290:332|283:144|48:396|51:101|249:-89|322:-3|378:32|314:132,1,600,10|0,0:2|3:2,0:0:0:0:
0,228,74524,2,0,B|39:268|39:268|91:247,1,112.500004291535,0|0,0:0|0:0,0:0:0:0:
126,32,74691,102,0,L|113:-5,1,30,0|0,3:2|0:0,0:0:0:0:
50,47,75024,5,0,0:0:0:0:
50,47,75191,1,0,3:2:0:0:
455,384,75358,102,0,L|535:191,1,150,8|0,0:2|0:0,0:0:0:0:
413,285,75691,5,0,3:2:0:0:
395,210,75858,1,0,0:0:0:0:
140,363,76024,101,0,0:0:0:0:
486,261,76191,1,0,0:0:0:0:
318,369,76358,6,0,L|337:316,1,56.2500021457673,0|0,3:2|0:0,0:0:0:0:
307,245,76524,2,0,L|253:226,1,56.2500021457673,0|0,0:0|0:0,0:0:0:0:
0,154,76691,1,8,0:2:0:0:
0,154,76858,1,0,0:0:0:0:
202,147,77024,102,0,B|157:196|166:274|166:274|136:203|77:176,1,269.999991760254,0|0,3:2|0:0,0:0:0:0:
284,173,77358,6,0,B|368:161|340:40|279:-31|84:-10|59:59|99:163|148:119|153:42,1,446.250008511543,0|0,3:2|0:0,0:0:0:0:
78,177,77691,2,0,B|97:198|97:198|195:175|195:175|202:148,1,157.499995193482,0|0,0:0|3:2,0:0:0:0:
182,364,78024,102,0,P|192:347|186:366,1,56.2500021457673,8|0,0:2|0:0,0:0:0:0:
12,11,78191,6,0,P|107:36|165:55,1,146.249993305207
152,50,78358,2,0,P|122:86|132:120,1,56.2500021457673,0|0,3:2|0:0,0:0:0:0:
168,275,78524,1,0,0:0:0:0:
43,97,78691,102,0,L|39:112,1,9.375
36,95,78774,2,0,L|32:110,1,9.375,0|0,0:0|0:0,0:0:0:0:
29,93,78858,2,0,L|25:108,1,9.375,0|0,0:0|0:0,0:0:0:0:
0,171,78941,6,0,L|14:203,1,18.75
74,225,79024,102,0,L|143:206,1,56.2500021457673,0|0,3:2|0:0,0:0:0:0:
422,263,79191,2,0,P|353:261|312:196,1,134.999995880127,0|0,0:0|0:0,0:0:0:0:
369,98,79358,6,0,B|426:131|501:55|421:-47|292:-100|201:18|327:45|260:125|260:125|266:127|266:127|226:259|122:139|34:293|217:472|335:442|302:219|175:235,1,900,10|0,0:2|0:0,0:0:0:0:
0,352,80024,102,0,B|20:388|20:388|120:360,1,127.50000243187,0|0,3:2|0:0,0:0:0:0:
498,273,80191,2,0,L|518:218,1,41.2500012588501,0|0,0:0|0:0,0:0:0:0:
186,102,80358,1,0,0:0:0:0:
332,91,80524,6,0,B|299:125|297:186|297:186|280:143|241:124,1,168.750006437302,0|0,3:2|0:0,0:0:0:0:
10,164,80691,2,0,B|331:86|11:167|331:89,2,330.000010070801,8|0|0,0:2|0:0|3:2,0:0:0:0:
161,258,81191,102,0,P|202:247|217:206,1,89.9999972534181
10,164,81358,6,0,B|72:144|97:90|97:90|81:149|113:192,1,225
18,322,81524,2,0,L|10:346,1,26.2499991989136,0|0,0:0|0:0,0:0:0:0:
44,242,81691,102,0,P|31:297|49:244,1,168.750006437302,0|0,3:2|0:0,0:0:0:0:
155,384,82024,2,0,B|95:222|283:290|232:140|232:140|53:193,1,382.500007295609,8|0,0:2|0:0,0:0:0:0:
44,242,82358,6,0,P|182:269|310:325,1,225,0|0,3:2|0:0,0:0:0:0:
260,299,82524,2,0,B|268:348|268:348|230:383,1,95.6250018239022,2|0,0:0|0:0,0:0:0:0:
155,384,82691,102,0,P|119:218|75:56,2,337.500012874604,0|0|0,3:2|0:0|3:2,0:0:0:0:
378,34,83358,2,0,B|265:-43|421:-20|468:68|391:184|337:96,1,255.000004863739,8|0,0:2|0:0,0:0:0:0:
75,56,83691,6,0,P|84:19|122:-5,1,75,0|0,3:2|0:0,0:0:0:0:
291,73,83858,2,0,P|247:82|84:143,1,168.750006437302,0|0,0:0|0:0,0:0:0:0:
54,148,84024,2,0,P|50:167|57:152,1,60,0|0,0:0|0:0,0:0:0:0:
114,242,85024,102,0,B|150:254|183:289|183:289|186:242|206:207,1,168.750006437302,2|0,0:2|0:0,0:0:0:0:
19,67,85191,6,0,B|59:53|97:13|97:13|100:67|122:104,1,191.250003647804,2|0,0:2|0:0,0:0:0:0:
294,228,85358,21,0,3:2:0:0:
206,209,85524,1,0,0:0:0:0:
181,25,85691,5,0,0:0:0:0:
265,6,85858,1,0,3:2:0:0:
476,185,86024,101,8,0:2:0:0:
21,123,86191,1,0,0:0:0:0:
39,32,86358,5,0,3:2:0:0:
481,95,86524,1,0,0:0:0:0:
33,144,86691,101,0,0:0:0:0:
260,31,86858,1,0,3:2:0:0:
399,136,87024,1,0,3:2:0:0:
342,191,87191,1,0,0:0:0:0:
14,241,87358,5,8,0:2:0:0:
322,113,87524,1,0,0:0:0:0:
512,267,87691,2,0,B|466:483|177:402|292:172|446:351,1,450,2|0,3:2|0:0,0:0:0:0:
424,328,88024,101,0,3:2:0:0:
359,13,88191,1,0,0:0:0:0:
44,163,88358,5,0,0:0:0:0:
433,56,88524,1,0,3:2:0:0:
272,160,88691,101,8,0:2:0:0:
60,51,88858,1,0,0:0:0:0:
170,10,89024,5,0,3:2:0:0:
227,72,89191,1,0,0:0:0:0:
77,375,89358,101,0,0:0:0:0:
135,110,89524,1,0,0:0:0:0:
219,309,89691,5,0,3:2:0:0:
248,172,89858,1,0,0:0:0:0:
0,240,90024,101,10,0:2:0:0:
480,380,90191,2,0,P|469:333|383:222,1,150,0|0,0:0|0:0,0:0:0:0:
10,372,90358,6,0,B|106:271|71:115|71:115|92:236|219:269,1,450,0|0,3:2|0:0,0:0:0:0:
55,0,90691,102,0,B|121:-34|281:57|206:161|117:176|143:74|244:105,1,300,0|0,3:2|0:0,0:0:0:0:
0,61,91024,1,0,0:0:0:0:
280,2,91191,1,0,3:2:0:0:
423,98,91358,1,8,0:2:0:0:
405,13,91524,5,0,0:0:0:0:
338,71,91691,1,0,3:2:0:0:
503,28,91858,1,0,0:0:0:0:
206,356,92024,101,0,0:0:0:0:
270,28,92191,1,0,3:2:0:0:
71,117,92358,5,0,3:2:0:0:
105,214,92524,1,0,0:0:0:0:
6,189,92691,101,8,0:2:0:0:
503,28,92858,1,0,0:0:0:0:
0,14,93024,6,0,B|191:31|282:186|282:186|204:136|312:90|223:99,1,450,2|0,3:2|0:0,0:0:0:0:
229,0,93358,102,0,P|197:45|113:184,1,150,0|0,3:2|0:0,0:0:0:0:
69,329,93524,2,0,B|138:243|138:243|4:198|4:198|66:288,1,300
0,384,93858,6,0,P|100:330|343:276,1,300,0|8,3:0|0:0,0:0:0:0:
462,384,94191,102,0,P|430:339|346:200,1,150
511,144,94358,2,0,B|447:95|342:198|513:221|467:126|429:138|425:190|453:165,1,150,0|0,3:0|0:0,0:0:0:0:
312,354,94524,2,0,B|247:350|212:251|307:230|271:306,1,150,0|0,0:0|0:0,0:0:0:0:
21,3,94691,2,0,B|-37:118|88:251|186:169|110:79|19:111,1,300,0|0,0:0|0:0,0:0:0:0:
0,384,95024,6,0,P|100:330|343:276,1,300,0|0,3:2|0:0,0:0:0:0:
429,382,95358,2,0,P|222:296|3:249,1,450,10|0,0:0|0:0,0:0:0:0:
278,280,95691,102,0,B|240:190|309:101|309:101|257:168|160:158,1,300
1,248,96024,5,0,3:2:0:0:
512,137,96191,1,0,0:0:0:0:
138,105,96358,101,0,0:0:0:0:
275,282,96524,1,0,3:2:0:0:
503,250,96691,2,0,L|146:132,1,300,8|0,0:2|0:0,0:0:0:0:
364,0,97024,6,0,L|434:167,1,150,0|0,3:2|0:0,0:0:0:0:
232,384,97191,2,0,L|388:296,1,150,0|0,0:0|0:0,0:0:0:0:
503,250,97358,101,0,0:0:0:0:
8,94,97524,1,0,3:2:0:0:
261,39,97691,5,0,3:2:0:0:
183,240,97858,1,0,0:0:0:0:
5,10,98024,102,0,P|75:6|116:148,1,150,8|0,0:2|0:0,0:0:0:0:
364,0,98191,2,0,P|368:70|226:111,1,150,0|0,0:0|0:0,0:0:0:0:
183,240,98358,2,0,B|271:213|328:69|225:-5|225:-5|173:182,1,450,2|0,3:2|0:0,0:0:0:0:
9,380,98691,6,0,P|168:289|486:235,1,450,0|0,3:2|0:0,0:0:0:0:
447,240,99024,1,0,0:0:0:0:
22,91,99191,2,0,L|99:259,1,150,0|0,3:0|0:0,0:0:0:0:
512,384,99358,102,0,L|344:307,1,150,8|0,0:0|0:0,0:0:0:0:
183,240,99524,1,0,0:0:0:0:
512,176,99691,6,0,B|464:114|464:114|340:163,1,150,0|0,3:0|0:0,0:0:0:0:
10,350,99858,2,0,B|76:376|76:376|124:314,1,150
193,0,100024,101,0,0:0:0:0:
269,384,100191,1,0,0:0:0:0:
22,91,100358,5,0,3:0:0:0:
270,33,100524,1,0,0:0:0:0:
5,10,100691,102,0,B|81:0|81:0|136:120,1,150,10|0,0:0|0:0,0:0:0:0:
364,0,100858,6,0,B|374:76|374:76|254:131,1,150,0|0,0:0|0:0,0:0:0:0:
177,214,101024,2,0,B|57:127|57:127|244:37|244:37|148:176,1,450,0|0,3:2|0:0,0:0:0:0:
0,301,101358,102,0,L|549:115,1,450,0|0,3:2|0:0,0:0:0:0:
482,238,101691,5,0,0:0:0:0:
190,114,101858,1,0,3:2:0:0:
448,154,102024,101,8,0:2:0:0:
393,376,102191,1,0,0:0:0:0:
84,337,102358,5,0,3:2:0:0:
72,244,102524,1,0,0:0:0:0:
0,301,102691,101,0,0:0:0:0:
494,253,102858,1,0,3:2:0:0:
101,356,103024,5,0,3:2:0:0:
264,38,103191,1,0,0:0:0:0:
512,0,103358,2,0,L|328:85,1,150,8|0,0:2|0:0,0:0:0:0:
0,228,103524,102,0,L|136:165,1,150
21,371,103691,2,0,B|115:403|167:315|93:152|328:263,1,300,0|2,3:0|0:0,0:0:0:0:
424,189,103941,5,0,0:0:0:0:
440,176,104024,2,0,P|500:173|436:243,1,150,0|0,3:2|0:0,0:0:0:0:
110,377,104191,2,0,P|270:316|492:368,1,300,0|0,0:0|0:0,0:0:0:0:
484,382,104524,102,0,B|342:292|425:148|496:167|577:244|435:308,1,300,0|8,3:2|0:2,0:0:0:0:
247,184,104858,2,0,P|295:161|323:240,1,150,0|0,0:0|0:0,0:0:0:0:
484,382,105024,5,0,3:2:0:0:
364,37,105191,1,0,0:0:0:0:
437,67,105358,101,0,0:0:0:0:
109,184,105524,1,0,0:0:0:0:
284,10,105691,5,0,3:2:0:0:
267,38,105774,1,0,0:0:0:0:
283,63,105858,1,0,0:0:0:0:
0,0,106024,102,0,P|137:44|298:254,1,300,0|0,0:2|0:0,0:0:0:0:
254,168,106358,5,0,3:2:0:0:
40,70,106691,85,0,3:2:0:0:
1,3,106858,2,0,B|11:3|11:3|41:128,1,75,0|0,0:0|0:0,0:0:0:0:
214,197,107024,38,0,B|92:168|92:168|115:56|133:113|251:62|180:-47,1,337.500012874604
87,0,107191,70,0,L|127:13,1,41.2500012588501,0|0,3:2|0:0,0:0:0:0:
455,309,107358,2,0,B|493:316|507:372|507:372|530:322|492:199|343:185|343:185|419:285|310:380,1,539.999983520508,8|0,0:2|0:0,0:0:0:0:
272,315,107608,1,0,0:0:0:0:
272,315,107691,38,0,B|252:271|252:271|313:233,1,86.2500016450882,0|0,3:2|0:0,0:0:0:0:
512,143,107858,70,0,L|489:154,1,18.75
150,295,108024,1,0,0:0:0:0:
150,295,108191,38,0,P|141:239|96:218,1,89.9999972534181,0|0,3:2|0:0,0:0:0:0:
53,154,108358,2,0,B|-21:164|-21:164|372:256|372:256|399:126|271:90|271:90|362:149|276:252,1,787.500007510185,0|0,3:2|0:0,0:0:0:0:
302,376,108691,70,0,B|310:363|310:363|269:187,1,131.250001251698,8|0,0:2|0:0,0:0:0:0:
408,0,108858,38,0,P|375:52|324:49,1,65.6250006258488
512,89,108941,2,0,P|450:82|433:46,1,65.6250006258488,0|0,0:0|0:0,0:0:0:0:
164,20,109024,70,0,L|476:87,1,292.499986610413,0|0,3:2|0:0,0:0:0:0:
487,13,109191,38,0,L|491:0,1,11.2499996566773,2|0,0:0|0:0,0:0:0:0:
435,347,109358,1,0,3:2:0:0:
437,271,109524,70,0,B|424:286|424:286|445:356,1,75
512,384,109691,2,0,B|215:324|215:324|352:340|366:242,1,450,0|0,0:0|0:0,0:0:0:0:
321,194,109858,38,0,P|281:238|289:265,1,75,0|0,3:0|0:0,0:0:0:0:
437,271,110024,70,0,P|396:139|228:168,1,262.500002503395,8|0,0:2|0:0,0:0:0:0:
1,344,110191,1,0,0:0:0:0:
250,51,110358,38,0,P|208:115|244:174,1,112.500004291535,0|0,3:0|0:0,0:0:0:0:
508,305,110524,2,0,L|245:239,1,232.500001773834,0|0,0:0|0:0,0:0:0:0:
214,222,110691,69,0,0:0:0:0:
214,222,111024,38,0,L|140:240,1,75,0|0,3:2|0:0,0:0:0:0:
101,42,111191,70,0,L|96:13,1,22.4999993133545
173,338,111358,38,0,B|6:379|6:379|-25:299|-20:202|169:181|88:18,1,525.00000500679,10|0,0:0|0:0,0:0:0:0:
28,0,111608,1,0,0:0:0:0:
18,6,111691,70,0,P|-14:65|37:133,1,134.999995880127,0|0,3:2|0:0,0:0:0:0:
256,322,111858,1,0,0:0:0:0:
412,17,112024,37,0,3:2:0:0:
490,29,112191,2,0,P|471:41|408:12,1,75,0|0,0:0|0:0,0:0:0:0:
196,40,112358,70,0,P|196:95|216:13,1,337.500012874604
285,0,112524,38,0,P|210:35|261:121,1,150,0|0,3:2|0:0,0:0:0:0:
328,381,112691,2,0,B|453:416|453:416|540:259|321:285|421:80,1,450.000017166138,8|0,0:2|0:0,0:0:0:0:
503,129,112941,1,0,0:0:0:0:
510,136,113024,70,0,P|497:184|457:210,1,75,0|0,3:2|0:0,0:0:0:0:
202,325,113191,2,0,L|491:270,1,225.000008583069,0|0,0:0|0:0,0:0:0:0:
501,277,113358,37,0,0:0:0:0:
501,277,113524,70,0,L|513:334,1,56.2500021457673,0|0,3:2|0:0,0:0:0:0:
227,0,113691,2,0,B|261:90|157:136|157:136|248:102|234:5|306:88|310:19|481:40|525:233|392:387|156:199|303:38|307:78,1,675.000025749207,0|0,3:2|0:0,0:0:0:0:
117,72,114024,38,0,B|119:37|88:16|88:16|118:32|174:0,1,131.250001251698,8|0,0:2|0:0,0:0:0:0:
284,139,114191,2,0,P|322:129|366:158,1,56.2500021457673,0|0,0:0|0:0,0:0:0:0:
363,58,114274,2,0,P|408:106|406:141,1,56.2500021457673,0|0,0:0|0:0,0:0:0:0:
501,198,114358,70,0,L|242:128,1,225.000008583069,0|0,3:2|0:0,0:0:0:0:
200,120,114524,37,2,0:0:0:0:
512,318,114691,70,0,P|441:358|437:417,1,112.500004291535,0|0,3:2|0:0,0:0:0:0:
170,244,114858,1,0,0:0:0:0:
512,317,115024,38,0,B|239:278|239:278|216:308|184:317|184:317|212:301|300:321,1,393.750003755093
433,383,115191,70,0,B|440:377|440:377|425:311,1,56.2500021457673,0|0,3:0|0:0,0:0:0:0:
170,244,115358,38,0,L|-9:219,1,150,8|0,0:0|0:0,0:0:0:0:
512,318,115524,1,0,0:0:0:0:
233,310,115691,70,0,P|253:266|232:228,1,75,0|0,3:0|0:0,0:0:0:0:
512,318,115858,37,0,0:0:0:0:
512,318,116024,1,0,0:0:0:0:
512,318,116191,1,0,0:0:0:0:
454,257,116358,69,0,3:0:0:0:
454,257,116441,1,0,0:0:0:0:
454,257,116524,1,0,0:0:0:0:
383,204,116691,38,0,B|373:164|317:135|317:135|522:149|513:377,1,393.750003755093,10|0,0:0|0:0,0:0:0:0:
506,201,116858,70,0,L|516:168,1,33.7499989700318
511,317,117024,38,0,B|467:354|467:354|395:319,1,112.500004291535,0|0,3:2|0:0,0:0:0:0:
512,89,117191,1,0,0:0:0:0:
511,317,117358,53,0,3:2:0:0:
383,204,117524,2,0,L|411:94,1,75,0|0,0:0|0:0,0:0:0:0:
114,308,117691,102,0,B|159:317|174:361|174:361|166:315|199:285,1,168.750006437302
256,347,117858,2,0,B|263:361|263:361|345:381,1,56.2500021457673,0|0,3:2|0:0,0:0:0:0:
138,228,118024,6,0,B|2:191|71:-17|293:-4|167:145|59:125,1,382.500007295609,8|0,0:2|0:0,0:0:0:0:
17,67,118358,2,0,P|5:55|8:13,1,33.7499989700318,0|0,3:2|0:0,0:0:0:0:
205,166,118524,2,0,P|220:172|257:152,1,33.7499989700318,0|0,0:0|0:0,0:0:0:0:
98,384,118691,101,0,0:0:0:0:
192,9,118858,2,0,L|138:228,1,225,0|0,3:2|0:0,0:0:0:0:
248,375,119024,6,0,B|132:140|71:373|-22:103|-22:103|100:132,1,510.000009727478,0|8,3:2|0:2,0:0:0:0:
104,362,119524,2,0,P|115:339|109:365,1,75,0|0,0:0|0:0,0:0:0:0:
269,97,119691,102,0,B|396:79|396:79|322:295|106:85|-7:388,1,656.25,2|0,3:2|0:0,0:0:0:0:
104,362,120024,5,0,3:2:0:0:
12,201,120191,2,0,B|6:160|6:160|60:119,1,75,0|0,0:0|0:0,0:0:0:0:
216,0,120358,102,0,B|176:36|184:99|184:99|165:72|137:67,1,168.750006437302
116,148,120524,2,0,L|103:213,1,56.2500021457673,0|0,3:2|0:0,0:0:0:0:
60,34,120691,6,0,P|52:13|63:33,1,56.2500021457673,8|0,0:2|0:0,0:0:0:0:
168,259,120858,102,0,B|173:313|173:313|386:355,2,255.000004863739,0|0|0,0:0|3:2|0:0,0:0:0:0:
435,297,121358,6,0,L|447:242,1,33.7499989700318,0|0,0:0|0:0,0:0:0:0:
102,355,121524,1,0,0:0:0:0:
369,351,121691,2,0,B|287:289|298:180|298:180|266:285|175:313,1,382.500007295609,0|0,3:2|0:0,0:0:0:0:
258,364,122024,102,0,P|263:382|260:363,1,56.2500021457673,10|0,0:2|0:0,0:0:0:0:
485,110,122191,2,0,B|483:159|483:159|400:188|400:188|359:146,1,168.750006437302,0|0,0:0|0:0,0:0:0:0:
319,24,122358,2,0,B|324:-2|324:-2|487:42|487:42|501:40|500:40|500:40|493:170|493:170|399:205|399:205|307:111,1,495.000015106202,0|0,3:2|0:0,0:0:0:0:
408,101,122691,5,0,3:2:0:0:
369,351,122858,2,0,B|392:318|392:318|379:266,1,75,0|0,0:0|0:0,0:0:0:0:
171,228,123024,102,0,B|216:218|231:174|231:174|223:220|256:250,1,168.750006437302
313,188,123191,2,0,B|320:174|320:174|402:154,1,56.2500021457673,0|0,3:2|0:0,0:0:0:0:
160,384,123358,6,0,B|108:244|51:363|6:214|6:214|104:177|104:177|82:228,1,382.500007295609,8|0,0:2|0:0,0:0:0:0:
238,91,123691,2,0,P|249:85|240:95,1,33.7499989700318,0|0,3:2|0:0,0:0:0:0:
18,384,123858,2,0,L|70:371,1,33.7499989700318,0|0,0:0|0:0,0:0:0:0:
222,330,124024,101,0,0:0:0:0:
130,29,124191,2,0,B|47:101|47:101|94:218,1,225,0|0,3:2|0:0,0:0:0:0:
400,364,124358,6,0,B|249:45|223:362|132:126|156:-48|452:113|252:211,1,510.000009727478,0|8,3:2|0:2,0:0:0:0:
115,303,124858,2,0,P|126:280|120:306,1,75,0|0,0:0|0:0,0:0:0:0:
426,228,125024,102,0,B|446:178|501:165|501:165|204:241|204:241|223:274|215:313|215:313|317:331|317:331|332:256|314:331|329:255,1,656.25,2|0,3:2|0:0,0:0:0:0:
353,115,125358,5,0,3:2:0:0:
476,342,125524,2,0,B|498:310|498:310|487:267,1,75,0|0,0:0|0:0,0:0:0:0:
16,248,125691,102,0,P|77:318|144:275,1,168.750006437302
99,219,125858,2,0,P|105:206|93:220,1,56.2500021457673,0|0,3:2|0:0,0:0:0:0:
386,383,126024,6,0,L|403:290,1,56.2500021457673,8|0,0:2|0:0,0:0:0:0:
0,384,126191,2,0,P|114:302|256:285,2,255.000004863739,0|0|0,0:0|3:2|0:0,0:0:0:0:
122,126,126691,102,0,L|98:69,1,33.7499989700318
0,384,126858,1,0,0:0:0:0:
382,184,127024,2,0,B|244:180|177:309|177:309|105:297|94:220,1,382.500007295609,0|0,3:2|0:0,0:0:0:0:
24,153,127358,6,0,P|29:171|26:152,1,56.2500021457673,10|0,0:2|0:0,0:0:0:0:
512,64,127524,2,0,B|518:159|396:181|434:96|516:126,1,168.750006437302,0|0,0:0|0:0,0:0:0:0:
391,310,127691,102,0,P|284:179|155:203,1,247.500007553101,0|0,3:2|0:0,0:0:0:0:
434,16,127858,2,0,L|423:58,1,39.3749987983704,0|0,0:0|0:0,0:0:0:0:
425,55,128024,102,0,B|15:127|15:127|118:105|232:38|232:38|309:65|299:165,1,787.500030040742,0|0,3:2|0:0,0:0:0:0:
300,144,128358,6,0,B|296:171|296:171|221:185,1,75,0|0,0:0|0:0,0:0:0:0:
315,0,128524,1,0,3:2:0:0:
164,284,128691,102,0,P|92:339|120:237,1,225.000008583069,8|0,0:2|0:0,0:0:0:0:
82,244,128858,6,0,P|139:260|106:336,1,112.500004291535,0|0,0:0|0:0,0:0:0:0:
0,384,129024,1,0,3:2:0:0:
4,369,129191,1,0,0:0:0:0:
308,282,129358,101,0,0:0:0:0:
401,370,129524,2,0,B|422:346|422:346|428:303,1,75,0|0,3:2|0:0,0:0:0:0:
346,2,129691,6,0,L|275:10,1,56.25,0|0,3:2|0:0,0:0:0:0:
346,2,129858,1,0,0:0:0:0:
7,81,130024,102,0,B|80:70|135:31|135:31|251:52|309:134,1,337.500012874604,8|0,0:2|0:0,0:0:0:0:
327,207,130191,6,0,B|308:219|308:219|276:214|276:214|263:195,1,75,0|0,0:0|0:0,0:0:0:0:
1,0,130358,102,0,B|230:24|230:24|188:225|5:126|72:362|72:362|149:322|149:322|146:226,1,787.500030040742,2|0,3:2|0:0,0:0:0:0:
6,165,130691,5,0,3:2:0:0:
2,175,130858,1,0,0:0:0:0:
321,26,131024,102,0,L|365:278,1,225.000008583069,0|0,0:0|0:0,0:0:0:0:
352,254,131191,6,0,L|345:217,1,37.5,0|0,3:2|0:0,0:0:0:0:
486,24,131358,101,8,0:2:0:0:
424,370,131524,1,0,0:0:0:0:
297,153,131691,5,0,3:2:0:0:
327,141,131774,1,0,0:0:0:0:
365,142,131858,2,0,P|337:165|294:165,1,75,0|0,0:0|0:0,0:0:0:0:
92,123,132024,102,0,L|98:55,1,56.25
99,59,132191,1,0,0:0:0:0:
403,43,132358,6,0,L|131:90,1,225,0|0,3:2|0:0,0:0:0:0:
2,115,132524,1,0,0:0:0:0:
329,384,132691,102,0,B|566:328|566:328|93:245,1,675.000025749207,10|0,0:2|0:0,0:0:0:0:
0,307,133024,6,0,B|16:401|16:401|174:373|63:295|252:262,1,337.500012874604,0|0,3:2|0:0,0:0:0:0:
336,374,133191,101,0,0:0:0:0:
496,51,133358,6,0,P|438:37|356:124,1,168.750006437302,0|0,3:2|0:0,0:0:0:0:
454,182,133524,2,0,L|447:127,1,56.2500021457673,0|0,0:0|0:0,0:0:0:0:
247,348,133691,102,0,P|288:304|257:193,1,131.250001251698
172,53,133858,1,0,3:2:0:0:
484,63,134024,6,0,L|457:225,1,112.500004291535,8|0,0:2|0:0,0:0:0:0:
159,48,134191,1,0,0:0:0:0:
159,48,134358,1,0,3:2:0:0:
321,141,134524,102,0,P|263:127|198:268,1,225.000008583069
331,142,134691,2,0,L|342:78,1,56.2500021457673,0|0,0:0|0:0,0:0:0:0:
273,216,134858,1,0,3:2:0:0:
0,32,135024,6,0,L|11:95,1,56.2500021457673,0|0,3:2|0:0,0:0:0:0:
96,0,135191,2,0,L|84:63,1,56.2500021457673,0|0,0:0|0:0,0:0:0:0:
32,352,135358,102,0,B|-51:272|-51:272|232:322,1,337.500012874604,8|0,0:2|0:0,0:0:0:0:
263,319,135524,6,0,B|221:358|221:358|363:333,1,168.750006437302
512,384,135691,102,0,P|415:307|378:151,1,225,0|0,3:2|0:0,0:0:0:0:
467,46,135858,6,0,P|420:193|102:296,1,450,2|0,0:0|0:0,0:0:0:0:
0,147,136024,101,0,3:2:0:0:
0,147,136191,1,0,0:0:0:0:
130,36,136358,6,0,L|100:245,1,168.750006437302
106,203,136524,1,0,3:2:0:0:
4,68,136691,102,0,L|171:45,1,112.500004291535,8|0,0:2|0:0,0:0:0:0:
512,0,136858,1,0,0:0:0:0:
385,162,137024,6,0,L|301:150,1,56.2500021457673,0|0,3:2|0:0,0:0:0:0:
131,128,137191,1,0,0:0:0:0:
194,208,137358,101,0,0:0:0:0:
321,191,137524,1,0,0:0:0:0:
289,231,137691,5,0,3:2:0:0:
257,226,137774,1,0,0:0:0:0:
226,222,137857,1,0,0:0:0:0:
248,255,138024,102,0,B|261:317|331:338|331:338|292:124|384:35|533:60|589:160|585:280|386:406|427:224,1,787.500030040742,10|0,0:2|0:0,0:0:0:0:
494,20,138358,5,0,3:2:0:0:
494,20,138524,1,0,0:0:0:0:
412,382,138691,21,0,3:2:0:0:
