osu file format v14

[General]
AudioFilename: audio.mp3
AudioLeadIn: 0
PreviewTime: 1636
Countdown: 0
SampleSet: Soft
StackLeniency: 0.7
Mode: 0
LetterboxInBreaks: 0
WidescreenStoryboard: 1

[Editor]
DistanceSpacing: 0.4
BeatDivisor: 3
GridSize: 4
TimelineZoom: 1

[Metadata]
Title:The theme of Taeram
TitleUnicode:태람 테마
Artist:REDDOVE
ArtistUnicode:빨강비둘기
Creator:Chompy
Version:Kyouren's Advanced
Source:함부로 소설 쓰지 맙시다
Tags:Ppalgangbidulgi Thema No Random Novels BL Yaoi Visual Novel VN OST video game soundtrack instrumental Kyouren gokugohan12468 KittyAdventure
BeatmapID:3901016
BeatmapSetID:1893052

[Difficulty]
HPDrainRate:4.5
CircleSize:4.5
OverallDifficulty:5
ApproachRate:6.5
SliderMultiplier:1.28
SliderTickRate:1

[Events]
//Background and Video events
0,0,"novel_steam_XW9Vxkd7WU.png",0,0
//Break Periods
//Storyboard Layer 0 (Background)
//Storyboard Layer 1 (Fail)
//Storyboard Layer 2 (Pass)
//Storyboard Layer 3 (Foreground)
//Storyboard Layer 4 (Overlay)
//Storyboard Sound Samples

[TimingPoints]
-160,468.75,4,2,1,55,1,0
16715,-100,4,2,2,55,0,0
16871,-100,4,2,1,55,0,0
18121,-100,4,2,2,55,0,0
19058,-100,4,2,1,55,0,0
20465,-100,4,2,2,55,0,0
20621,-100,4,2,1,55,0,0
21402,-100,4,2,2,55,0,0
21558,-100,4,2,1,55,0,0
22340,-100,4,2,2,55,0,0
22496,-100,4,2,1,55,0,0
23121,-100,4,2,1,5,0,0
23277,-100,4,2,2,55,0,0
23433,-100,4,2,1,55,0,0
23746,-100,4,2,2,55,0,0
23902,-100,4,2,1,55,0,0
24215,-100,4,2,2,55,0,0
24371,-100,4,2,1,55,0,0
25621,-100,4,2,2,55,0,0
25777,-100,4,2,1,55,0,0
26090,-100,4,2,2,55,0,0
26246,-100,4,2,1,55,0,0
27496,-100,4,2,2,55,0,0
28121,-100,4,2,1,55,0,0
30308,-100,4,2,2,55,0,0
31871,-100,4,2,1,55,0,0
33121,-100,4,2,2,55,0,0
33277,-100,4,2,1,55,0,0
33590,-100,4,2,2,55,0,0
33746,-100,4,2,1,55,0,0
34527,-100,4,2,2,55,0,0
34683,-100,4,2,1,55,0,0
35465,-100,4,2,2,55,0,0
35621,-100,4,2,1,55,0,0
36402,-100,4,2,2,55,0,0
36558,-100,4,2,1,55,0,0
37340,-100,4,2,2,55,0,0
37496,-100,4,2,1,55,0,0
38746,-100,4,2,2,55,0,0
38902,-100,4,2,1,55,0,0
39215,-100,4,2,2,55,0,0
39371,-100,4,2,1,55,0,0
40621,-100,4,2,2,55,0,0
41246,-100,4,2,1,55,0,0
42496,-100,4,2,2,55,0,0
43121,-100,4,2,1,55,0,0
44840,-100,4,2,2,55,0,0
44918,-100,4,2,1,55,0,0
46715,-100,4,2,2,55,0,0
46871,-100,4,2,1,55,0,0
48590,-100,4,2,2,55,0,0
48746,-100,4,2,1,55,0,0
50465,-100,4,2,2,55,0,0
50621,-100,4,2,1,55,0,0
51871,-100,4,2,2,55,0,0
52027,-100,4,2,1,55,0,0
52340,-100,4,2,2,55,0,0
52496,-100,4,2,1,55,0,0
53277,-100,4,2,2,55,0,0
53433,-100,4,2,1,55,0,0
54215,-100,4,2,2,55,0,0
54371,-100,4,2,1,55,0,0
56090,-100,4,2,2,55,0,0
56246,-100,4,2,1,55,0,0
57027,-100,4,2,2,55,0,0
57183,-100,4,2,1,55,0,0
57965,-100,4,2,2,55,0,0
58121,-100,4,2,1,55,0,0
59215,-100,4,2,2,55,0,0
59371,-100,4,2,1,55,0,0
59840,-100,4,2,2,55,0,0
59996,-100,4,2,1,55,0,0
60621,-100,4,2,2,55,0,0
60777,-100,4,2,2,55,0,0
60855,-100,4,2,1,50,0,0
60933,-100,4,2,1,45,0,0
61011,-100,4,2,1,40,0,0
61090,-100,4,2,1,35,0,0
61168,-100,4,2,1,30,0,0
61246,-100,4,2,1,25,0,0
61324,-100,4,2,1,20,0,0
61402,-100,4,2,1,15,0,0
61715,-100,4,2,1,10,0,0
62183,-100,4,2,1,5,0,0
62652,-100,4,2,3,5,0,0

[Colours]
Combo1 : 218,216,207
Combo2 : 241,107,111

[HitObjects]
35,230,152,6,0,L|41:187,1,42.6666666666667,0|0,2:0|2:0,0:0:0:0:
15,115,777,1,0,2:0:0:0:
65,55,1246,1,0,2:0:0:0:
145,60,1715,6,0,B|214:67|199:89|266:96,2,128,2|0|0,2:0|2:0|2:0,2:0:0:0:
65,55,2965,2,0,P|54:36|40:20,1,42.6666666666667,2|2,2:0|2:0,0:0:0:0:
18,118,3433,1,2,2:0:0:0:
18,118,3590,2,0,P|14:181|-1:243,1,128,2|2,2:0|2:0,0:0:0:0:
40,330,4527,2,0,P|104:335|166:350,1,128,2|2,2:0|2:0,0:0:0:0:
240,290,5465,6,0,P|244:227|259:165,2,128,2|0|0,2:0|2:0|2:0,2:0:0:0:
295,345,6715,2,0,P|316:347|337:351,1,42.6666666666667,2|2,2:0|2:0,0:0:0:0:
378,278,7183,1,2,2:0:0:0:
378,278,7340,2,0,P|438:260|502:267,1,128,0|0,2:0|2:0,2:0:0:0:
495,160,8277,2,0,P|434:178|370:171,1,128,0|0,2:0|2:0,0:0:0:0:
300,130,9215,6,0,P|310:66|312:2,2,128,2|0|0,2:0|2:0|2:0,2:0:0:0:
250,190,10465,2,0,L|246:232,1,42.6666666666667,2|2,2:0|2:0,0:0:0:0:
173,153,10933,1,2,2:0:0:0:
173,153,11090,2,0,P|112:134|48:142,1,128,2|2,2:0|2:0,0:0:0:0:
45,230,12027,2,0,P|106:249|170:241,1,128,2|2,2:0|2:0,0:0:0:0:
240,300,12965,6,0,P|301:281|365:289,2,128,2|0|0,2:0|2:0|2:0,2:0:0:0:
170,335,14215,2,0,L|178:376,1,42.6666666666667,2|2,2:0|2:0,0:0:0:0:
98,308,14683,1,2,2:0:0:0:
98,308,14840,2,0,P|110:245|98:182,1,128,0|0,2:0|2:0,2:0:0:0:
160,115,15777,2,0,P|222:127|285:115,1,128,0|10,2:0|2:0,0:0:0:0:
355,55,16715,6,0,P|386:82|428:88,1,85.3333333333333,2|2,2:2|2:0,0:0:0:0:
435,85,17183,2,0,P|438:127|463:160,1,85.3333333333333,2|2,2:0|2:0,0:0:0:0:
470,165,17652,2,0,P|432:215|434:278,1,128,2|10,2:0|2:2,0:0:0:0:
485,350,18590,2,0,B|451:309|355:287|353:350|316:364|246:357,1,256,2|0,2:2|2:0,2:0:0:0:
185,310,19840,2,0,L|143:317,1,42.6666666666667,2|10,2:0|2:0,0:0:0:0:
228,243,20308,1,2,2:0:0:0:
228,243,20465,6,0,P|205:186|145:176,1,128,2|2,2:2|2:0,0:0:0:0:
60,130,21402,1,2,2:2:0:0:
100,65,21715,2,0,P|94:44|88:24,1,42.6666666666667,2|10,2:0|2:0,0:0:0:0:
178,88,22183,1,2,2:0:0:0:
178,88,22340,6,0,P|220:81|262:77,1,85.3333333333333,2|2,2:2|2:0,0:0:0:0:
270,70,22808,2,0,P|301:121|367:121,1,128,0|2,0:0|2:2,0:0:0:0:
430,160,23590,2,0,L|472:167,1,42.6666666666667,2|10,2:0|2:2,0:0:0:0:
383,228,24058,1,2,2:0:0:0:
383,228,24215,6,0,B|337:216|307:227|262:249|263:285|298:309|332:283|332:249|290:227|256:211|213:229,1,256,2|0,2:2|2:0,2:0:0:0:
155,180,25465,2,0,L|113:190,1,42.6666666666667,2|10,2:0|2:2,0:0:0:0:
193,103,25933,1,2,2:0:0:0:
193,103,26090,2,4,P|162:50|103:61,1,128,2|2,2:0|2:0,2:2:0:0:
35,110,27027,2,0,P|51:171|55:235,1,128,2|10,2:0|2:2,2:0:0:0:
5,310,27965,6,0,P|172:227|350:285,1,384,2|8,2:2|2:0,0:0:0:0:
430,245,29840,2,0,P|432:202|441:160,1,85.3333333333333,0|2,2:0|2:0,0:0:0:0:
447,153,30308,2,0,P|384:166|320:165,2,128,2|2|10,2:2|2:2|2:2,0:0:0:0:
490,75,31715,6,0,P|366:49|254:105,1,256,2|0,2:2|2:0,2:0:0:0:
180,130,32965,2,0,P|171:149|171:170,1,42.6666666666667,2|10,2:0|2:2,0:0:0:0:
123,68,33433,1,2,2:0:0:0:
123,68,33590,2,0,P|63:80|45:139,1,128,2|2,2:2|2:0,2:0:0:0:
5,230,34527,2,0,P|26:266|41:306,1,85.3333333333333,2|0,2:2|2:0,2:0:0:0:
41,306,34996,1,10,2:0:0:0:
128,263,35308,5,0,0:0:0:0:
128,263,35465,6,0,B|195:269|181:301|245:307,1,128,2|10,2:2|2:0,0:0:0:0:
225,215,36402,2,0,P|219:172|211:130,1,85.3333333333333,2|2,2:2|2:0,0:0:0:0:
211,130,36871,1,8,2:0:0:0:
303,183,37183,1,2,2:0:0:0:
303,183,37340,2,0,P|423:175|457:60,1,256,2|0,2:2|2:0,2:0:0:0:
395,15,38590,2,0,L|353:22,1,42.6666666666667,2|10,2:0|2:2,0:0:0:0:
273,58,39058,1,2,2:0:0:0:
273,58,39215,6,4,P|211:42|147:49,1,128,2|10,2:2|2:0,2:2:0:0:
85,105,40152,2,0,P|69:166|76:230,1,128,2|10,2:0|2:2,0:0:0:0:
135,295,41090,2,0,P|196:310|260:303,2,128,2|10|2,2:2|2:0|2:0,2:0:0:0:
75,355,42496,1,10,2:2:0:0:
20,290,42965,2,0,P|35:228|28:164,1,128,2|8,2:2|2:0,0:0:0:0:
100,100,43902,2,0,P|141:107|183:99,1,85.3333333333333,0|2,2:0|2:0,0:0:0:0:
183,98,44371,1,10,2:0:0:0:
300,70,44840,6,0,P|465:28|495:197,1,384,2|2,2:2|2:0,2:0:0:0:
510,290,46715,6,0,B|367:279|441:193|288:181,1,256,2|0,2:2|2:0,2:0:0:0:
230,230,47965,2,0,P|211:220|196:204,1,42.6666666666667,2|10,2:0|2:0,0:0:0:0:
273,303,48433,1,2,2:0:0:0:
273,303,48590,2,0,P|210:315|147:329,1,128,2|10,2:2|2:0,0:0:0:0:
70,370,49527,2,0,P|22:331|33:271,1,128,2|10,2:0|2:0,0:0:0:0:
0,200,50465,6,0,P|115:220|152:109,1,256,2|0,2:2|2:0,2:0:0:0:
200,50,51715,2,0,L|204:7,1,42.6666666666667,2|10,2:0|2:2,0:0:0:0:
278,83,52183,1,2,2:0:0:0:
278,83,52340,2,0,P|341:73|404:69,1,128,2|10,2:2|2:0,0:0:0:0:
460,140,53277,2,0,P|470:203|474:266,1,128,2|10,2:2|2:2,0:0:0:0:
415,335,54215,6,0,B|272:324|346:238|193:226,1,256,2|0,2:2|2:0,2:0:0:0:
135,280,55465,2,0,P|129:300|125:321,1,42.6666666666667,2|10,2:0|2:0,0:0:0:0:
63,238,55933,1,2,2:0:0:0:
63,238,56090,2,0,P|56:174|43:111,1,128,2|10,2:2|2:0,2:0:0:0:
100,40,57027,2,0,P|163:33|226:20,1,128,2|10,2:2|2:0,2:0:0:0:
310,50,57965,6,0,P|426:53|437:169,1,256,2|0,2:2|2:0,2:0:0:0:
385,230,59215,2,0,P|363:227|344:218,1,42.6666666666667,2|8,2:2|2:0,0:0:0:0:
430,320,59840,2,0,P|376:353|313:347,1,128,2|8,2:2|2:0,0:0:0:0:
255,275,60777,5,2,2:2:0:0:
256,192,60855,12,0,62652,2:0:0:0:
