osu file format v14

[General]
AudioFilename: audio.mp3
AudioLeadIn: 0
PreviewTime: 1636
Countdown: 0
SampleSet: Soft
StackLeniency: 0.7
Mode: 0
LetterboxInBreaks: 0
WidescreenStoryboard: 1

[Editor]
DistanceSpacing: 1
BeatDivisor: 3
GridSize: 4
TimelineZoom: 1

[Metadata]
Title:The theme of Taeram
TitleUnicode:태람 테마
Artist:REDDOVE
ArtistUnicode:빨강비둘기
Creator:Chompy
Version:Easy
Source:함부로 소설 쓰지 맙시다
Tags:Ppalgangbidulgi Thema No Random Novels BL Yaoi Visual Novel VN OST video game soundtrack instrumental Kyouren gokugohan12468 KittyAdventure
BeatmapID:3900960
BeatmapSetID:1893052

[Difficulty]
HPDrainRate:2.5
CircleSize:2.5
OverallDifficulty:2.5
ApproachRate:3.5
SliderMultiplier:0.9
SliderTickRate:1

[Events]
//Background and Video events
0,0,"CG_02.png",0,0
//Break Periods
//Storyboard Layer 0 (Background)
//Storyboard Layer 1 (Fail)
//Storyboard Layer 2 (Pass)
//Storyboard Layer 3 (Foreground)
//Storyboard Layer 4 (Overlay)
//Storyboard Sound Samples

[TimingPoints]
-160,468.75,4,2,1,55,1,0
16715,-100,4,2,2,55,0,0
16871,-100,4,2,1,55,0,0
18121,-100,4,2,2,55,0,0
19058,-100,4,2,1,55,0,0
20465,-100,4,2,2,55,0,0
20621,-100,4,2,1,55,0,0
21402,-100,4,2,2,55,0,0
21558,-100,4,2,1,55,0,0
22340,-100,4,2,2,55,0,0
22496,-100,4,2,1,55,0,0
23121,-100,4,2,1,5,0,0
23277,-100,4,2,2,55,0,0
23433,-100,4,2,1,55,0,0
23746,-100,4,2,2,55,0,0
23902,-100,4,2,1,55,0,0
24215,-100,4,2,2,55,0,0
24371,-100,4,2,1,55,0,0
25621,-100,4,2,2,55,0,0
25777,-100,4,2,1,55,0,0
26090,-100,4,2,2,55,0,0
26246,-100,4,2,1,55,0,0
27496,-100,4,2,2,55,0,0
28121,-100,4,2,1,55,0,0
30308,-100,4,2,2,55,0,0
31871,-100,4,2,1,55,0,0
33121,-100,4,2,2,55,0,0
33277,-100,4,2,1,55,0,0
33590,-100,4,2,2,55,0,0
33746,-100,4,2,1,55,0,0
34527,-100,4,2,2,55,0,0
34683,-100,4,2,1,55,0,0
35465,-100,4,2,2,55,0,0
35621,-100,4,2,1,55,0,0
36402,-100,4,2,2,55,0,0
36558,-100,4,2,1,55,0,0
37340,-100,4,2,2,55,0,0
37496,-100,4,2,1,55,0,0
38746,-100,4,2,2,55,0,0
38902,-100,4,2,1,55,0,0
39215,-100,4,2,2,55,0,0
39371,-100,4,2,1,55,0,0
40621,-100,4,2,2,55,0,0
41246,-100,4,2,1,55,0,0
42496,-100,4,2,2,55,0,0
43121,-100,4,2,1,55,0,0
44840,-100,4,2,2,55,0,0
44918,-100,4,2,1,55,0,0
46715,-100,4,2,2,55,0,0
46871,-100,4,2,1,55,0,0
48590,-100,4,2,2,55,0,0
48746,-100,4,2,1,55,0,0
50465,-100,4,2,2,55,0,0
50621,-100,4,2,1,55,0,0
51871,-100,4,2,2,55,0,0
52027,-100,4,2,1,55,0,0
52340,-100,4,2,2,55,0,0
52496,-100,4,2,1,55,0,0
53277,-100,4,2,2,55,0,0
53433,-100,4,2,1,55,0,0
54215,-100,4,2,2,55,0,0
54371,-100,4,2,1,55,0,0
56090,-100,4,2,2,55,0,0
56246,-100,4,2,1,55,0,0
57027,-100,4,2,2,55,0,0
57183,-100,4,2,1,55,0,0
57965,-100,4,2,2,55,0,0
58121,-100,4,2,1,55,0,0
59215,-100,4,2,2,55,0,0
59371,-100,4,2,1,55,0,0
59840,-100,4,2,2,55,0,0
59996,-100,4,2,1,55,0,0
60621,-100,4,2,2,55,0,0
60777,-100,4,2,2,55,0,0
60855,-100,4,2,1,50,0,0
60933,-100,4,2,1,45,0,0
61011,-100,4,2,1,40,0,0
61090,-100,4,2,1,35,0,0
61168,-100,4,2,1,30,0,0
61246,-100,4,2,1,25,0,0
61324,-100,4,2,1,20,0,0
61402,-100,4,2,1,15,0,0
61715,-100,4,2,1,10,0,0
62183,-100,4,2,1,5,0,0
62652,-100,4,2,3,5,0,0

[Colours]
Combo1 : 218,216,207
Combo2 : 248,221,139

[HitObjects]
62,375,308,5,0,2:0:0:0:
18,295,777,1,0,2:0:0:0:
43,207,1246,1,0,2:0:0:0:
122,162,1715,6,0,B|174:152|212:174|202:195|242:216|293:204,1,180,2|0,2:0|2:0,2:0:0:0:
269,116,3121,1,2,2:0:0:0:
323,43,3590,2,0,P|364:29|406:41,1,90,2|2,2:0|2:0,0:0:0:0:
479,95,4527,1,2,2:0:0:0:
484,274,5465,6,0,P|433:343|347:335,1,180,2|0,2:0|2:0,2:0:0:0:
278,276,6871,1,2,2:0:0:0:
204,325,7340,1,0,2:0:0:0:
57,220,8277,1,0,2:0:0:0:
110,47,9215,6,0,P|195:24|267:73,1,180,2|0,2:0|2:0,2:0:0:0:
312,151,10621,1,2,2:0:0:0:
277,233,11090,2,0,P|267:275|287:319,1,90,2|2,2:0|2:0,0:0:0:0:
364,357,12027,1,2,2:0:0:0:
498,237,12965,6,0,B|494:187|461:157|461:157|489:122|488:72,1,180,2|0,2:0|2:0,2:0:0:0:
417,16,14371,1,2,2:0:0:0:
332,47,14840,1,0,2:0:0:0:
77,140,16246,1,10,2:0:0:0:
162,109,16715,5,2,2:2:0:0:
244,147,17183,1,2,2:0:0:0:
275,231,17652,1,2,2:0:0:0:
237,312,18121,1,10,2:2:0:0:
152,342,18590,2,0,P|63:332|21:255,1,180,2|0,2:2|2:0,2:0:0:0:
65,180,19996,1,10,2:0:0:0:
118,252,20465,5,2,2:2:0:0:
207,242,20933,1,2,2:0:0:0:
296,232,21402,1,2,2:2:0:0:
438,184,22340,2,0,P|434:126|401:95,1,90,2|0,2:2|0:0,0:0:0:0:
346,44,23277,1,2,2:2:0:0:
254,46,23746,1,10,2:2:0:0:
190,113,24215,6,0,B|162:90|159:54|159:54|102:20|44:71,1,180,2|0,2:2|2:0,2:0:0:0:
29,149,25621,1,10,2:2:0:0:
8,236,26090,1,2,2:0:0:0:
141,356,27027,1,2,2:0:0:0:
211,299,27496,1,10,2:2:0:0:
300,308,27965,6,0,B|352:298|390:320|380:341|420:362|471:350,1,180,2|0,2:2|2:0,0:0:0:0:
444,263,29371,1,8,2:0:0:0:
486,119,30152,2,0,P|453:72|395:64,1,120,2|2,2:0|2:2,0:0:0:0:
325,122,31246,1,10,2:2:0:0:
248,74,31715,6,0,P|162:58|96:119,1,180,2|0,2:2|2:0,2:0:0:0:
70,201,33121,1,10,2:2:0:0:
125,271,33590,1,2,2:2:0:0:
283,185,34527,1,2,2:2:0:0:
459,220,35465,6,0,P|468:262|451:302,1,90,2|10,2:2|2:0,0:0:0:0:
373,351,36402,2,0,P|337:326|293:322,1,90,2|8,2:2|2:0,0:0:0:0:
213,364,37340,1,2,2:2:0:0:
5,191,38746,1,10,2:2:0:0:
55,116,39215,6,4,P|91:91|136:92,1,90,2|10,2:2|2:0,2:2:0:0:
209,143,40152,1,2,2:0:0:0:
311,291,41090,2,0,L|421:280,1,90,2|10,2:2|2:0,2:0:0:0:
460,215,42027,1,2,2:0:0:0:
373,57,42965,6,0,B|321:47|283:69|293:90|253:111|202:99,1,180,2|0,2:2|2:0,0:0:0:0:
137,40,44371,1,10,2:0:0:0:
55,78,44840,1,2,2:2:0:0:
3,369,46715,6,0,P|58:301|146:298,1,180,2|0,2:2|2:0,2:0:0:0:
217,351,48121,1,10,2:0:0:0:
298,313,48590,1,2,2:2:0:0:
383,340,49058,1,10,2:0:0:0:
464,300,49527,1,2,2:0:0:0:
500,123,50465,6,0,B|446:110|410:145|410:145|325:128,1,180,2|0,2:2|2:0,2:0:0:0:
270,60,51871,1,10,2:2:0:0:
184,89,52340,1,2,2:2:0:0:
29,1,53277,1,2,2:2:0:0:
1,86,53746,1,10,2:2:0:0:
52,161,54215,6,0,B|104:151|142:173|132:194|172:215|223:203,1,180,2|0,2:2|2:0,2:0:0:0:
308,189,55621,1,10,2:0:0:0:
352,110,56090,1,2,2:2:0:0:
510,195,57027,1,2,2:2:0:0:
424,353,57965,6,0,P|364:287|276:288,1,180,2|0,2:2|2:0,2:0:0:0:
204,338,59371,1,8,2:0:0:0:
139,275,59840,2,0,B|132:250|119:235|119:235|129:217|130:191,1,90,2|8,2:2|2:0,0:0:0:0:
256,192,60777,12,0,62652,2:0:0:0:
