osu file format v14

[General]
AudioFilename: audio.mp3
AudioLeadIn: 0
PreviewTime: -1
Countdown: 0
SampleSet: Soft
StackLeniency: 0.4
Mode: 0
LetterboxInBreaks: 0
WidescreenStoryboard: 0

[Editor]
Bookmarks: 7876,11350,11666,17982,21771,26824,28087,29034,31876,36929,44508,47034,57140,60613,67245,76087,77350,87455,92508,96298,97561,117771
DistanceSpacing: 1.9
BeatDivisor: 4
GridSize: 16
TimelineZoom: 2.899999

[Metadata]
Title:Sweet Requiem
TitleUnicode:Sweet Requiem
Artist:REDALiCE/aran
ArtistUnicode:REDALiCE/aran
Creator:rockstarrzz
Version:Insane
Source:
Tags:
BeatmapID:1864988
BeatmapSetID:892132

[Difficulty]
HPDrainRate:5
CircleSize:4
OverallDifficulty:7.5
ApproachRate:9
SliderMultiplier:1.6
SliderTickRate:1

[Events]
//Background and Video events
0,0,"Touhou-Autumn-Leaves-Shameimaru-Aya-and-Inubashiri-Momiji-1920x1200-wide-wallpapers.net.jpg",0,0
//Break Periods
2,21971,26224
2,69971,75487
//Storyboard Layer 0 (Background)
//Storyboard Layer 1 (Fail)
//Storyboard Layer 2 (Pass)
//Storyboard Layer 3 (Foreground)
//Storyboard Sound Samples

[TimingPoints]
298,315.789473684211,4,2,0,40,1,0
6298,-80,4,2,0,40,0,0
6929,-100,4,2,0,30,0,0
11034,-80,4,2,0,30,0,0
11350,-100,4,2,0,30,0,0
15455,-80,4,2,0,40,0,0
15613,-80,4,2,0,5,0,0
15771,-80,4,2,0,40,0,0
15929,-80,4,2,0,5,0,0
16087,-80,4,2,0,40,0,0
16245,-80,4,2,0,5,0,0
16403,-80,4,2,0,40,0,0
16561,-80,4,2,0,5,0,0
16719,-80,4,2,0,40,0,0
17982,-100,4,2,0,40,0,0
19876,-66.6666666666667,4,2,0,50,0,0
21140,-100,4,2,0,40,0,0
27376,-100,4,2,0,5,0,0
28087,-100,4,2,0,40,0,0
29350,-80,4,2,0,40,0,0
31876,-100,4,2,0,40,0,0
36929,-80,4,2,0,40,0,0
38192,-66.6666666666667,4,2,0,40,0,0
41666,-200,4,2,0,25,0,0
41982,-133.333333333333,4,2,0,25,0,0
43245,-100,4,2,0,25,0,0
44508,-80,4,2,0,35,0,0
46403,-133.333333333333,4,2,0,25,0,0
47034,-100,4,2,0,35,0,0
47666,-200,4,2,0,35,0,0
48298,-100,4,2,0,35,0,0
48929,-100,4,2,0,35,0,0
49561,-80,4,2,0,35,0,0
50192,-100,4,2,0,35,0,0
50824,-80,4,2,0,35,0,0
51455,-133.333333333333,4,2,0,35,0,0
52087,-100,4,2,0,35,0,0
52719,-200,4,2,0,35,0,0
53350,-100,4,2,0,35,0,0
55403,-80,4,2,0,35,0,0
55876,-66.6666666666667,4,2,0,35,0,0
57140,-66.6666666666667,4,2,0,50,0,1
63455,-57.1428571428571,4,2,0,50,0,1
64719,-80,4,2,0,50,0,1
67245,-66.6666666666667,4,2,0,60,0,0
69692,-66.6666666666667,4,2,0,5,0,0
77350,-100,4,2,0,40,0,0
86192,-80,4,2,0,40,0,0
87140,-200,4,2,0,10,0,0
87455,-100,4,2,0,40,0,0
88403,-200,4,2,0,10,0,0
88719,-100,4,2,0,40,0,0
89666,-200,4,2,0,10,0,0
89982,-100,4,2,0,40,0,0
90929,-200,4,2,0,10,0,0
91245,-100,4,2,0,40,0,0
92192,-200,4,2,0,10,0,0
92508,-90.9090909090909,4,2,0,40,0,0
93140,-86.9565217391304,4,2,0,45,0,0
93771,-83.3333333333333,4,2,0,50,0,0
94403,-80,4,2,0,55,0,0
95034,-76.9230769230769,4,2,0,60,0,0
95666,-71.4285714285714,4,2,0,65,0,0
96298,-100,4,2,0,50,0,0
97561,-80,4,2,0,50,0,0
100087,-80,4,2,0,50,0,0
107666,-62.5,4,2,0,60,0,1
115245,-80,4,2,0,50,0,1
117771,-133.333333333333,4,2,0,30,0,0
120219,-133.333333333333,4,2,0,5,0,0

[HitObjects]
256,192,298,12,0,1245,0:0:0:0:
93,28,1561,6,0,L|77:124,1,80,0|0,1:0|0:0,0:0:0:0:
176,192,1876,2,0,L|162:113,1,80
256,32,2192,2,0,L|240:128,1,80
336,184,2508,2,0,L|325:104,1,80
480,40,2824,6,0,P|424:48|392:72,1,80
480,155,3140,2,0,P|427:133|387:138,1,80
390,239,3455,2,0,P|355:194|318:178,1,80
280,292,3771,2,0,P|271:236|248:204,1,80
47,331,4087,5,4,3:0:0:0:
47,331,4245,1,4,3:0:0:0:
40,211,4403,2,0,L|31:100,1,80
153,259,4719,2,0,L|162:148,1,80
280,292,5034,2,0,L|271:181,1,80
403,341,5350,6,0,P|469:336|492:317,2,80
405,220,5824,1,0,0:0:0:0:
476,77,5982,2,0,L|490:168,1,80
292,158,6298,6,0,B|161:137|161:137|199:155|229:191,1,200
47,331,6929,6,0,P|30:263|34:220,1,80
144,214,7245,2,0,P|161:146|157:103,1,80
41,115,7561,2,0,P|24:47|28:4,1,80
144,36,7876,6,0,L|195:27,3,40
274,53,8192,2,0,L|313:59,3,40
356,159,8508,2,0,L|316:165,3,40
201,142,8824,2,0,L|161:135,3,40
53,232,9140,5,4,1:0:0:0:
53,232,9298,1,0,0:0:0:0:
171,302,9455,5,4,1:0:0:0:
171,302,9613,1,0,0:0:0:0:
317,302,9771,5,4,1:0:0:0:
317,302,9929,1,0,0:0:0:0:
435,232,10086,5,4,1:0:0:0:
435,232,10244,1,0,0:0:0:0:
294,119,10403,5,4,3:0:0:0:
295,145,10481,1,4,3:0:0:0:
296,172,10560,1,4,3:0:0:0:
297,198,10639,1,4,3:0:0:0:
321,223,10719,5,4,3:0:0:0:
319,249,10797,1,4,3:0:0:0:
318,276,10876,1,4,3:0:0:0:
317,302,10955,1,4,3:0:0:0:
305,330,11034,2,0,B|245:309|192:341,1,100
41,293,11350,5,4,2:0:0:0:
53,259,11428,1,4,2:0:0:0:
79,234,11507,1,4,2:0:0:0:
113,220,11586,1,4,2:0:0:0:
146,222,11666,6,0,L|140:121,1,80
335,143,11982,2,0,L|330:222,1,80
234,152,12298,2,0,L|228:51,1,80
430,72,12614,2,0,L|425:151,1,80
151,71,12929,6,0,P|222:69|252:86,1,80
345,243,13245,2,0,P|274:245|244:228,1,80
156,151,13561,2,0,P|227:149|257:166,1,80
350,323,13877,2,0,P|279:325|249:308,1,80
416,168,14192,5,4,2:0:0:0:
417,187,14270,1,4,2:0:0:0:
418,207,14349,1,4,2:0:0:0:
419,227,14428,1,4,2:0:0:0:
423,267,14508,2,0,L|512:277,2,80
231,217,14982,1,0,0:0:0:0:
128,160,15140,2,0,P|165:116|217:99,1,80
344,336,15455,6,0,B|350:278|350:278|337:244|337:244|343:188,1,150,2|0,2:0|0:0,0:0:0:0:
295,74,15771,2,0,B|289:129|289:129|269:159|269:159|263:217,1,150,2|0,2:0|0:0,0:0:0:0:
196,323,16087,2,0,B|202:265|202:265|189:231|189:231|195:175,1,150,2|0,2:0|0:0,0:0:0:0:
147,60,16403,2,0,B|141:115|141:115|121:145|121:145|115:203,1,150,2|0,2:0|0:0,0:0:0:0:
112,304,16719,5,6,1:0:0:0:
112,304,16876,1,0,0:0:0:0:
263,217,17034,5,6,1:0:0:0:
263,217,17191,1,0,0:0:0:0:
115,203,17350,5,6,1:0:0:0:
115,203,17507,1,0,0:0:0:0:
266,116,17665,5,6,1:0:0:0:
266,116,17824,1,0,0:0:0:0:
392,32,17982,6,0,L|384:80,3,40
448,144,18298,2,0,L|456:192,3,40
384,232,18613,2,0,L|376:280,3,40
448,328,18929,2,0,L|456:376,3,40
328,344,19245,5,4,3:0:0:0:
302,343,19323,1,4,3:0:0:0:
275,342,19402,1,4,3:0:0:0:
249,341,19481,1,4,3:0:0:0:
224,317,19561,5,4,3:0:0:0:
197,319,19639,1,4,3:0:0:0:
171,320,19718,1,4,3:0:0:0:
145,321,19797,1,4,3:0:0:0:
115,325,19876,6,0,L|43:333,1,60.0000022888184
88,273,20034,2,0,L|15:268,1,60.0000022888184
76,218,20192,2,0,L|5:200,1,60.0000022888184
74,162,20350,2,0,L|7:132,1,60.0000022888184
124,94,20508,5,4,2:0:0:0:
134,99,20586,1,4,2:0:0:0:
144,109,20665,1,4,2:0:0:0:
151,120,20744,1,4,2:0:0:0:
158,132,20823,1,4,2:0:0:0:
161,144,20902,1,4,2:0:0:0:
161,159,20981,1,4,2:0:0:0:
160,171,21060,1,4,2:0:0:0:
160,194,21140,6,0,B|267:163|265:267|373:207|383:213|395:166|375:116|326:128|293:141|321:184,1,320
392,40,26824,6,0,B|296:64|296:64|472:88|472:88|408:112,1,320,4|0,3:0|0:0,0:0:0:0:
128,256,28087,6,0,B|144:304|144:304|160:192,1,160,4|0,3:0|0:0,0:0:0:0:
176,88,28561,1,2,2:0:0:0:
179,62,28640,1,2,2:0:0:0:
184,32,28719,2,2,L|240:24,1,40,2|2,2:0|2:0,2:0:0:0:
288,96,28876,2,2,L|327:101,1,40,2|2,2:0|2:0,2:0:0:0:
416,128,29034,5,4,2:0:0:0:
417,147,29112,1,4,2:0:0:0:
418,167,29191,1,4,2:0:0:0:
419,187,29270,1,4,2:0:0:0:
416,232,29350,6,0,B|376:235|376:235|361:252|361:252|305:257,1,100,4|0,3:0|0:0,0:0:0:0:
288,96,29824,5,0,0:0:0:0:
289,116,29903,1,0,0:0:0:0:
286,161,29982,6,0,B|246:164|246:164|231:181|231:181|175:186,1,100,4|0,3:0|0:0,0:0:0:0:
136,40,30455,6,0,L|136:104,3,50
48,64,30771,5,4,3:0:0:0:
80,264,30929,1,4,3:0:0:0:
240,280,31245,5,4,3:0:0:0:
336,296,31482,5,4,3:0:0:0:
432,304,31719,5,4,3:0:0:0:
440,202,31876,6,0,P|355:235|344:332,1,160
32,248,32508,2,0,L|208:232,1,160
312,104,33140,2,0,P|281:91|339:83,1,160
216,136,33613,1,0,0:0:0:0:
200,128,33692,1,0,0:0:0:0:
192,112,33771,2,0,P|184:72|192:32,1,80
424,32,34087,2,0,P|431:71|423:110,1,80
248,216,34403,6,0,B|311:221|311:221|334:239|334:239|413:246,1,160
144,312,35034,6,0,P|208:312|256:352,2,106.666666666667
160,128,35666,6,0,B|136:160|136:160|88:176,2,80
304,232,36298,6,0,P|272:176|282:115,2,106.666666666667
448,296,36929,5,4,1:0:0:0:
448,296,37087,1,0,0:0:0:0:
401,144,37245,5,4,1:0:0:0:
401,144,37403,1,0,0:0:0:0:
323,305,37561,5,4,1:0:0:0:
323,305,37719,1,0,0:0:0:0:
273,135,37877,5,4,1:0:0:0:
273,135,38035,1,0,0:0:0:0:
111,334,38192,6,0,L|271:302,1,120.000004577637
364,246,38508,1,4,1:0:0:0:
416,155,38666,1,4,1:0:0:0:
366,63,38824,1,4,1:0:0:0:
261,62,38982,1,4,1:0:0:0:
207,151,39140,1,4,1:0:0:0:
258,242,39298,1,4,1:0:0:0:
368,336,39455,5,4,3:0:0:0:
343,328,39533,1,4,3:0:0:0:
317,326,39612,1,4,3:0:0:0:
292,332,39691,1,4,3:0:0:0:
269,342,39770,1,4,3:0:0:0:
244,348,39849,1,4,3:0:0:0:
218,346,39928,1,4,3:0:0:0:
194,338,40007,1,4,3:0:0:0:
168,328,40087,6,0,L|160:264,1,60.0000022888184
144,160,40245,1,8,3:0:0:0:
132,127,40323,1,8,3:0:0:0:
101,109,40402,1,8,3:0:0:0:
67,115,40481,1,8,3:0:0:0:
44,141,40560,1,8,3:0:0:0:
44,176,40639,1,8,3:0:0:0:
72,205,40719,6,0,P|77:271|64:297,1,80.0000030517579
168,328,40929,2,0,P|234:333|260:320,2,80.0000030517579
242,222,41245,1,0,0:0:0:0:
242,213,41298,1,0,0:0:0:0:
241,204,41350,6,0,P|308:208|332:224,2,80.0000030517579
413,332,41666,6,0,B|397:308|397:308|397:263,1,60
393,170,41982,6,0,L|431:161,2,40.000001525879
353,83,42298,2,0,L|315:74,2,40.000001525879
241,167,42613,2,0,L|279:158,2,40.000001525879
201,80,42929,2,0,L|163:71,2,40.000001525879
66,152,43245,6,0,P|66:182|57:233,2,53.3333333333333
145,248,43561,2,0,P|145:278|154:329,2,53.3333333333333
239,327,43876,6,0,L|289:332,4,26.6666666666667
363,255,44192,2,0,L|314:259,4,26.6666666666667
441,131,44508,6,0,L|372:125,1,66.6666666666667,8|0,3:0|0:0,0:0:0:0:
336,149,44719,2,0,L|269:154,1,66.6666666666667,8|0,3:0|0:0,0:0:0:0:
242,119,44929,2,0,L|173:113,1,66.6666666666667,8|0,3:0|0:0,0:0:0:0:
137,161,45140,6,0,L|205:155,1,66.6666666666667,8|0,3:0|0:0,0:0:0:0:
242,179,45351,2,0,L|308:184,1,66.6666666666667,8|0,3:0|0:0,0:0:0:0:
336,149,45561,2,0,L|404:143,1,66.6666666666667,8|0,3:0|0:0,0:0:0:0:
409,99,45771,6,0,L|340:93,1,66.6666666666667,8|0,3:0|0:0,0:0:0:0:
304,117,45982,2,0,L|237:122,1,66.6666666666667,8|0,3:0|0:0,0:0:0:0:
210,87,46192,2,0,L|141:81,1,66.6666666666667,8|0,3:0|0:0,0:0:0:0:
32,66,46403,6,0,L|44:269,1,180.000006866455
55,337,47034,6,0,B|154:378|232:302|232:302|236:360,1,240,8|0,3:0|0:0,0:0:0:0:
307,204,47666,6,0,L|312:323,1,120.000004577637,4|0,1:0|0:0,0:0:0:0:
462,205,48298,6,0,B|367:169|394:245|274:190,1,160
174,157,48771,1,0,0:0:0:0:
156,128,48850,1,0,0:0:0:0:
158,93,48929,6,0,P|195:82|232:96,2,80
12,138,49403,1,0,0:0:0:0:
222,335,49561,6,0,B|264:296|264:296|218:263|218:263|299:185|233:89,1,300,4|0,3:0|0:0,0:0:0:0:
96,144,50192,6,0,P|157:212|140:121,1,240,4|0,1:0|0:0,0:0:0:0:
12,138,50824,6,0,P|23:234|99:297,1,200,4|0,3:0|0:0,0:0:0:0:
222,335,51298,1,0,0:0:0:0:
351,213,51455,6,0,B|292:250|292:250|412:290,1,180.000006866455,8|0,3:0|0:0,0:0:0:0:
492,288,52087,6,0,L|480:191,1,80,4|0,3:0|0:0,0:0:0:0:
376,27,52403,2,0,L|366:106,1,80,4|0,3:0|0:0,0:0:0:0:
222,335,52719,6,0,B|236:300|236:300|210:261|233:208,1,120,4|0,1:0|0:0,0:0:0:0:
214,118,53350,2,0,P|156:130|66:63,1,160
218,48,53824,1,0,0:0:0:0:
231,82,53903,1,0,0:0:0:0:
214,118,53982,2,0,P|213:156|220:199,1,80
253,353,54298,5,0,0:0:0:0:
253,353,54455,1,0,0:0:0:0:
374,273,54613,5,4,1:0:0:0:
318,166,54771,1,4,1:0:0:0:
258,260,54929,1,4,1:0:0:0:
465,207,55087,1,4,2:0:0:0:
464,167,55165,1,4,2:0:0:0:
445,132,55244,1,4,2:0:0:0:
413,109,55323,1,4,2:0:0:0:
371,92,55403,6,0,B|310:87|310:87|252:63,1,100
175,25,55719,1,0,0:0:0:0:
19,172,55876,6,0,B|123:150|123:150|106:181,1,120.000004577637,4|0,3:0|0:0,0:0:0:0:
258,260,56192,2,0,B|154:238|154:238|171:269,1,120.000004577637,4|0,3:0|0:0,0:0:0:0:
56,316,56508,1,0,0:0:0:0:
224,354,56666,2,0,L|114:365,1,60.0000022888184,14|0,2:0|0:0,0:0:0:0:
454,43,56982,5,4,3:0:0:0:
447,94,57061,1,4,3:0:0:0:
440,144,57140,2,0,L|425:288,1,120.000004577637,4|0,0:0|0:0,0:0:0:0:
340,329,57455,1,0,0:0:0:0:
237,207,57613,5,0,0:0:0:0:
231,184,57692,1,0,0:0:0:0:
233,157,57771,2,0,P|299:118|383:148,1,120.000004577637
162,320,58087,2,0,L|147:171,1,120.000004577637,4|0,3:0|0:0,0:0:0:0:
133,52,58403,6,0,P|183:19|279:35,1,120.000004577637
367,71,58719,1,0,0:0:0:0:
294,322,58876,5,0,0:0:0:0:
271,328,58955,1,0,0:0:0:0:
244,326,59034,2,0,L|235:176,1,120.000004577637
378,181,59350,2,0,L|370:300,1,120.000004577637,4|0,3:0|0:0,0:0:0:0:
20,195,59666,6,0,P|85:168|151:192,1,120.000004577637
244,326,59982,2,0,P|179:353|113:329,1,120.000004577637,4|0,3:0|0:0,0:0:0:0:
316,49,60298,2,0,L|326:205,1,120.000004577637
131,178,60613,2,0,L|141:22,1,120.000004577637,4|0,3:0|0:0,0:0:0:0:
424,104,60929,5,4,2:0:0:0:
232,112,61087,1,4,2:0:0:0:
64,248,61245,2,0,P|112:272|192:256,1,120.000004577637,4|0,3:0|0:0,0:0:0:0:
232,112,61561,1,0,0:0:0:0:
48,64,61719,5,4,1:0:0:0:
48,96,61798,1,4,1:0:0:0:
51,128,61877,2,0,L|66:272,1,120.000004577637
436,336,62192,6,0,B|454:305|454:305|464:194,1,120.000004577637,2|0,3:0|0:0,0:0:0:0:
257,296,62508,2,0,B|238:265|238:265|228:154,1,120.000004577637,2|0,3:0|0:0,0:0:0:0:
328,374,62824,2,0,B|347:344|347:344|356:232,1,120.000004577637,2|0,3:0|0:0,0:0:0:0:
157,353,63140,2,0,B|138:322|138:322|129:211,1,120.000004577637,2|0,3:0|0:0,0:0:0:0:
424,72,63455,6,0,L|272:88,1,140.000001335144,6|0,3:0|0:0,0:0:0:0:
80,144,63771,2,0,L|232:160,1,140.000001335144,6|0,3:0|0:0,0:0:0:0:
424,216,64087,2,0,L|272:232,1,140.000001335144,6|0,3:0|0:0,0:0:0:0:
80,288,64403,2,0,L|232:304,1,140.000001335144,6|0,3:0|0:0,0:0:0:0:
472,288,64719,6,0,P|464:336|488:384,1,100
424,216,65034,2,0,P|384:244|367:295,1,100
448,136,65350,2,0,P|400:128|352:152,1,100
512,80,65666,2,0,P|483:40|432:23,1,100
288,32,65982,5,2,3:0:0:0:
259,49,66060,1,2,3:0:0:0:
227,58,66139,1,2,3:0:0:0:
194,59,66218,1,2,3:0:0:0:
152,40,66298,5,2,3:0:0:0:
119,41,66377,1,2,3:0:0:0:
87,50,66456,1,2,3:0:0:0:
59,68,66534,1,2,3:0:0:0:
40,96,66613,2,0,L|24:224,1,100
128,280,66850,1,0,0:0:0:0:
128,264,66929,2,0,L|120:168,1,50
216,144,67087,2,0,L|208:240,1,50
256,192,67245,12,0,69771,0:0:0:0:
256,192,76087,12,0,77192,0:0:0:0:
48,48,77350,6,0,L|56:136,1,80,4|0,3:0|0:0,0:0:0:0:
136,120,77666,2,0,L|128:208,1,80,4|0,3:0|0:0,0:0:0:0:
224,208,77982,6,0,L|232:296,1,80,4|0,3:0|0:0,0:0:0:0:
296,344,78219,2,0,L|303:264,1,80,4|0,3:0|0:0,0:0:0:0:
368,208,78455,2,0,L|375:287,1,80,4|0,3:0|0:0,0:0:0:0:
272,64,78771,1,4,3:0:0:0:
272,64,78929,6,0,L|160:48,1,80,4|0,3:0|0:0,0:0:0:0:
184,152,79245,6,0,L|96:160,1,80,4|0,3:0|0:0,0:0:0:0:
48,232,79482,2,0,L|127:239,1,80,4|0,3:0|0:0,0:0:0:0:
240,344,79719,1,4,3:0:0:0:
240,344,79876,2,0,L|319:351,1,80,4|0,3:0|0:0,0:0:0:0:
296,272,80192,2,0,L|375:264,1,80,4|0,3:0|0:0,0:0:0:0:
344,176,80508,6,0,L|423:183,1,80,4|0,3:0|0:0,0:0:0:0:
480,104,80745,2,0,L|400:111,1,80,4|0,3:0|0:0,0:0:0:0:
344,32,80982,2,0,L|423:39,1,80,4|0,3:0|0:0,0:0:0:0:
184,16,81298,5,4,3:0:0:0:
192,56,81376,1,4,3:0:0:0:
200,96,81455,2,0,L|192:176,1,80,4|0,3:0|0:0,0:0:0:0:
272,192,81771,6,0,L|280:280,1,80,4|0,3:0|0:0,0:0:0:0:
352,320,82008,2,0,L|360:216,1,80,4|0,3:0|0:0,0:0:0:0:
448,32,82245,1,4,3:0:0:0:
447,31,82403,6,0,L|460:109,1,80,4|0,3:0|0:0,0:0:0:0:
480,216,82719,2,0,P|441:221|400:200,1,80,4|0,3:0|0:0,0:0:0:0:
352,96,83034,2,0,P|313:90|272:112,1,80,4|0,3:0|0:0,0:0:0:0:
224,184,83271,2,0,P|188:200|148:195,1,80,4|0,3:0|0:0,0:0:0:0:
112,96,83508,1,4,3:0:0:0:
40,304,83824,5,4,3:0:0:0:
48,320,83903,1,4,3:0:0:0:
56,336,83982,2,0,P|128:344|144:352,1,80,4|0,3:0|0:0,0:0:0:0:
256,296,84298,2,0,P|294:284|334:285,1,80,4|0,3:0|0:0,0:0:0:0:
384,352,84534,2,0,P|345:363|305:362,1,80,4|0,3:0|0:0,0:0:0:0:
133,346,84771,1,4,3:0:0:0:
133,346,84929,6,0,L|128:256,1,80,4|0,3:0|0:0,0:0:0:0:
176,136,85245,2,0,L|180:56,1,80,4|0,3:0|0:0,0:0:0:0:
288,176,85561,6,0,L|283:86,1,80,4|0,3:0|0:0,0:0:0:0:
360,136,85798,2,0,L|355:215,1,80,4|0,3:0|0:0,0:0:0:0:
360,32,86034,1,4,3:0:0:0:
152,40,86192,6,0,P|136:72|144:128,2,66.6666666666667
216,152,86508,2,0,P|232:184|224:240,1,66.6666666666667
120,208,86719,1,0,0:0:0:0:
120,216,86771,1,0,0:0:0:0:
120,224,86824,2,0,P|93:219|56:200,2,66.6666666666667
192,304,87140,6,0,L|264:304,1,53.3333333333333,6|0,2:0|0:0,0:0:0:0:
416,264,87455,6,0,L|408:200,2,53.3333333333333
320,152,87771,2,0,L|328:88,2,53.3333333333333
216,88,88087,2,0,L|208:24,2,53.3333333333333
88,72,88403,6,6,L|24:72,1,53.3333333333333,6|6,2:0|2:0,2:0:0:0:
64,176,88719,6,0,L|72:240,2,53.3333333333333
176,288,89035,2,0,L|184:216,2,53.3333333333333
304,288,89351,2,0,L|312:352,2,53.3333333333333
424,312,89666,6,6,L|488:312,1,53.3333333333333,6|6,2:0|2:0,2:0:0:0:
480,176,89982,6,0,L|427:183,2,53.3333333333333
304,288,90298,2,0,L|323:238,2,53.3333333333333
280,80,90613,2,0,L|312:121,2,53.3333333333333
192,240,90929,6,6,L|192:168,1,53.3333333333333,6|6,2:0|2:0,2:0:0:0:
64,32,91245,6,0,L|80:82,2,53.3333333333333
32,168,91561,2,0,L|79:192,2,53.3333333333333
56,304,91876,2,0,L|106:287,2,53.3333333333333
232,352,92192,6,6,L|160:352,1,53.3333333333333,6|6,2:0|2:0,2:0:0:0:
320,264,92508,6,0,P|368:336|368:344,2,58.6666684570313
464,184,92824,2,0,P|416:256|416:264,2,58.6666684570313
392,56,93140,6,0,L|312:48,2,61.3333345031739
216,136,93455,2,0,L|296:128,2,61.3333345031739
80,48,93771,6,0,P|72:80|88:136,2,63.9999980468751
88,240,94087,2,0,P|96:272|80:328,2,63.9999980468751
272,248,94403,6,0,L|184:256,2,66.6666666666667
360,328,94719,2,0,L|440:336,2,66.6666666666667
384,200,95034,6,0,P|432:160|480:176,2,69.3333301595054
264,120,95350,2,0,P|253:58|291:24,2,69.3333301595054
64,120,95666,6,0,B|94:99|94:99|170:95,2,74.6666643880209
176,224,95982,2,0,B|152:237|152:237|104:237,2,74.6666643880209
264,120,96298,6,0,B|248:112|184:56|288:-16|360:8|384:96|352:152|248:168|240:240|288:312|288:312|288:304|312:224,1,480
40,48,97561,6,0,P|120:48|152:32,1,100,4|0,3:0|0:0,0:0:0:0:
464,128,98034,5,0,0:0:0:0:
464,128,98192,2,0,P|384:128|352:144,1,100,4|0,3:0|0:0,0:0:0:0:
56,224,98666,5,0,0:0:0:0:
56,224,98824,2,0,P|136:224|168:240,1,100,4|0,3:0|0:0,0:0:0:0:
448,320,99298,5,0,0:0:0:0:
448,320,99455,1,0,0:0:0:0:
344,352,99613,1,0,0:0:0:0:
328,312,99692,1,0,0:0:0:0:
336,272,99771,1,0,0:0:0:0:
416,192,99929,1,0,0:0:0:0:
328,312,100087,6,0,L|208:320,1,100,4|0,3:0|0:0,0:0:0:0:
40,160,100403,2,0,L|160:168,1,100
352,216,100719,2,0,L|232:224,1,100,4|0,3:0|0:0,0:0:0:0:
64,64,101034,2,0,L|184:72,1,100,0|0,3:0|0:0,0:0:0:0:
80,344,101350,6,0,P|72:280|88:232,1,100,4|0,3:0|0:0,0:0:0:0:
253,125,101666,6,0,P|261:189|245:237,1,100
40,160,101982,1,0,0:0:0:0:
216,48,102140,1,0,0:0:0:0:
248,40,102219,1,0,0:0:0:0:
280,48,102298,2,0,P|320:64|384:40,1,100
432,192,102613,6,0,L|440:80,1,100,4|0,3:0|0:0,0:0:0:0:
339,253,102929,2,0,L|331:141,1,100
219,291,103245,2,0,L|227:179,1,100,4|0,3:0|0:0,0:0:0:0:
120,344,103561,2,0,L|112:232,1,100
72,32,103876,6,0,P|112:72|40:48,1,200
184,40,104350,1,0,0:0:0:0:
193,60,104429,1,0,0:0:0:0:
192,80,104508,2,0,P|176:136|97:193,1,150
105,190,104824,2,0,L|243:201,1,100
417,257,105140,6,0,P|417:207|435:161,1,100
245,340,105455,2,0,P|295:340|342:358,1,100,4|0,3:0|0:0,0:0:0:0:
105,190,105772,2,0,P|105:240|87:287,1,100
276,106,106087,2,0,P|226:106|179:88,1,100,4|0,3:0|0:0,0:0:0:0:
453,86,106403,5,4,1:0:0:0:
453,86,106561,1,4,1:0:0:0:
179,88,106719,2,0,L|197:193,1,100
228,342,107034,1,0,0:0:0:0:
228,342,107192,2,14,L|285:334,1,50,14|14,1:0|1:0,1:0:0:0:
41,40,107666,6,0,B|44:92|44:92|58:116|58:116|65:196,1,128,4|0,3:0|0:0,0:0:0:0:
77,335,107982,1,0,0:0:0:0:
165,121,108140,1,0,0:0:0:0:
211,112,108219,1,0,0:0:0:0:
250,138,108298,2,0,L|266:280,1,128,4|0,3:0|0:0,0:0:0:0:
15,259,108613,2,0,P|106:237|166:279,1,128,4|0,3:0|0:0,0:0:0:0:
359,353,108929,6,0,L|361:186,1,128,4|0,3:0|0:0,0:0:0:0:
362,40,109245,1,0,0:0:0:0:
470,128,109403,1,0,0:0:0:0:
429,146,109482,1,0,0:0:0:0:
389,145,109561,2,0,P|308:123|260:147,1,128,4|0,3:0|0:0,0:0:0:0:
228,337,109876,2,0,L|210:203,1,128,4|0,3:0|0:0,0:0:0:0:
107,77,110192,5,4,1:0:0:0:
102,108,110270,1,4,1:0:0:0:
98,140,110349,1,4,1:0:0:0:
94,172,110428,1,4,1:0:0:0:
89,203,110508,2,0,P|198:202|246:251,1,128,4|0,3:0|0:0,0:0:0:0:
32,376,110824,2,0,L|19:234,1,128,4|0,3:0|0:0,0:0:0:0:
221,82,111140,2,0,L|209:209,1,128,4|0,3:0|0:0,0:0:0:0:
336,357,111455,6,0,P|398:369|459:352,1,128,4|0,3:0|0:0,0:0:0:0:
458,122,111771,1,0,0:0:0:0:
209,209,111929,1,0,0:0:0:0:
247,211,112008,1,0,0:0:0:0:
287,215,112087,2,0,L|418:223,1,128,4|0,3:0|0:0,0:0:0:0:
512,27,112403,2,0,P|451:13|380:35,1,128,4|0,3:0|0:0,0:0:0:0:
287,215,112719,6,0,L|273:74,1,128,4|0,3:0|0:0,0:0:0:0:
146,35,113034,1,0,0:0:0:0:
25,150,113192,1,0,0:0:0:0:
12,189,113271,1,0,0:0:0:0:
31,234,113350,2,0,P|112:256|160:232,1,128,4|0,3:0|0:0,0:0:0:0:
330,41,113666,2,0,B|360:28|360:28|340:158,1,128,4|0,3:0|0:0,0:0:0:0:
244,349,113982,5,4,1:0:0:0:
244,208,114140,1,4,1:0:0:0:
365,278,114298,1,4,1:0:0:0:
135,339,114455,5,0,0:0:0:0:
117,297,114534,1,0,0:0:0:0:
132,254,114613,2,0,P|134:217|125:181,1,64
65,64,114771,5,4,1:0:0:0:
107,46,114850,1,4,1:0:0:0:
150,61,114929,2,0,P|187:63|260:43,2,64
316,46,115245,6,0,L|311:119,3,50
384,125,115561,2,0,L|389:198,3,50
324,231,115876,6,0,L|319:304,3,50
391,311,116192,2,0,L|396:384,3,50
474,250,116508,5,0,0:0:0:0:
474,212,116587,1,0,0:0:0:0:
476,173,116666,2,0,L|481:115,1,50
485,29,116824,2,0,L|427:34,1,50
314,48,116982,5,0,0:0:0:0:
310,86,117061,1,0,0:0:0:0:
307,124,117140,6,0,L|291:245,1,100,4|0,3:0|0:0,0:0:0:0:
227,289,117376,2,0,L|213:189,1,100,4|0,3:0|0:0,0:0:0:0:
150,121,117613,2,0,L|136:220,1,100,4|0,3:0|0:0,0:0:0:0:
256,192,117850,12,0,120298,0:0:0:0:
