osu file format v14

[General]
AudioFilename: audio.mp3
AudioLeadIn: 0
PreviewTime: 46589
Countdown: 1
SampleSet: Soft
StackLeniency: 0.4
Mode: 0
LetterboxInBreaks: 0
WidescreenStoryboard: 0

[Editor]
DistanceSpacing: 0.1
BeatDivisor: 4
GridSize: 4
TimelineZoom: 1

[Metadata]
Title:Sweet Requiem
TitleUnicode:Sweet Requiem
Artist:REDALiCE vs. aran
ArtistUnicode:REDALiCE vs. aran
Creator:Turquoise-
Version:Memories
Source:SELECTiONS
Tags:ZUN Maiden's Capriccio ~ Dream Battle ALiCE'S EMOTiON
BeatmapID:1464720
BeatmapSetID:692194

[Difficulty]
HPDrainRate:5
CircleSize:4.5
OverallDifficulty:9
ApproachRate:9.4
SliderMultiplier:2.4
SliderTickRate:1

[Events]
//Background and Video events
0,0,"redalice sweetr.jpg",0,0
//Break Periods
2,22157,26470
//Storyboard Layer 0 (Background)
//Storyboard Layer 1 (Fail)
//Storyboard Layer 2 (Pass)
//Storyboard Layer 3 (Foreground)
//Storyboard Sound Samples

[TimingPoints]
484,315.789473684211,4,2,0,40,1,0
484,-200,4,2,0,40,0,0
641,-166.666666666667,4,2,0,45,0,0
799,-142.857142857143,4,2,0,50,0,0
957,-125,4,2,0,55,0,0
1115,-90.9090909090909,4,2,0,65,0,0
1431,-83.3333333333333,4,2,0,70,0,0
1589,-80,4,2,0,75,0,0
1747,-100,4,2,0,80,0,0
5536,-200,4,2,0,80,0,0
5852,-133.333333333333,4,2,0,80,0,0
6168,-100,4,2,0,80,0,0
8378,-90.9090909090909,4,2,0,80,0,0
8694,-100,4,2,0,80,0,0
9010,-83.3333333333333,4,2,0,80,0,0
9326,-100,4,2,0,80,0,0
11220,-200,4,2,0,80,0,0
11694,-66.6666666666667,4,2,0,80,0,0
11852,-90.9090909090909,4,2,0,80,0,0
15641,-133.333333333333,4,2,0,80,0,0
15957,-100,4,2,0,80,0,0
16273,-80,4,2,0,80,0,0
17694,-90.9090909090909,4,2,0,80,0,0
17852,-86.9565217391304,4,2,0,80,0,0
20062,-83.3333333333333,4,2,0,80,0,0
20378,-80,4,2,0,80,0,0
20694,-133.333333333333,4,2,0,80,0,0
21641,-100,4,2,0,80,0,0
27010,-200,4,2,0,80,0,0
28273,-133.333333333333,4,2,0,80,0,0
29536,-100,4,2,0,80,0,0
33957,-200,4,2,0,80,0,0
39957,-133.333333333333,4,2,0,80,0,0
40273,-100,4,2,0,80,0,0
40589,-90.9090909090909,4,2,0,80,0,0
41852,-200,4,2,0,80,0,0
42168,-100,4,2,0,80,0,0
44905,-111.111111111111,4,2,0,80,0,0
45115,-125,4,2,0,80,0,0
45326,-142.857142857143,4,2,0,80,0,0
45536,-166.666666666667,4,2,0,80,0,0
45747,-200,4,2,0,80,0,0
46589,-400,4,2,0,80,0,0
47220,-66.6666666666667,4,2,0,80,0,0
48484,-200,4,2,0,80,0,0
49747,-66.6666666666667,4,2,0,80,0,0
52905,-200,4,2,0,80,0,0
53536,-133.333333333333,4,2,0,80,0,0
53852,-100,4,2,0,80,0,0
54168,-66.6666666666667,4,2,0,80,0,0
54799,-100,4,2,0,80,0,0
56062,-66.6666666666667,4,2,0,80,0,0
56852,-666.666666666667,4,2,0,80,0,0
57168,-80,4,2,0,80,0,0
57326,-80,4,2,0,80,0,1
64905,-133.333333333333,4,2,0,80,0,1
66799,-66.6666666666667,4,2,0,80,0,1
67431,-133.333333333333,4,2,0,80,0,0
75010,-100,4,2,0,80,0,0
76273,-66.6666666666667,4,2,0,80,0,0
76589,-62.5,4,2,0,80,0,0
76905,-58.8235294117647,4,2,0,80,0,0
77141,-55.5555555555556,4,2,0,80,0,0
77378,-52.6315789473684,4,2,0,80,0,0
77536,-66.6666666666667,4,2,0,80,0,1
87326,-200,4,2,0,80,0,0
92694,-100,4,2,0,80,0,0
95852,-100,4,2,0,50,0,0
96168,-100,4,2,0,40,0,0
96484,-100,4,2,0,30,0,0
97431,-100,4,2,0,60,0,0
100273,-80,4,2,0,80,0,1
107378,-200,4,2,0,80,0,0
107694,-50,4,2,0,80,0,0
107852,-66.6666666666667,4,2,0,80,0,1
116694,-80,4,2,0,80,0,0
118589,-83.3333333333333,4,2,0,70,0,0
119220,-90.9090909090909,4,2,0,60,0,0
119852,-100,4,2,0,40,0,0
120484,-111.111111111111,4,2,0,30,0,0
121115,-125,4,2,0,20,0,0
121747,-153.846153846154,4,2,0,10,0,0
122378,-200,4,2,0,5,0,0

[Colours]
Combo1 : 239,67,243
Combo2 : 202,0,0
Combo3 : 138,0,0
Combo4 : 169,5,107
Combo5 : 132,17,236
Combo6 : 35,4,179
Combo7 : 132,9,232

[HitObjects]
112,108,484,6,0,P|116:84|120:68,1,30,8|0,0:0|0:0,0:0:0:0:
144,112,641,2,0,P|160:88|176:76,1,35.9999989013672
204,152,799,2,0,P|228:140|252:136,1,41.9999987182618,2|0,0:0|0:0,0:0:0:0:
244,248,957,2,0,P|272:248|292:252,1,48
104,324,1115,6,0,P|84:292|84:260,1,66.0000020141602,8|0,0:0|0:0,0:0:0:0:
324,112,1273,2,0,P|329:144|319:174,1,66.0000020141602
44,108,1431,6,0,P|42:70|60:36,1,71.9999978027345,4|0,0:0|0:0,0:0:0:0:
244,248,1589,1,2,0:0:0:0:
253,284,1667,1,0,0:0:0:0:
281,307,1747,5,8,0:0:0:0:
242,136,1905,1,0,0:0:0:0:
114,256,2062,2,0,P|120:308|184:352,1,120
112,88,2378,1,2,0:0:0:0:
83,264,2536,1,0,0:0:0:0:
262,75,2694,1,0,0:0:0:0:
169,349,2852,1,0,0:0:0:0:
346,223,3010,5,8,0:0:0:0:
192,44,3168,2,0,L|164:168,1,120
436,84,3484,1,0,0:0:0:0:
88,139,3641,2,0,L|116:263,1,120,2|0,0:0|0:0,0:0:0:0:
360,344,3957,1,0,0:0:0:0:
424,68,4115,1,0,0:0:0:0:
253,284,4273,5,8,0:0:0:0:
56,39,4431,1,4,3:0:0:0:
357,121,4589,1,8,3:0:0:0:
183,168,4747,5,0,0:0:0:0:
484,260,4905,2,0,L|411:387,1,120,2|0,0:0|0:0,0:0:0:0:
169,349,5220,1,0,0:0:0:0:
65,31,5378,1,0,0:0:0:0:
26,221,5536,6,0,B|24:268|24:268|48:320,1,90,8|0,0:0|0:0,0:0:0:0:
112,252,5852,6,0,B|124:216|112:186|112:186|140:168|156:132,1,135.000005149841,4|0,0:0|0:0,0:0:0:0:
208,244,6168,6,0,B|226:264|251:275|251:275|244:307|224:336|224:336|252:348|296:384,1,180,8|0,0:0|0:0,0:0:0:0:
408,296,6484,1,0,3:0:0:0:
359,263,6562,1,0,3:0:0:0:
343,206,6641,1,0,3:0:0:0:
369,154,6720,1,0,3:0:0:0:
423,131,6799,5,8,0:0:0:0:
242,26,6957,1,0,0:0:0:0:
59,130,7115,2,0,P|51:181|101:240,1,120
358,320,7431,1,2,0:0:0:0:
365,291,7509,1,0,0:0:0:0:
359,262,7589,2,0,L|328:192,1,60
171,61,7747,1,0,0:0:0:0:
154,94,7825,1,0,0:0:0:0:
155,131,7905,2,0,L|179:185,1,60
423,131,8062,6,0,P|392:136|364:160,3,60,8|0|0|0,0:0|0:0|0:0|0:0,0:0:0:0:
352,48,8378,2,0,P|320:68|296:104,1,66.0000020141602
252,268,8536,2,0,P|253:305|272:344,1,66.0000020141602
420,200,8694,1,2,0:0:0:0:
449,195,8772,1,0,0:0:0:0:
473,178,8851,1,0,0:0:0:0:
489,153,8930,1,0,0:0:0:0:
492,123,9010,2,0,L|494:200,1,71.9999978027344
252,268,9168,2,0,L|250:196,1,71.9999978027344
242,26,9326,5,8,0:0:0:0:
269,59,9404,1,0,0:0:0:0:
264,103,9483,1,0,0:0:0:0:
229,129,9562,1,0,0:0:0:0:
186,122,9641,2,0,P|152:108|112:104,1,60,2|0,0:0|0:0,0:0:0:0:
66,289,9799,1,0,0:0:0:0:
99,337,9877,1,0,0:0:0:0:
152,364,9956,1,8,0:0:0:0:
212,361,10035,1,0,0:0:0:0:
263,331,10115,2,0,P|292:329|322:334,1,60
420,200,10273,1,2,0:0:0:0:
404,198,10351,1,0,0:0:0:0:
388,198,10430,1,0,0:0:0:0:
373,200,10509,1,0,0:0:0:0:
306,260,10589,5,8,0:0:0:0:
282,205,10667,1,0,0:0:0:0:
297,149,10746,1,0,0:0:0:0:
344,113,10825,1,0,0:0:0:0:
403,114,10905,1,8,0:0:0:0:
328,106,10983,1,0,0:0:0:0:
253,99,11062,1,0,0:0:0:0:
179,92,11141,1,0,0:0:0:0:
104,85,11220,6,0,B|130:77|130:77|149:102|149:102|190:89,1,90,10|0,0:0|0:0,0:0:0:0:
124,168,11536,5,2,3:0:0:0:
112,252,11615,1,2,3:0:0:0:
162,319,11694,2,0,B|208:332|208:332|260:316,1,90.0000034332277,2|0,3:0|0:0,0:0:0:0:
420,200,11852,5,8,0:0:0:0:
208,244,12010,1,0,0:0:0:0:
276,39,12168,2,0,P|340:20|400:48,1,132.00000402832
328,284,12484,1,2,0:0:0:0:
334,96,12641,1,0,0:0:0:0:
439,251,12799,1,0,0:0:0:0:
228,134,12957,1,0,0:0:0:0:
322,334,13115,5,8,0:0:0:0:
70,210,13273,2,0,B|75:143|75:143|109:74,1,132.00000402832
397,45,13589,1,0,0:0:0:0:
165,285,13747,2,0,B|143:222|143:222|146:145,1,132.00000402832,2|0,0:0|0:0,0:0:0:0:
439,251,14062,1,0,0:0:0:0:
70,210,14220,1,0,0:0:0:0:
271,83,14378,5,8,0:0:0:0:
334,96,14456,1,0,3:0:0:0:
378,143,14535,1,0,3:0:0:0:
388,208,14614,1,0,3:0:0:0:
358,265,14693,5,0,3:0:0:0:
276,39,14852,1,0,0:0:0:0:
209,270,15010,2,0,L|264:400,1,132.00000402832,2|0,0:0|0:0,0:0:0:0:
292,24,15326,1,0,0:0:0:0:
88,324,15484,1,0,0:0:0:0:
429,201,15641,6,0,B|400:188|372:188,1,45.0000017166138,8|0,0:0|0:0,0:0:0:0:
190,174,15799,1,0,0:0:0:0:
429,201,15957,6,0,B|401:209|401:209|357:201,1,60,4|0,0:0|0:0,0:0:0:0:
145,156,16115,1,0,0:0:0:0:
429,201,16273,6,0,B|420:184|420:184|348:168,1,75,2|0,0:0|0:0,0:0:0:0:
100,138,16431,1,0,0:0:0:0:
88,324,16589,5,0,3:0:0:0:
100,328,16668,1,0,3:0:0:0:
184,328,16747,5,0,3:0:0:0:
200,319,16826,1,0,3:0:0:0:
258,244,16905,5,8,0:0:0:0:
100,138,17062,1,0,0:0:0:0:
292,184,17220,5,2,0:0:0:0:
55,120,17378,1,0,0:0:0:0:
309,116,17536,5,8,0:0:0:0:
10,102,17694,2,0,L|76:104,1,66.0000020141602
190,174,17852,6,0,L|116:176,1,69.0000013160706,2|0,0:0|0:0,0:0:0:0:
22,322,18010,2,0,L|92:324,1,69.0000013160706
352,322,18168,5,8,0:0:0:0:
378,299,18247,1,0,0:0:0:0:
396,270,18326,1,0,0:0:0:0:
405,237,18405,1,0,0:0:0:0:
403,203,18484,1,2,0:0:0:0:
398,186,18562,1,0,0:0:0:0:
392,172,18641,5,8,0:0:0:0:
349,200,18719,1,0,0:0:0:0:
298,199,18798,1,0,0:0:0:0:
256,170,18877,1,0,0:0:0:0:
238,122,18957,2,0,P|240:84|272:48,1,69.0000013160706,2|0,0:0|0:0,0:0:0:0:
456,104,19115,5,8,0:0:0:0:
484,166,19193,1,0,0:0:0:0:
491,234,19272,1,0,0:0:0:0:
475,301,19351,1,0,0:0:0:0:
438,359,19431,5,10,0:0:0:0:
382,318,19509,1,0,0:0:0:0:
316,298,19588,1,0,0:0:0:0:
248,300,19667,1,0,0:0:0:0:
183,323,19747,1,8,0:0:0:0:
121,350,19825,1,0,0:0:0:0:
57,331,19904,1,0,0:0:0:0:
20,274,19983,1,0,0:0:0:0:
29,207,20062,5,10,0:0:0:0:
86,166,20140,1,0,0:0:0:0:
102,97,20219,1,0,0:0:0:0:
67,35,20298,1,0,0:0:0:0:
1,12,20378,5,8,0:0:0:0:
73,34,20456,1,0,0:0:0:0:
144,56,20535,1,0,0:0:0:0:
216,79,20614,1,0,0:0:0:0:
287,101,20694,5,6,0:0:0:0:
306,129,20772,1,0,0:0:0:0:
310,162,20851,1,0,0:0:0:0:
298,193,20930,1,0,0:0:0:0:
224,178,21010,5,4,0:0:0:0:
227,222,21088,1,0,0:0:0:0:
255,256,21167,1,0,0:0:0:0:
297,270,21246,1,0,0:0:0:0:
388,242,21326,5,4,0:0:0:0:
440,258,21405,1,0,0:0:0:0:
475,301,21484,1,0,0:0:0:0:
480,357,21562,1,0,0:0:0:0:
376,352,21641,5,8,0:0:0:0:
316,347,21720,1,0,3:0:0:0:
256,342,21799,1,0,3:0:0:0:
166,335,21878,1,0,3:0:0:0:
17,323,21957,5,10,0:0:0:0:
17,323,27010,6,0,B|-28:208|56:212|0:72,1,240,4|0,0:0|0:0,0:0:0:0:
194,50,28273,6,0,P|294:74|194:166,1,270.000010299683,4|0,0:0|0:0,0:0:0:0:
224,212,28826,1,0,3:3:0:0:
227,245,28905,1,0,3:3:0:0:
398,186,29062,1,0,0:0:0:0:
236,108,29220,1,0,0:0:0:0:
215,117,29298,1,0,0:0:0:0:
171,116,29378,1,0,0:0:0:0:
136,89,29457,1,0,0:0:0:0:
129,24,29536,6,0,L|132:100,1,60,8|0,0:0|0:0,0:0:0:0:
148,340,29694,1,0,0:0:0:0:
348,73,30010,1,0,0:0:0:0:
368,50,30088,1,0,0:0:0:0:
382,24,30168,6,0,L|380:100,1,60,8|0,0:0|0:0,0:0:0:0:
364,340,30326,1,0,0:0:0:0:
344,312,30641,5,0,0:0:0:0:
344,282,30719,1,0,0:0:0:0:
344,252,30798,1,0,0:0:0:0:
344,222,30877,1,0,0:0:0:0:
344,192,30957,6,0,L|289:243,1,60,8|0,0:0|0:0,0:0:0:0:
166,335,31115,1,8,0:0:0:0:
166,335,31431,5,8,3:0:0:0:
236,108,31668,5,2,0:0:0:0:
398,283,31905,5,4,0:0:0:0:
136,202,32062,5,8,0:0:0:0:
265,157,32694,1,2,0:0:0:0:
239,291,33326,1,2,3:0:0:0:
188,143,33957,2,0,P|204:112|232:88,1,60,8|0,0:0|0:0,0:0:0:0:
340,164,34273,2,0,P|331:192|315:217,1,60,2|0,0:0|0:0,0:0:0:0:
161,276,34589,5,8,0:0:0:0:
161,276,34905,1,0,0:0:0:0:
188,143,35220,5,2,0:0:0:0:
344,312,35457,5,0,0:0:0:0:
323,140,35694,5,2,3:0:0:0:
239,291,35852,5,8,0:0:0:0:
161,276,36010,1,0,0:0:0:0:
265,157,36168,1,2,0:0:0:0:
265,157,36484,5,2,3:0:0:0:
15,205,36720,5,2,0:0:0:0:
188,143,36957,5,0,0:0:0:0:
95,320,37115,5,8,0:0:0:0:
265,157,37273,1,0,0:0:0:0:
164,378,37431,5,8,0:0:0:0:
188,143,37589,1,0,0:0:0:0:
273,371,37747,5,8,0:0:0:0:
123,187,37905,1,0,0:0:0:0:
345,289,38062,5,8,0:0:0:0:
108,264,38220,1,0,0:0:0:0:
248,71,38378,5,8,0:0:0:0:
108,264,38536,1,2,0:0:0:0:
264,56,38694,5,8,0:0:0:0:
95,320,38852,1,2,0:0:0:0:
280,40,39010,5,8,0:0:0:0:
164,378,39168,1,2,0:0:0:0:
296,24,39326,5,8,0:0:0:0:
273,371,39484,1,2,0:0:0:0:
15,205,39641,5,8,0:0:0:0:
3,178,39719,1,0,0:0:0:0:
14,151,39798,1,0,0:0:0:0:
41,140,39877,1,0,0:0:0:0:
67,153,39957,1,8,0:0:0:0:
86,193,40035,1,0,0:0:0:0:
123,218,40114,1,0,0:0:0:0:
167,222,40193,1,0,0:0:0:0:
207,203,40273,5,8,0:0:0:0:
204,145,40351,1,0,0:0:0:0:
240,98,40430,1,0,0:0:0:0:
298,88,40509,1,8,0:0:0:0:
348,118,40589,1,0,0:0:0:0:
321,177,40667,1,0,0:0:0:0:
327,242,40746,1,8,0:0:0:0:
363,296,40825,1,0,0:0:0:0:
421,326,40905,6,0,B|388:344|388:344|324:336,1,88.000002685547,2|0,0:0|0:0,0:0:0:0:
192,296,41115,5,8,0:0:0:0:
86,193,41220,6,0,B|119:175|119:175|183:183,1,88.000002685547,2|0,0:0|0:0,0:0:0:0:
176,280,41431,6,0,L|136:240,1,44.0000013427735
15,205,41536,5,8,0:0:0:0:
108,108,41641,5,0,0:0:0:0:
236,152,41747,5,2,0:0:0:0:
160,264,41852,6,0,L|268:264,1,90,4|0,0:0|0:0,0:0:0:0:
268,288,42168,6,0,P|316:264|328:224,1,80,2|0,0:0|0:0,0:0:0:0:
320,144,42378,1,0,0:0:0:0:
255,37,42484,2,0,P|214:72|213:114,1,80
336,160,42694,1,0,0:0:0:0:
232,24,42799,6,0,P|202:68|212:109,1,80,2|0,0:0|0:0,0:0:0:0:
352,176,43010,1,0,0:0:0:0:
496,92,43115,2,0,P|494:52|468:23,1,80
368,192,43326,1,0,0:0:0:0:
499,305,43431,6,0,L|411:329,1,80,2|0,0:0|0:0,0:0:0:0:
268,288,43641,1,0,0:0:0:0:
112,328,43747,2,0,L|34:306,1,80
14,151,43957,1,0,0:0:0:0:
139,57,44062,6,0,L|124:112,1,40,2|0,0:0|0:0,0:0:0:0:
152,52,44168,6,0,L|151:109,1,40
180,36,44273,6,0,L|189:92,1,40
232,24,44378,6,0,L|246:79,1,40
288,24,44484,6,0,L|297:80,1,40
352,44,44589,6,0,L|351:101,1,40
420,76,44694,6,0,B|408:168,1,80,2|0,0:0|0:0,0:0:0:0:
258,216,44905,6,0,B|270:304,1,71.9999978027344,2|0,0:0|0:0,0:0:0:0:
432,263,45115,6,0,B|418:343,1,64,2|0,0:0|0:0,0:0:0:0:
327,199,45326,6,0,B|319:139,1,55.9999982910157
256,232,45536,6,0,B|261:174,1,47.9999985351563
208,236,45747,6,0,B|229:190,1,40
160,264,45957,5,0,3:0:0:0:
14,151,46168,5,0,3:0:0:0:
55,250,46378,5,0,3:0:0:0:
185,74,46589,6,0,B|136:178,1,105,4|0,0:0|0:0,0:0:0:0:
136,180,47220,6,0,B|168:112|168:112|88:112|88:112|64:168|64:168|59:207|79:265|148:269|204:258|215:165,1,450.000017166138,8|0,0:0|0:0,0:0:0:0:
224,160,47694,2,0,P|208:196|216:252,1,90.0000034332277,2|0,0:0|0:0,0:0:0:0:
384,348,47852,2,0,B|470:338|501:207|394:168|394:168|292:208|292:208|323:112|323:112|389:86|389:86|390:47|361:20|308:21,1,630.000024032594,4|0,0:0|0:0,0:0:0:0:
284,16,48484,6,0,L|255:109,1,90,2|0,3:0|0:0,0:0:0:0:
224,160,48799,5,0,0:0:0:0:
137,67,48957,1,0,0:0:0:0:
132,81,49035,1,0,0:0:0:0:
128,95,49114,1,4,0:0:0:0:
84,216,49273,1,0,0:0:0:0:
265,343,49431,1,0,0:0:0:0:
465,249,49589,1,0,0:0:0:0:
68,200,49747,6,0,B|45:314|45:314|103:366|103:366|144:160|144:160|193:201,1,450.000017166138,8|0,0:0|0:0,0:0:0:0:
212,200,50220,2,0,P|170:182|143:147,1,90.0000034332277,2|0,0:0|0:0,0:0:0:0:
328,22,50378,2,0,B|380:14|436:42|448:86|448:86|392:82|336:94|292:138|292:138|296:190|344:246|416:270|416:270|360:262|320:278|284:342,1,630.000024032594,4|0,0:0|0:0,0:0:0:0:
390,373,51010,6,0,B|313:407|255:407|214:348|223:293|223:293|244:284|260:264|264:240|264:240|227:188|214:136|240:83,1,450.000017166138,8|0,0:0|0:0,0:0:0:0:
281,53,51484,2,0,P|297:95|292:139,1,90.0000034332277,2|0,0:0|0:0,0:0:0:0:
53,348,51641,2,0,B|-2:239|6:128|80:55|80:55|147:127|147:239|85:349,1,630.000024032594,4|0,0:0|0:0,0:0:0:0:
88,360,52273,6,0,P|67:264|152:242,1,180.000006866455,8|0,0:0|0:0,0:0:0:0:
416,270,52589,1,0,0:0:0:0:
125,303,52747,1,2,0:0:0:0:
241,34,52905,6,0,B|234:93|234:93|284:168|284:168|273:254,1,210,4|0,0:0|0:0,0:0:0:0:
275,272,53536,6,0,L|295:125,1,135.000005149841,2|0,3:0|0:0,0:0:0:0:
316,108,53852,6,0,L|288:307,1,180,2|0,0:0|0:0,0:0:0:0:
368,316,54168,6,0,P|339:351|298:368,1,90.0000034332277,12|0,0:0|0:0,0:0:0:0:
88,360,54326,2,0,P|52:331|35:290,1,90.0000034332277
384,332,54484,2,0,P|347:359|303:365,1,90.0000034332277,8|0,0:0|0:0,0:0:0:0:
127,235,54641,2,0,P|110:192|115:148,1,90.0000034332277
328,22,54799,5,8,0:0:0:0:
416,270,54957,1,0,0:0:0:0:
115,149,55115,1,2,0:0:0:0:
444,121,55273,1,0,3:0:0:0:
467,158,55351,1,0,3:0:0:0:
470,203,55430,1,8,3:0:0:0:
451,243,55509,1,0,3:0:0:0:
415,270,55588,1,0,3:0:0:0:
184,24,55747,1,8,0:0:0:0:
227,358,55905,1,2,0:0:0:0:
54,84,56062,6,0,P|94:102|121:137,1,90.0000034332277,8|0,0:0|0:0,0:0:0:0:
159,304,56220,2,0,P|186:339|226:357,1,90.0000034332277
444,121,56378,2,0,P|408:148|390:188,1,90.0000034332277,8|0,0:0|0:0,0:0:0:0:
79,337,56536,2,0,P|123:330|159:304,1,90.0000034332277
257,101,56694,2,0,L|257:-11,1,90.0000034332277,8|0,0:0|0:0,0:0:0:0:
256,160,56852,6,0,L|256:128,1,26.9999991760254,4|0,0:0|0:0,0:0:0:0:
272,148,57168,1,4,3:0:0:0:
272,228,57247,1,4,3:0:0:0:
272,308,57326,5,8,0:0:0:0:
472,196,57484,1,0,0:0:0:0:
288,324,57641,1,2,0:0:0:0:
405,127,57799,1,0,0:0:0:0:
371,109,57877,1,0,0:0:0:0:
334,106,57956,1,8,0:0:0:0:
121,137,58115,1,0,0:0:0:0:
311,238,58273,1,2,0:0:0:0:
257,11,58431,1,0,0:0:0:0:
187,242,58589,5,8,0:0:0:0:
417,40,58747,1,0,0:0:0:0:
349,338,58905,2,0,P|280:368|200:340,1,150,2|0,0:0|0:0,0:0:0:0:
179,326,59142,1,0,0:0:0:0:
159,295,59220,1,8,0:0:0:0:
334,106,59378,1,0,0:0:0:0:
144,312,59536,1,2,0:0:0:0:
257,101,59694,1,0,0:0:0:0:
383,304,59852,5,10,0:0:0:0:
438,161,60010,1,2,0:0:0:0:
493,18,60168,1,2,0:0:0:0:
292,171,60326,1,0,0:0:0:0:
58,72,60484,2,0,B|128:47|128:47|216:71,1,150,8|0,0:0|0:0,0:0:0:0:
200,208,60720,1,0,0:0:0:0:
187,242,60799,2,0,B|113:261|113:261|43:236,1,150,2|0,0:0|0:0,0:0:0:0:
201,67,61115,5,8,0:0:0:0:
349,338,61273,1,8,3:0:0:0:
417,40,61431,2,0,B|380:92|380:92|408:176|408:176|348:268,1,225,4|0,3:0|0:0,0:0:0:0:
368,256,61747,1,8,0:0:0:0:
48,168,61905,1,0,0:0:0:0:
76,124,61984,2,0,L|153:97,1,75,8|0,0:0|0:0,0:0:0:0:
377,294,62141,1,0,0:0:0:0:
349,338,62220,2,0,L|272:365,1,75,10|0,0:0|0:0,0:0:0:0:
201,67,62378,5,8,0:0:0:0:
408,176,62536,1,0,0:0:0:0:
176,209,62694,1,2,0:0:0:0:
417,40,62852,1,0,0:0:0:0:
433,73,62931,1,0,0:0:0:0:
434,110,63009,1,8,0:0:0:0:
377,294,63168,1,0,0:0:0:0:
201,67,63326,1,2,0:0:0:0:
209,354,63484,1,0,0:0:0:0:
371,117,63641,5,8,0:0:0:0:
100,213,63799,1,0,0:0:0:0:
377,294,63957,1,2,0:0:0:0:
201,67,64115,1,0,0:0:0:0:
145,70,64194,1,0,0:0:0:0:
96,97,64272,1,8,0:0:0:0:
209,354,64431,1,0,0:0:0:0:
301,43,64589,1,2,0:0:0:0:
409,348,64747,1,0,0:0:0:0:
78,258,64905,6,0,P|68:236|64:212,1,45.0000017166138,8|0,0:0|0:0,0:0:0:0:
96,97,65062,2,0,P|110:77|128:61,1,45.0000017166138
226,193,65220,2,0,P|211:212|193:228,1,45.0000017166138,8|0,0:0|0:0,0:0:0:0:
100,60,65378,2,0,P|121:50|145:46,1,45.0000017166138
292,148,65536,2,0,P|302:169|306:193,1,45.0000017166138,8|0,0:0|0:0,0:0:0:0:
160,320,65694,2,0,P|150:298|146:274,1,45.0000017166138
308,132,65852,2,0,P|318:153|322:177,1,45.0000017166138,8|0,0:0|0:0,0:0:0:0:
144,336,66010,2,0,P|134:314|130:290,1,45.0000017166138
148,120,66168,5,0,3:0:0:0:
177,135,66246,1,0,3:0:0:0:
200,160,66325,1,0,3:0:0:0:
213,191,66404,1,0,3:0:0:0:
215,225,66484,1,0,3:0:0:0:
205,257,66562,1,0,3:0:0:0:
210,290,66641,1,0,3:0:0:0:
228,318,66720,1,0,3:0:0:0:
256,335,66799,6,0,P|312:328|344:288,1,90.0000034332277,8|0,0:0|0:0,0:0:0:0:
308,132,66957,1,0,0:0:0:0:
371,117,67036,2,0,P|398:151|401:195,1,90.0000034332277,8|0,0:0|0:0,0:0:0:0:
177,135,67194,1,0,0:0:0:0:
162,72,67273,2,0,P|196:44|240:41,1,90.0000034332277,8|0,0:0|0:0,0:0:0:0:
246,247,67431,6,0,L|212:288,3,45.0000017166138,2|0|0|0,0:0|0:0|0:0|0:0,0:0:0:0:
161,210,67747,2,0,L|111:228,3,45.0000017166138
107,136,68062,1,2,0:0:0:0:
113,115,68140,1,0,0:0:0:0:
124,96,68219,1,0,0:0:0:0:
141,81,68298,1,0,0:0:0:0:
162,72,68378,2,0,P|186:68|211:71,1,45.0000017166138
308,132,68536,2,0,P|323:150|333:173,1,45.0000017166138
335,305,68694,5,2,0:0:0:0:
344,325,68772,1,0,0:0:0:0:
359,342,68852,2,0,P|381:343|403:339,1,45.0000017166138
246,247,69010,1,0,0:0:0:0:
201,239,69088,1,0,0:0:0:0:
157,247,69167,1,0,0:0:0:0:
119,270,69246,1,0,0:0:0:0:
92,305,69326,5,2,0:0:0:0:
60,273,69404,1,0,0:0:0:0:
45,231,69483,1,0,0:0:0:0:
49,187,69562,1,0,0:0:0:0:
71,148,69641,1,0,0:0:0:0:
113,111,69719,1,0,0:0:0:0:
166,93,69798,1,0,0:0:0:0:
222,96,69877,1,0,0:0:0:0:
272,120,69957,5,2,0:0:0:0:
281,129,70035,1,0,0:0:0:0:
288,141,70114,1,0,0:0:0:0:
294,153,70193,1,0,0:0:0:0:
364,176,70273,5,2,0:0:0:0:
366,189,70351,1,0,0:0:0:0:
367,202,70430,1,0,0:0:0:0:
366,216,70509,1,0,0:0:0:0:
413,272,70589,5,2,0:0:0:0:
408,284,70667,1,0,0:0:0:0:
402,296,70746,1,0,0:0:0:0:
394,307,70825,1,0,0:0:0:0:
330,342,70905,6,0,P|305:339|282:330,1,45.0000017166138,2|0,0:0|0:0,0:0:0:0:
163,280,71062,2,0,P|141:272|119:270,1,45.0000017166138
63,164,71220,5,2,0:0:0:0:
71,148,71299,1,0,0:0:0:0:
136,140,71378,5,2,0:0:0:0:
147,126,71457,1,0,0:0:0:0:
212,135,71536,5,2,0:0:0:0:
226,125,71615,1,0,0:0:0:0:
287,151,71694,5,2,0:0:0:0:
303,144,71773,1,0,0:0:0:0:
355,184,71852,5,2,0:0:0:0:
373,182,71931,1,0,0:0:0:0:
387,193,72010,1,0,0:0:0:0:
360,268,72089,5,2,0:0:0:0:
333,271,72168,1,0,0:0:0:0:
312,254,72247,1,0,0:0:0:0:
214,211,72326,5,2,0:0:0:0:
178,239,72404,1,0,0:0:0:0:
163,280,72484,5,2,0:0:0:0:
177,237,72562,1,0,0:0:0:0:
172,193,72641,1,2,0:0:0:0:
147,156,72720,1,0,0:0:0:0:
57,319,72878,5,0,0:0:0:0:
70,337,72956,1,2,0:0:0:0:
104,366,73036,1,0,0:0:0:0:
145,383,73115,1,2,0:0:0:0:
212,381,73194,1,0,0:0:0:0:
270,348,73273,1,0,0:0:0:0:
147,156,73431,5,2,0:0:0:0:
160,137,73509,1,0,0:0:0:0:
194,108,73589,1,2,0:0:0:0:
235,92,73668,1,0,0:0:0:0:
302,93,73747,5,2,0:0:0:0:
306,137,73825,1,0,0:0:0:0:
333,173,73904,1,2,0:0:0:0:
373,190,73983,1,0,0:0:0:0:
436,106,74062,5,2,0:0:0:0:
465,139,74140,1,0,0:0:0:0:
448,264,74220,5,2,0:0:0:0:
407,286,74299,1,0,0:0:0:0:
362,280,74377,5,2,0:0:0:0:
318,289,74456,1,0,0:0:0:0:
280,312,74535,1,2,0:0:0:0:
241,290,74615,1,0,0:0:0:0:
198,281,74694,1,2,0:0:0:0:
158,261,74772,1,0,0:0:0:0:
135,223,74851,1,2,0:0:0:0:
136,178,74930,1,0,0:0:0:0:
160,141,75010,6,0,P|128:152|100:168,1,60,2|0,0:0|0:0,0:0:0:0:
224,360,75168,2,0,P|250:373|279:382,1,60,2|0,0:0|0:0,0:0:0:0:
448,264,75326,1,2,0:0:0:0:
448,234,75404,1,0,0:0:0:0:
435,175,75484,1,2,0:0:0:0:
403,125,75562,1,0,0:0:0:0:
328,77,75641,5,2,0:0:0:0:
276,105,75720,1,2,0:0:0:0:
160,141,75799,5,2,0:0:0:0:
212,168,75878,1,2,0:0:0:0:
328,228,75957,5,2,0:0:0:0:
275,255,76036,1,0,0:0:0:0:
222,282,76115,1,2,0:0:0:0:
169,309,76194,1,0,0:0:0:0:
92,250,76273,6,0,B|88:204|88:204|113:146,3,90.0000034332277,8|0|0|0,0:0|0:0|0:0|0:0,0:0:0:0:
48,104,76589,2,0,P|91:83|160:103,3,96,2|0|0|0,0:0|0:0|0:0|0:0,0:0:0:0:
212,128,76905,6,0,P|218:65|188:20,2,102.000001945496,8|0|0,0:0|0:0|0:0,0:0:0:0:
180,200,77141,2,0,P|174:263|213:317,2,107.999996704102,8|0|0,0:0|0:0|0:0,0:0:0:0:
220,120,77378,2,0,P|268:72|324:64,1,113.999996955872,2|0,0:0|0:0,0:0:0:0:
413,225,77536,6,0,B|369:213|369:213|313:233,3,90.0000034332277,8|0|0|0,0:0|0:0|0:0|0:0,0:0:0:0:
280,298,77852,2,0,B|238:312|238:312|194:300,3,90.0000034332277,8|0|0|0,0:0|0:0|0:0|0:0,0:0:0:0:
92,250,78168,2,0,P|72:198|92:134,1,90.0000034332277,8|0,0:0|0:0,0:0:0:0:
127,77,78326,1,0,0:0:0:0:
155,57,78405,2,0,P|207:37|271:57,1,90.0000034332277,8|0,0:0|0:0,0:0:0:0:
376,111,78562,1,0,0:0:0:0:
396,139,78641,6,0,B|416:176|416:176|412:248,3,90.0000034332277,8|0|0|0,0:0|0:0|0:0|0:0,0:0:0:0:
327,227,78957,2,0,P|324:271|343:312,1,90.0000034332277,8|0,0:0|0:0,0:0:0:0:
376,111,79115,2,0,B|388:67|388:67|368:11,3,90.0000034332277,8|0|0|0,0:0|0:0|0:0|0:0,0:0:0:0:
240,40,79431,2,0,P|237:84|256:125,1,90.0000034332277,8|0,0:0|0:0,0:0:0:0:
208,268,79589,1,0,0:0:0:0:
194,300,79668,2,0,P|173:339|137:365,1,90.0000034332277,8|0,0:0|0:0,0:0:0:0:
75,164,79826,1,0,0:0:0:0:
89,132,79905,2,0,P|109:92|145:66,1,90.0000034332277,8|0,0:0|0:0,0:0:0:0:
176,152,80062,6,0,B|208:184|208:184|251:192,3,90.0000034332277,8|0|0|0,0:0|0:0|0:0|0:0,0:0:0:0:
340,136,80378,2,0,B|383:143|383:143|415:176,3,90.0000034332277,8|0|0|0,0:0|0:0|0:0|0:0,0:0:0:0:
438,81,80694,2,0,P|412:44|372:24,1,90.0000034332277,8|0,0:0|0:0,0:0:0:0:
264,159,80852,1,0,0:0:0:0:
251,192,80931,2,0,P|243:235|257:278,1,90.0000034332277,8|0,0:0|0:0,0:0:0:0:
112,284,81089,1,0,0:0:0:0:
125,251,81168,6,0,B|136:208|136:208|120:165,3,90.0000034332277,8|0|0|0,0:0|0:0|0:0|0:0,0:0:0:0:
84,80,81484,1,8,3:0:0:0:
174,80,81562,1,8,3:0:0:0:
264,80,81641,2,0,B|305:99|305:99|327:137,3,90.0000034332277,8|0|0|0,0:0|0:0|0:0|0:0,0:0:0:0:
438,81,81957,2,0,P|440:125|421:166,1,90.0000034332277,8|0,0:0|0:0,0:0:0:0:
288,292,82115,1,0,0:0:0:0:
257,278,82194,2,0,P|223:248|208:206,1,90.0000034332277,8|0,0:0|0:0,0:0:0:0:
115,66,82352,1,0,0:0:0:0:
84,80,82431,2,0,P|50:109|35:151,1,90.0000034332277,8|0,0:0|0:0,0:0:0:0:
92,250,82589,6,0,B|133:269|133:269|155:307,3,90.0000034332277,8|0|0|0,0:0|0:0|0:0|0:0,0:0:0:0:
257,278,82905,2,0,B|279:239|279:239|320:220,3,90.0000034332277,8|0|0|0,0:0|0:0|0:0|0:0,0:0:0:0:
396,280,83220,2,0,P|414:239|412:194,1,90.0000034332277,8|0,0:0|0:0,0:0:0:0:
292,60,83378,1,0,0:0:0:0:
264,80,83457,2,0,P|220:72|177:86,1,90.0000034332277,8|0,0:0|0:0,0:0:0:0:
101,204,83615,1,0,0:0:0:0:
127,225,83694,6,0,B|128:270|128:270|154:306,3,90.0000034332277,8|0|0|0,0:0|0:0|0:0|0:0,0:0:0:0:
257,278,84010,2,0,P|238:237|240:192,1,90.0000034332277,8|0,0:0|0:0,0:0:0:0:
425,110,84168,2,0,B|431:155|431:155|411:194,3,90.0000034332277,8|0|0|0,0:0|0:0|0:0|0:0,0:0:0:0:
292,60,84484,2,0,P|289:104|308:145,1,90.0000034332277,8|0,0:0|0:0,0:0:0:0:
132,140,84641,1,0,0:0:0:0:
159,164,84720,2,0,P|196:188|240:192,1,90.0000034332277,8|0,0:0|0:0,0:0:0:0:
157,346,84878,1,0,0:0:0:0:
191,334,84957,2,0,P|230:313|256:277,1,90.0000034332277,8|0,0:0|0:0,0:0:0:0:
308,145,85115,5,8,0:0:0:0:
281,109,85193,1,0,0:0:0:0:
244,84,85272,1,0,0:0:0:0:
200,72,85351,1,0,0:0:0:0:
156,75,85431,5,8,0:0:0:0:
119,122,85509,1,0,0:0:0:0:
97,177,85588,1,0,0:0:0:0:
93,236,85667,1,0,0:0:0:0:
106,294,85747,6,0,P|148:307|192:300,1,90.0000034332277,8|0,0:0|0:0,0:0:0:0:
348,216,85905,1,0,0:0:0:0:
394,151,85984,2,0,P|351:137|307:144,1,90.0000034332277,8|0,0:0|0:0,0:0:0:0:
143,112,86141,1,0,0:0:0:0:
97,177,86220,2,0,P|139:190|183:183,1,90.0000034332277,8|0,0:0|0:0,0:0:0:0:
380,56,86378,5,8,3:0:0:0:
264,180,86484,1,0,3:0:0:0:
416,176,86589,1,0,3:0:0:0:
412,24,86694,5,8,3:0:0:0:
291,114,86799,1,0,3:0:0:0:
408,168,86905,1,0,3:0:0:0:
396,40,87010,5,8,3:0:0:0:
323,88,87115,1,0,3:0:0:0:
402,159,87220,1,0,3:0:0:0:
260,28,87326,6,0,P|276:72|260:120,1,80,4|0,0:0|0:0,0:0:0:0:
107,102,87641,5,0,3:0:0:0:
91,138,87746,1,0,3:0:0:0:
97,177,87851,1,0,3:0:0:0:
183,182,87957,5,0,3:0:0:0:
189,220,88062,1,0,3:0:0:0:
173,257,88167,1,0,3:0:0:0:
96,296,88273,5,0,3:0:0:0:
100,334,88378,1,0,3:0:0:0:
125,365,88483,1,0,3:0:0:0:
252,356,88589,6,0,P|236:312|252:264,1,80,4|0,0:0|0:0,0:0:0:0:
405,282,88905,5,0,3:0:0:0:
421,246,89010,1,0,3:0:0:0:
415,207,89115,1,0,3:0:0:0:
329,202,89221,5,0,3:0:0:0:
323,164,89326,1,0,3:0:0:0:
339,127,89431,1,0,3:0:0:0:
416,88,89537,5,0,3:0:0:0:
412,50,89642,1,0,3:0:0:0:
387,19,89747,1,0,3:0:0:0:
260,28,89852,6,0,P|276:72|260:120,1,80,4|0,0:0|0:0,0:0:0:0:
107,102,90168,5,0,3:0:0:0:
91,138,90273,1,0,3:0:0:0:
97,177,90378,1,0,3:0:0:0:
183,182,90484,5,0,3:0:0:0:
189,220,90589,1,0,3:0:0:0:
173,257,90694,1,0,3:0:0:0:
96,296,90800,5,0,3:0:0:0:
100,334,90905,1,0,3:0:0:0:
125,365,91010,1,0,3:0:0:0:
252,356,91116,6,0,P|236:312|252:264,1,80,4|0,0:0|0:0,0:0:0:0:
405,282,91432,5,0,3:0:0:0:
421,246,91537,1,0,3:0:0:0:
415,207,91642,1,0,3:0:0:0:
329,202,91748,5,0,3:0:0:0:
323,164,91853,1,0,3:0:0:0:
339,127,91958,1,0,3:0:0:0:
416,88,92062,5,0,3:0:0:0:
412,24,92169,1,0,3:0:0:0:
336,26,92273,1,0,3:0:0:0:
260,28,92379,6,0,P|276:72|260:120,1,80,4|0,0:0|0:0,0:0:0:0:
153,111,92694,6,0,P|161:157|199:190,1,80,4|0,0:0|0:0,0:0:0:0:
272,192,92905,1,0,0:0:0:0:
242,280,93010,5,8,0:0:0:0:
334,262,93115,1,0,0:0:0:0:
303,350,93220,1,0,0:0:0:0:
395,332,93326,6,0,P|419:300|424:261,1,80,4|0,0:0|0:0,0:0:0:0:
396,144,93536,1,0,0:0:0:0:
272,192,93641,5,8,0:0:0:0:
292,60,93747,1,0,0:0:0:0:
168,109,93852,1,0,0:0:0:0:
148,241,93957,6,0,P|117:276|68:287,1,80,4|0,0:0|0:0,0:0:0:0:
153,111,94168,1,0,0:0:0:0:
164,256,94273,5,8,0:0:0:0:
240,132,94378,1,0,0:0:0:0:
251,276,94484,1,0,0:0:0:0:
326,153,94589,6,0,P|328:113|309:78,1,80,4|0,0:0|0:0,0:0:0:0:
138,113,94799,1,0,0:0:0:0:
87,287,94905,5,8,0:0:0:0:
202,357,95010,1,0,0:0:0:0:
320,292,95115,1,0,0:0:0:0:
322,157,95220,6,0,P|313:118|286:89,1,80,4|0,0:0|0:0,0:0:0:0:
167,132,95431,1,0,0:0:0:0:
129,263,95537,5,8,0:0:0:0:
215,315,95642,1,0,0:0:0:0:
304,266,95747,1,0,0:0:0:0:
318,161,95852,6,0,P|300:125|266:104,1,80,4|0,0:0|0:0,0:0:0:0:
152,134,96089,1,0,0:0:0:0:
240,181,96168,5,8,0:0:0:0:
176,221,96273,1,0,0:0:0:0:
220,220,96378,1,0,0:0:0:0:
199,234,96484,5,14,0:0:0:0:
496,364,97431,5,4,3:0:0:0:
16,364,97747,5,8,0:0:0:0:
144,284,97905,2,0,L|124:164,1,120
160,300,98220,1,0,0:0:0:0:
284,257,98378,1,8,0:0:0:0:
201,156,98536,2,0,L|221:36,1,120
185,172,98852,1,0,0:0:0:0:
61,215,99010,5,8,0:0:0:0:
284,257,99168,2,0,L|264:137,1,120
300,273,99483,1,0,0:0:0:0:
316,289,99562,1,0,0:0:0:0:
332,305,99641,1,8,0:0:0:0:
432,105,99799,1,0,0:0:0:0:
400,137,99878,1,0,0:0:0:0:
368,169,99957,1,8,0:0:0:0:
220,37,100115,1,0,0:0:0:0:
61,215,100273,5,8,0:0:0:0:
239,374,100431,1,0,0:0:0:0:
399,196,100589,1,2,0:0:0:0:
150,294,100747,1,0,0:0:0:0:
409,361,100905,5,8,0:0:0:0:
432,105,101062,1,0,0:0:0:0:
300,300,101220,1,2,0:0:0:0:
447,89,101377,1,0,0:0:0:0:
193,193,101536,5,8,0:0:0:0:
16,20,101694,1,0,0:0:0:0:
416,9,101852,2,0,B|396:36|396:80|424:112|424:112|392:144|384:180|408:236,1,225,2|0,0:0|0:0,0:0:0:0:
408,248,102168,1,8,0:0:0:0:
267,62,102326,1,0,0:0:0:0:
220,37,102405,2,0,L|139:52,1,75,8|0,0:0|0:0,0:0:0:0:
61,215,102562,1,0,0:0:0:0:
99,251,102641,2,0,L|180:257,1,75,10|0,0:0|0:0,0:0:0:0:
472,176,102799,5,8,0:0:0:0:
193,193,102957,1,0,0:0:0:0:
428,343,103115,1,2,0:0:0:0:
267,62,103273,1,0,0:0:0:0:
120,359,103431,5,8,0:0:0:0:
399,196,103589,1,0,0:0:0:0:
136,52,103747,1,2,0:0:0:0:
416,212,103905,1,0,0:0:0:0:
40,202,104062,5,8,0:0:0:0:
322,51,104220,1,0,0:0:0:0:
120,359,104378,1,2,0:0:0:0:
181,126,104537,1,0,0:0:0:0:
215,138,104616,1,0,0:0:0:0:
243,164,104694,1,8,0:0:0:0:
428,343,104852,1,0,0:0:0:0:
322,51,105010,1,2,0:0:0:0:
236,349,105168,1,0,0:0:0:0:
130,57,105326,5,10,0:0:0:0:
279,200,105484,1,2,0:0:0:0:
428,343,105641,1,2,0:0:0:0:
478,143,105799,1,0,0:0:0:0:
236,349,105957,5,8,0:0:0:0:
204,128,106115,1,0,0:0:0:0:
425,96,106273,1,2,0:0:0:0:
457,317,106431,1,0,0:0:0:0:
157,249,106589,5,8,0:0:0:0:
304,49,106747,1,0,0:0:0:0:
477,214,106905,1,2,0:0:0:0:
144,236,107062,1,0,0:0:0:0:
425,96,107220,1,8,0:0:0:0:
61,305,107378,6,0,L|61:197,1,90,2|0,3:0|0:0,0:0:0:0:
48,200,107694,6,0,L|48:328,1,120,4|0,1:0|0:0,0:0:0:0:
236,349,107852,6,0,P|268:317|280:256,1,90.0000034332277,8|0,0:0|0:0,0:0:0:0:
205,41,108010,2,0,P|193:84|213:143,1,90.0000034332277
488,169,108168,2,0,P|476:125|429:84,1,90.0000034332277,4|0,0:0|0:0,0:0:0:0:
132,236,108326,1,0,0:0:0:0:
163,267,108404,1,0,0:0:0:0:
205,280,108484,2,0,P|250:279|301:245,1,90.0000034332277,8|0,0:0|0:0,0:0:0:0:
352,68,108641,2,0,P|306:68|255:102,1,90.0000034332277
62,218,108799,2,0,P|50:261|70:320,1,90.0000034332277,4|0,0:0|0:0,0:0:0:0:
364,300,108957,2,0,P|373:256|362:213,1,90.0000034332277
132,128,109115,6,0,P|122:84|133:41,1,90.0000034332277,8|0,0:0|0:0,0:0:0:0:
421,151,109273,2,0,P|398:189|361:213,1,90.0000034332277
49,20,109431,2,0,P|93:19|133:40,1,90.0000034332277,4|0,0:0|0:0,0:0:0:0:
205,280,109589,1,0,0:0:0:0:
182,241,109667,1,0,0:0:0:0:
180,196,109747,2,0,P|193:153|224:122,1,90.0000034332277,8|0,0:0|0:0,0:0:0:0:
432,324,109905,2,0,P|408:361|369:383,1,90.0000034332277
140,142,110062,2,0,P|179:121|224:121,1,90.0000034332277,4|0,0:0|0:0,0:0:0:0:
100,372,110220,2,0,P|56:381|13:370,1,90.0000034332277
20,132,110378,5,8,3:0:0:0:
85,71,110456,1,8,3:0:0:0:
170,43,110535,1,8,3:0:0:0:
259,53,110614,1,8,3:0:0:0:
335,99,110694,6,0,P|356:137|394:162,1,90.0000034332277,4|0,0:0|0:0,0:0:0:0:
364,300,110852,2,0,P|325:322|281:325,1,90.0000034332277
20,132,111010,2,0,P|58:109|102:106,1,90.0000034332277,8|0,0:0|0:0,0:0:0:0:
224,352,111168,1,0,0:0:0:0:
192,356,111247,2,0,P|153:334|128:296,1,90.0000034332277,8|0,0:0|0:0,0:0:0:0:
192,125,111405,1,0,0:0:0:0:
224,121,111484,2,0,P|262:142|287:180,1,90.0000034332277,12|0,0:0|0:0,0:0:0:0:
20,244,111641,6,0,P|44:206|83:184,1,90.0000034332277,8|0,0:0|0:0,0:0:0:0:
308,264,111799,2,0,P|346:242|371:204,1,90.0000034332277,2|0,0:0|0:0,0:0:0:0:
83,22,111957,2,0,P|82:66|102:106,1,90.0000034332277,4|0,0:0|0:0,0:0:0:0:
292,280,112115,1,8,3:0:0:0:
375,308,112193,1,8,3:0:0:0:
453,270,112273,2,0,P|475:231|478:187,1,90.0000034332277,8|0,0:0|0:0,0:0:0:0:
290,64,112431,1,0,0:0:0:0:
224,121,112511,2,0,P|211:163|221:207,1,90.0000034332277,8|0,0:0|0:0,0:0:0:0:
20,244,112668,1,0,0:0:0:0:
36,329,112748,2,0,P|67:360|109:374,1,90.0000034332277,12|0,0:0|0:0,0:0:0:0:
384,204,112905,6,0,P|347:177|303:171,1,90.0000034332277,8|0,0:0|0:0,0:0:0:0:
83,22,113062,2,0,P|124:6|168:11,1,90.0000034332277
480,112,113220,2,0,P|438:127|394:122,1,90.0000034332277,4|0,0:0|0:0,0:0:0:0:
148,107,113378,1,0,0:0:0:0:
102,106,113456,1,0,0:0:0:0:
62,127,113536,2,8,P|31:159|19:202,1,90.0000034332277,8|0,0:0|0:0,0:0:0:0:
224,352,113694,2,0,P|267:362|310:350,1,90.0000034332277
148,107,113852,2,0,P|126:146|126:190,1,90.0000034332277,4|0,0:0|0:0,0:0:0:0:
375,308,114010,2,0,P|419:306|457:284,1,90.0000034332277
512,44,114168,6,0,L|388:52,1,90.0000034332277,8|0,0:0|0:0,0:0:0:0:
37,185,114326,2,0,L|161:193,1,90.0000034332277
500,368,114484,2,0,L|376:376,1,90.0000034332277,4|0,0:0|0:0,0:0:0:0:
120,372,114641,1,0,0:0:0:0:
91,323,114719,1,0,0:0:0:0:
88,269,114799,2,0,P|103:217|140:180,1,90.0000034332277,8|0,0:0|0:0,0:0:0:0:
422,49,114957,1,0,0:0:0:0:
452,100,115035,1,0,0:0:0:0:
455,157,115115,2,0,P|438:211|399:250,1,90.0000034332277,4|0,0:0|0:0,0:0:0:0:
8,40,115273,1,2,0:0:0:0:
273,27,115431,5,8,0:0:0:0:
310,50,115509,1,0,0:0:0:0:
331,89,115588,1,0,0:0:0:0:
328,134,115667,1,0,0:0:0:0:
303,171,115747,1,8,0:0:0:0:
253,214,115825,1,0,0:0:0:0:
238,279,115905,1,0,0:0:0:0:
252,320,115983,1,0,0:0:0:0:
233,360,116062,5,8,0:0:0:0:
148,355,116140,1,0,0:0:0:0:
120,275,116220,1,0,0:0:0:0:
133,189,116298,1,0,0:0:0:0:
74,125,116378,1,8,0:0:0:0:
23,98,116456,1,0,0:0:0:0:
20,41,116535,1,0,0:0:0:0:
67,8,116614,1,0,0:0:0:0:
120,30,116694,5,8,0:0:0:0:
152,97,116772,1,0,0:0:0:0:
215,137,116852,2,0,L|236:88,1,37.5,4|0,3:0|0:0,0:0:0:0:
289,140,116930,1,0,0:0:0:0:
353,104,117010,2,0,L|367:138,1,37.5,4|0,3:0|0:0,0:0:0:0:
414,64,117089,1,0,0:0:0:0:
484,84,117168,1,0,0:0:0:0:
512,149,117247,1,0,0:0:0:0:
496,260,117326,5,8,3:0:0:0:
449,314,117404,1,0,0:0:0:0:
377,309,117483,1,2,0:0:0:0:
269,214,117562,5,8,3:0:0:0:
177,206,117641,1,2,0:0:0:0:
120,275,117719,1,0,0:0:0:0:
74,125,117799,5,8,3:0:0:0:
131,56,117877,1,2,0:0:0:0:
120,30,117957,5,2,3:0:0:0:
256,192,118036,12,0,122378,0:0:0:0:
