osu file format v14

[General]
AudioFilename: audio.mp3
AudioLeadIn: 0
PreviewTime: 47146
Countdown: 1
SampleSet: Normal
StackLeniency: 0.2
Mode: 0
LetterboxInBreaks: 0
WidescreenStoryboard: 1

[Editor]
Bookmarks: 42278,42962,66804,67436,76278,77541,86383,87225,96489
DistanceSpacing: 0.6
BeatDivisor: 6
GridSize: 8
TimelineZoom: 1.7

[Metadata]
Title:Sweet Requiem
TitleUnicode:Sweet Requiem
Artist:REDALiCE vs. aran
ArtistUnicode:REDALiCE vs. aran
Creator:Shikinotsu
Version:tiev
Source:
Tags:
BeatmapID:1356358
BeatmapSetID:639532

[Difficulty]
HPDrainRate:6
CircleSize:4
OverallDifficulty:8
ApproachRate:9.5
SliderMultiplier:1.9
SliderTickRate:1

[Events]
//Background and Video events
0,0,"__hakurei_reimu_touhou_drawn_by_echoes_cassandratree__01c8af060f43c1ddab394339b6d744e4.jpg",0,0
//Break Periods
//Storyboard Layer 0 (Background)
//Storyboard Layer 1 (Fail)
//Storyboard Layer 2 (Pass)
//Storyboard Layer 3 (Foreground)
//Storyboard Sound Samples

[TimingPoints]
173,315.789473684211,4,2,0,100,1,0
489,-100,4,1,0,80,0,0
646,-200,4,1,0,100,0,0
725,-200,4,2,0,5,0,0
804,-166.666666666667,4,1,0,100,0,0
883,-166.666666666667,4,2,0,20,0,0
962,-142.857142857143,4,1,0,100,0,0
1041,-142.857142857143,4,2,0,40,0,0
1120,-125,4,1,0,100,0,0
1199,-125,4,2,0,60,0,0
1278,-111.111111111111,4,1,0,100,0,0
1357,-111.111111111111,4,2,0,80,0,0
1436,-100,4,1,0,100,0,0
5541,-100,4,1,0,100,0,0
5620,-100,4,2,0,5,0,0
5699,-100,4,1,0,100,0,0
5778,-100,4,2,0,5,0,0
5857,-100,4,1,0,100,0,0
5936,-100,4,2,0,5,0,0
6015,-100,4,1,0,100,0,0
6094,-100,4,2,0,5,0,0
6173,-100,4,1,0,100,0,0
6251,-100,4,2,0,5,0,0
6330,-100,4,1,0,100,0,0
6409,-100,4,2,0,5,0,0
6488,-100,4,1,0,100,0,0
10594,-133.333333333333,4,2,0,100,0,0
11857,-100,4,1,0,100,0,0
15646,-100,4,1,0,100,0,0
15725,-100,4,2,0,5,0,0
15804,-100,4,1,0,100,0,0
15883,-100,4,2,0,5,0,0
15962,-100,4,1,0,100,0,0
16041,-100,4,2,0,5,0,0
16120,-100,4,1,0,100,0,0
16199,-100,4,2,0,5,0,0
16278,-100,4,1,0,100,0,0
16357,-100,4,2,0,5,0,0
16436,-100,4,1,0,100,0,0
16515,-100,4,2,0,5,0,0
16594,-100,4,1,0,100,0,0
21015,-100,4,1,0,80,0,0
21330,-100,4,1,0,50,0,0
21646,-100,4,1,0,30,0,0
21962,-100,4,2,0,100,0,0
25751,-200,4,2,0,100,0,0
25752,-200,4,2,0,100,0,0
25909,-200,4,2,0,5,0,0
25988,-200,4,2,0,100,0,0
26146,-200,4,2,0,5,0,0
26225,-200,4,2,0,100,0,0
26383,-200,4,2,0,5,0,0
26462,-200,4,2,0,100,0,0
26620,-200,4,2,0,5,0,0
26699,-200,4,2,0,100,0,0
26857,-200,4,2,0,5,0,0
27015,-200,4,2,0,100,0,0
30488,-200,4,2,0,60,0,0
30567,-200,4,2,0,70,0,0
30646,-200,4,2,0,80,0,0
30725,-200,4,2,0,90,0,0
30804,-200,4,2,0,100,0,0
32067,-133.333333333333,4,2,0,100,0,0
35699,-133.333333333333,4,2,0,90,0,0
36015,-133.333333333333,4,2,0,80,0,0
36330,-133.333333333333,4,2,0,70,0,0
36646,-133.333333333333,4,2,0,60,0,0
37120,-133.333333333333,4,2,0,100,0,0
44857,-133.333333333333,4,2,0,5,0,0
44909,-133.333333333333,4,2,0,90,0,0
45067,-133.333333333333,4,2,0,5,0,0
45120,-133.333333333333,4,2,0,80,0,0
45330,-133.333333333333,4,2,0,70,0,0
45488,-133.333333333333,4,2,0,5,0,0
45541,-133.333333333333,4,2,0,60,0,0
45699,-133.333333333333,4,2,0,5,0,0
45751,-133.333333333333,4,2,0,50,0,0
45962,-133.333333333333,4,2,0,40,0,0
46594,-133.333333333333,4,2,0,100,0,0
48488,-133.333333333333,4,1,0,70,0,0
49751,-133.333333333333,4,1,0,100,0,0
52515,-133.333333333333,4,1,0,5,0,0
52594,-133.333333333333,4,1,0,100,0,0
52830,-133.333333333333,4,1,0,5,0,0
52909,-133.333333333333,4,1,0,100,0,0
56067,-100,4,1,0,100,0,0
57330,-100,4,1,0,100,0,1
58120,-100,4,1,0,5,0,1
58199,-100,4,1,0,100,0,1
58357,-100,4,1,0,5,0,1
58436,-100,4,1,0,100,0,1
58515,-100,4,1,0,5,0,1
58594,-100,4,1,0,100,0,1
59067,-100,4,1,0,5,0,1
59173,-100,4,1,0,100,0,1
59383,-100,4,1,0,5,0,1
59436,-100,4,1,0,100,0,1
59620,-100,4,1,0,5,0,1
59699,-100,4,1,0,100,0,1
59778,-100,4,1,0,5,0,1
59857,-100,4,1,0,100,0,1
61673,-100,4,1,0,5,0,1
61751,-100,4,1,0,100,0,1
61909,-100,4,1,0,5,0,1
61988,-100,4,1,0,100,0,1
62146,-100,4,1,0,5,0,1
62225,-100,4,1,0,100,0,1
62304,-100,4,1,0,5,0,1
62383,-100,4,1,0,100,0,1
64909,-100,4,1,0,80,0,0
67436,-200,4,2,0,70,0,0
68383,-200,4,2,0,60,0,0
68699,-200,4,2,0,50,0,0
69015,-200,4,2,0,60,0,0
69330,-200,4,2,0,70,0,0
70594,-200,4,2,0,70,0,0
70909,-200,4,2,0,60,0,0
71225,-200,4,2,0,50,0,0
71541,-200,4,2,0,40,0,0
71857,-200,4,2,0,50,0,0
72173,-200,4,2,0,60,0,0
72488,-200,4,2,0,80,0,0
73751,-200,4,2,0,90,0,0
74067,-200,4,2,0,80,0,0
74383,-200,4,2,0,70,0,0
74699,-200,4,2,0,60,0,0
75015,-200,4,2,0,50,0,0
75330,-200,4,2,0,70,0,0
75646,-200,4,2,0,90,0,0
75962,-200,4,2,0,100,0,0
76278,-200,4,2,0,100,0,0
76515,-200,4,2,0,5,0,0
76594,-200,4,2,0,100,0,0
76830,-200,4,2,0,5,0,0
76910,-133.333333333333,4,2,0,100,0,0
77067,-133.333333333333,4,2,0,5,0,0
77146,-133.333333333333,4,2,0,100,0,0
77304,-133.333333333333,4,2,0,5,0,0
77385,-100,4,2,0,100,0,0
77462,-100,4,2,0,5,0,0
77541,-100,4,1,0,100,0,0
87541,-100,4,2,0,5,0,0
87646,-100,4,2,0,60,0,0
88804,-100,4,2,0,5,0,0
88909,-100,4,2,0,60,0,0
90067,-100,4,2,0,5,0,0
90173,-100,4,2,0,60,0,0
91330,-100,4,2,0,5,0,0
91436,-100,4,2,0,60,0,0
92594,-100,4,2,0,5,0,0
92699,-100,4,2,0,60,0,0
93330,-100,4,2,0,70,0,0
93962,-100,4,2,0,80,0,0
94594,-100,4,2,0,90,0,0
95225,-200,4,2,0,100,0,0
96488,-200,4,2,0,40,0,0
97015,-400,4,2,0,40,0,0
97752,-100,4,1,0,100,0,0
100278,-100,4,1,0,100,0,1
101857,-133.333333333333,4,1,0,100,0,1
102094,-133.333333333333,4,1,0,5,0,1
102173,-133.333333333333,4,1,0,100,0,1
102330,-133.333333333333,4,1,0,5,0,1
102383,-133.333333333333,4,1,0,100,0,1
102541,-133.333333333333,4,1,0,5,0,1
102594,-133.333333333333,4,1,0,100,0,1
102699,-133.333333333333,4,1,0,5,0,1
102804,-100,4,1,0,100,0,1
104067,-133.333333333333,4,1,0,100,0,1
106752,-100,4,1,0,100,0,1
107383,-66.6666666666667,4,1,0,100,0,1
107462,-66.6666666666667,4,1,0,5,0,1
107857,-133.333333333333,4,1,0,100,0,1
108094,-133.333333333333,4,1,0,5,0,1
108173,-133.333333333333,4,1,0,100,0,1
108409,-133.333333333333,4,1,0,5,0,1
108488,-133.333333333333,4,1,0,100,0,1
108646,-133.333333333333,4,1,0,5,0,1
108699,-133.333333333333,4,1,0,100,0,1
108857,-133.333333333333,4,1,0,5,0,1
108909,-133.333333333333,4,1,0,100,0,1
109041,-133.333333333333,4,1,0,5,0,1
109120,-133.333333333333,4,1,0,100,0,1
109673,-133.333333333333,4,1,0,5,0,1
109751,-133.333333333333,4,1,0,100,0,1
109909,-133.333333333333,4,1,0,5,0,1
109962,-133.333333333333,4,1,0,100,0,1
110120,-133.333333333333,4,1,0,5,0,1
110173,-133.333333333333,4,1,0,100,0,1
110278,-133.333333333333,4,1,0,5,0,1
110383,-133.333333333333,4,1,0,100,0,1
111173,-133.333333333333,4,1,0,5,0,1
111251,-133.333333333333,4,1,0,100,0,1
111409,-133.333333333333,4,1,0,5,0,1
111488,-133.333333333333,4,1,0,100,0,1
112436,-133.333333333333,4,1,0,5,0,1
112488,-133.333333333333,4,1,0,100,0,1
112646,-133.333333333333,4,1,0,5,0,1
112699,-133.333333333333,4,1,0,100,0,1
112804,-133.333333333333,4,1,0,5,0,1
112909,-133.333333333333,4,1,0,100,0,1
115436,-100,4,1,0,100,0,1
118041,-100,4,2,0,5,0,0

[Colours]
Combo1 : 40,40,255
Combo2 : 255,40,148
Combo3 : 128,128,255

[HitObjects]
64,200,489,5,4,1:0:0:0:
280,336,646,2,0,L|288:296,1,23.75
216,256,804,2,0,L|207:215,1,28.4999991302491
320,200,962,2,0,L|335:158,1,33.2499989852906
172,148,1120,2,0,L|156:105,1,33.2499989852906
376,84,1278,2,0,L|398:45,1,42.7499986953736
112,32,1436,6,0,B|60:76|60:76|84:148,1,142.5
104,188,1752,1,0,0:0:0:0:
316,260,1910,2,0,L|327:354,1,95,2|0,0:0|0:0,0:0:0:0:
402,287,2225,1,0,0:0:0:0:
104,188,2383,2,0,L|92:92,1,95,2|0,0:0|0:0,0:0:0:0:
12,172,2699,1,0,0:0:0:0:
268,116,2857,6,0,L|256:20,1,95,2|0,0:0|0:0,0:0:0:0:
104,188,3173,2,0,L|115:282,1,95,2|0,0:0|0:0,0:0:0:0:
297,351,3489,1,0,0:0:0:0:
440,188,3646,2,0,L|428:92,1,95,2|0,0:0|0:0,0:0:0:0:
268,116,3962,1,0,0:0:0:0:
440,188,4120,6,0,L|448:260,1,47.5
456,340,4278,1,2,0:0:0:0:
232,160,4436,1,8,0:0:0:0:
88,252,4594,2,0,L|99:346,1,95
12,306,4910,1,2,0:0:0:0:
232,160,5067,2,0,L|220:65,1,95
80,24,5383,1,0,0:0:0:0:
196,345,5541,6,0,P|229:346|262:331,1,47.5,2|0,1:0|0:0,0:0:0:0:
232,160,5699,2,0,P|199:159|166:174,1,47.5,2|0,0:0|0:0,0:0:0:0:
140,306,5857,2,0,P|162:330|196:342,1,47.5,2|0,0:0|0:0,0:0:0:0:
296,200,6015,2,0,P|273:175|239:163,1,47.5,2|0,0:0|0:0,0:0:0:0:
125,234,6173,2,0,P|124:267|139:300,1,47.5,2|0,0:0|0:0,0:0:0:0:
310,269,6331,2,0,P|311:235|296:202,1,47.5,2|0,0:0|0:0,0:0:0:0:
72,36,6489,6,0,L|44:254,1,190,10|0,0:0|0:0,0:0:0:0:
356,256,6962,2,0,L|444:222,1,95,2|0,0:0|0:0,0:0:0:0:
344,160,7278,1,0,0:0:0:0:
184,220,7436,2,0,L|56:268,1,95,2|0,0:0|0:0,0:0:0:0:
220,324,7752,1,0,0:0:0:0:
144,104,7910,6,0,L|55:137,1,95,2|0,0:0|0:0,0:0:0:0:
184,220,8225,2,0,L|274:189,1,95,2|0,0:0|0:0,0:0:0:0:
368,24,8541,1,0,0:0:0:0:
372,324,8699,2,0,L|281:354,1,95,2|0,0:0|0:0,0:0:0:0:
184,220,9015,2,0,L|93:250,1,95
40,332,9331,5,8,2:0:0:0:
116,308,9489,1,8,2:0:0:0:
152,128,9646,1,8,2:0:0:0:
103,191,9804,1,8,2:0:0:0:
56,352,9962,5,8,2:0:0:0:
126,315,10120,1,8,2:0:0:0:
130,131,10277,1,8,2:0:0:0:
93,202,10435,1,8,2:0:0:0:
72,360,10594,6,0,L|56:316,1,35.625001358986,8|0,0:0|0:0,0:0:0:0:
134,311,10752,2,0,L|118:267,1,35.625001358986,8|0,0:0|0:0,0:0:0:0:
106,129,10910,2,0,L|144:155,1,35.625001358986,8|0,0:0|0:0,0:0:0:0:
83,204,11068,2,0,L|121:230,1,35.625001358986,8|0,0:0|0:0,0:0:0:0:
136,312,11225,6,0,L|280:328,1,142.500005435944,0|2,0:0|0:0,0:0:0:0:
344,304,11620,1,2,0:0:0:0:
326,300,11699,1,0,0:0:0:0:
164,280,11857,5,0,0:0:0:0:
460,240,12015,2,0,L|365:216,1,95,2|0,0:0|0:0,0:0:0:0:
374,352,12331,1,0,0:0:0:0:
368,104,12489,2,0,L|273:80,1,95,2|0,0:0|0:0,0:0:0:0:
188,136,12804,1,0,0:0:0:0:
281,328,12962,6,0,L|373:351,1,95,2|0,0:0|0:0,0:0:0:0:
188,136,13278,2,0,L|93:112,1,95,2|0,0:0|0:0,0:0:0:0:
0,134,13594,1,0,0:0:0:0:
244,72,13752,2,0,L|339:48,1,95,2|0,0:0|0:0,0:0:0:0:
440,24,14067,1,0,0:0:0:0:
396,292,14225,6,0,L|333:307,1,47.5,8|0,2:0|0:0,0:0:0:0:
268,324,14383,2,0,L|205:339,1,47.5,8|0,2:0|0:0,0:0:0:0:
140,356,14541,1,0,0:0:0:0:
312,180,14699,1,8,0:0:0:0:
24,96,14857,2,0,L|134:68,1,95,0|2,0:0|0:0,0:0:0:0:
239,136,15173,1,0,0:0:0:0:
48,191,15331,1,0,0:0:0:0:
120,348,15489,1,0,0:0:0:0:
48,191,15646,6,0,P|33:209|24:240,1,47.5,2|0,0:0|0:0,0:0:0:0:
182,321,15804,2,0,P|196:302|204:280,1,47.5,2|0,0:0|0:0,0:0:0:0:
20,256,15962,2,0,P|22:279|31:301,1,47.5,2|0,0:0|0:0,0:0:0:0:
209,252,16120,2,0,P|206:228|196:207,1,47.5,2|0,0:0|0:0,0:0:0:0:
53,324,16278,2,0,P|71:338|93:346,1,47.5,2|0,0:0|0:0,0:0:0:0:
183,189,16436,2,0,P|164:174|142:166,1,47.5,2|0,1:0|0:0,0:0:0:0:
31,363,16594,6,0,L|218:314,1,190,10|8,0:0|0:0,0:0:0:0:
283,297,17067,1,0,0:0:0:0:
351,278,17225,1,0,0:0:0:0:
419,259,17383,1,0,0:0:0:0:
487,240,17541,1,0,0:0:0:0:
419,259,17699,1,0,0:0:0:0:
351,278,17857,1,0,0:0:0:0:
283,297,18015,1,0,0:0:0:0:
292,85,18173,5,8,0:0:0:0:
224,104,18331,1,0,0:0:0:0:
156,123,18489,1,0,0:0:0:0:
88,142,18647,1,0,0:0:0:0:
20,161,18805,1,0,0:0:0:0:
88,142,18963,1,0,0:0:0:0:
156,123,19121,1,0,0:0:0:0:
224,104,19279,1,0,0:0:0:0:
442,42,19436,5,12,0:0:0:0:
435,69,19515,1,0,0:0:0:0:
427,96,19594,1,0,0:0:0:0:
419,123,19673,1,0,0:0:0:0:
411,150,19752,1,0,0:0:0:0:
404,177,19831,1,0,0:0:0:0:
396,204,19910,1,0,0:0:0:0:
388,231,19989,1,0,0:0:0:0:
380,260,20067,5,12,0:0:0:0:
372,232,20146,1,0,0:0:0:0:
364,204,20225,1,0,0:0:0:0:
358,177,20304,1,0,0:0:0:0:
350,149,20383,1,0,0:0:0:0:
342,121,20462,1,0,0:0:0:0:
336,94,20541,1,0,0:0:0:0:
328,66,20620,1,0,0:0:0:0:
320,38,20699,5,12,0:0:0:0:
300,44,20778,1,0,0:0:0:0:
280,50,20857,1,0,0:0:0:0:
260,56,20936,1,0,0:0:0:0:
240,62,21015,1,0,0:0:0:0:
220,68,21094,1,0,0:0:0:0:
200,74,21173,1,0,0:0:0:0:
180,80,21252,1,0,0:0:0:0:
160,86,21331,5,0,0:0:0:0:
152,88,21410,1,0,0:0:0:0:
144,90,21489,1,0,0:0:0:0:
136,92,21567,1,0,0:0:0:0:
128,94,21646,1,0,0:0:0:0:
124,96,21725,1,0,0:0:0:0:
120,96,21804,1,0,0:0:0:0:
116,96,21883,1,0,0:0:0:0:
112,96,21962,5,2,0:0:0:0:
24,119,22436,5,0,0:0:0:0:
112,96,22594,1,2,0:0:0:0:
312,44,23225,5,2,0:0:0:0:
112,96,23699,1,2,0:0:0:0:
98,99,23778,1,0,0:0:0:0:
84,102,23857,1,0,0:0:0:0:
8,120,24015,1,0,0:0:0:0:
36,230,24173,1,0,0:0:0:0:
102,178,24331,1,0,0:0:0:0:
130,288,24489,1,2,0:0:0:0:
153,376,24962,5,2,0:0:0:0:
130,288,25120,1,0,0:0:0:0:
76,26,25752,6,0,L|91:88,1,47.5
124,80,25989,2,0,L|139:142,1,47.5
98,134,26225,6,0,L|113:196,1,47.5
146,188,26462,2,0,L|161:250,1,47.5
131,288,26699,6,0,L|120:242,1,47.5
383,190,27015,5,6,1:0:0:0:
471,167,27489,5,0,0:0:0:0:
383,190,27647,1,2,0:0:0:0:
420,340,28278,5,6,1:0:0:0:
383,190,28752,1,2,0:0:0:0:
380,176,28831,1,0,0:0:0:0:
377,162,28910,1,0,0:0:0:0:
354,73,29067,1,0,0:0:0:0:
305,208,29225,1,2,0:0:0:0:
302,194,29304,1,0,0:0:0:0:
299,180,29383,1,0,0:0:0:0:
276,91,29541,5,12,1:0:0:0:
328,297,29699,1,12,1:0:0:0:
229,222,29857,1,2,0:0:0:0:
226,208,29936,1,0,0:0:0:0:
223,194,30015,1,0,0:0:0:0:
200,105,30173,5,12,1:0:0:0:
252,311,30331,1,12,1:0:0:0:
122,123,30489,1,0,0:0:0:0:
125,137,30568,1,0,0:0:0:0:
128,151,30647,1,0,0:0:0:0:
131,165,30726,1,0,0:0:0:0:
134,179,30805,1,0,0:0:0:0:
160,264,30962,5,12,1:0:0:0:
99,34,31120,1,12,1:0:0:0:
223,178,31436,5,12,1:0:0:0:
99,34,31673,1,12,1:0:0:0:
176,343,31909,1,12,1:0:0:0:
204,248,32067,6,0,L|242:110,1,142.500005435944,2|0,0:0|0:0,0:0:0:0:
97,41,32541,1,0,0:0:0:0:
101,57,32620,1,0,0:0:0:0:
105,73,32699,2,0,L|143:211,1,142.500005435944,2|0,0:0|0:0,0:0:0:0:
176,343,33173,1,0,0:0:0:0:
306,80,33331,6,0,L|345:218,1,142.500005435944,2|0,0:0|0:0,0:0:0:0:
396,355,33804,1,0,0:0:0:0:
400,339,33883,1,0,0:0:0:0:
404,323,33962,1,2,0:0:0:0:
427,241,34120,1,0,0:0:0:0:
368,136,34278,1,0,0:0:0:0:
345,218,34436,1,0,0:0:0:0:
404,323,34594,2,0,L|442:185,1,142.500005435944,2|0,0:0|0:0,0:0:0:0:
397,25,35067,6,0,L|352:190,1,142.500005435944,2|0,0:0|0:0,0:0:0:0:
350,197,35462,1,0,0:0:0:0:
341,232,35541,1,0,0:0:0:0:
331,266,35620,1,0,0:0:0:0:
322,300,35699,1,0,0:0:0:0:
301,291,35778,1,0,0:0:0:0:
280,287,35857,1,0,0:0:0:0:
259,281,35936,1,0,0:0:0:0:
239,272,36015,5,0,0:0:0:0:
222,276,36094,1,0,0:0:0:0:
205,280,36173,1,0,0:0:0:0:
188,287,36252,1,0,0:0:0:0:
171,294,36331,1,0,0:0:0:0:
167,280,36410,1,0,0:0:0:0:
162,266,36489,1,0,0:0:0:0:
156,253,36568,1,0,0:0:0:0:
151,239,36646,5,0,0:0:0:0:
155,227,36725,1,0,0:0:0:0:
159,217,36804,1,0,0:0:0:0:
163,206,36883,1,0,0:0:0:0:
167,195,36962,1,0,0:0:0:0:
191,58,37120,6,0,L|270:79,1,71.2500027179719,12|0,0:0|0:0,0:0:0:0:
436,123,37436,1,0,0:0:0:0:
348,100,37594,1,0,0:0:0:0:
310,237,37752,6,0,L|331:157,1,71.2500027179719
366,30,38068,1,0,0:0:0:0:
348,100,38226,1,0,0:0:0:0:
153,195,38383,6,0,L|232:216,1,71.2500027179719,12|0,0:0|0:0,0:0:0:0:
398,260,38699,1,0,0:0:0:0:
310,237,38857,1,0,0:0:0:0:
272,374,39015,6,0,L|290:305,1,71.2500027179719
328,167,39331,1,0,0:0:0:0:
310,237,39489,1,0,0:0:0:0:
144,332,39646,5,2,0:0:0:0:
152,306,39725,1,0,0:0:0:0:
160,285,39804,1,0,0:0:0:0:
169,262,39883,1,0,0:0:0:0:
177,239,39962,1,0,0:0:0:0:
185,218,40041,1,0,0:0:0:0:
194,195,40120,1,0,0:0:0:0:
202,172,40199,1,0,0:0:0:0:
210,149,40278,5,2,0:0:0:0:
236,141,40357,1,0,0:0:0:0:
257,133,40436,1,0,0:0:0:0:
280,124,40515,1,0,0:0:0:0:
303,116,40594,1,0,0:0:0:0:
324,108,40673,1,0,0:0:0:0:
347,99,40752,1,0,0:0:0:0:
370,91,40831,1,0,0:0:0:0:
396,84,40909,6,0,L|444:64,2,47.5000018119813
356,192,41225,2,0,L|312:210,2,47.5000018119813
468,244,41541,6,0,L|489:234,2,23.7500009059906
394,280,41752,1,2,0:0:0:0:
316,316,41857,2,0,B|250:344|250:344|218:278,1,142.500005435944
188,212,42489,5,0,0:0:0:0:
158,143,42805,1,0,0:0:0:0:
128,74,43121,1,0,0:0:0:0:
328,196,43436,6,0,L|285:34,1,142.500005435944,2|0,0:0|0:0,0:0:0:0:
368,240,44067,2,0,L|354:73,1,142.500005435944
384,332,44699,5,0,0:0:0:0:
398,189,44909,1,0,0:0:0:0:
408,44,45120,1,0,0:0:0:0:
224,32,45330,5,0,0:0:0:0:
208,156,45541,1,0,0:0:0:0:
104,76,45752,1,2,0:0:0:0:
408,83,45962,6,0,L|381:366,1,285.000010871888,0|4,0:0|0:0,0:0:0:0:
340,360,47225,6,0,P|272:336|296:276,1,142.500005435944,4|0,0:0|0:0,0:0:0:0:
464,128,47699,1,0,0:0:0:0:
172,24,47857,6,0,P|240:48|216:108,1,142.500005435944,8|0,0:0|0:0,0:0:0:0:
48,256,48331,1,0,0:0:0:0:
186,259,48489,5,2,0:0:0:0:
503,60,48804,1,0,0:0:0:0:
476,148,48962,1,0,0:0:0:0:
472,162,49041,1,0,0:0:0:0:
468,176,49120,1,0,0:0:0:0:
364,28,49278,1,0,0:0:0:0:
439,268,49436,1,0,0:0:0:0:
335,120,49594,1,0,0:0:0:0:
410,360,49752,6,0,P|400:312|300:296,1,142.500005435944,4|0,0:0|0:0,0:0:0:0:
92,348,50225,1,0,0:0:0:0:
102,24,50383,2,0,P|112:72|212:88,1,142.500005435944,8|0,0:0|0:0,0:0:0:0:
340,8,51015,6,0,P|356:68|333:151,1,142.500005435944
204,268,51489,1,0,0:0:0:0:
148,64,51646,2,0,P|132:124|155:207,1,142.500005435944
284,324,52120,1,0,0:0:0:0:
396,232,52278,6,0,P|412:272|372:320,1,106.875004076958,4|0,0:0|0:0,0:0:0:0:
396,232,52594,2,0,P|422:198|484:208,1,106.875004076958,4|0,0:0|0:0,0:0:0:0:
330,171,52910,1,8,0:0:0:0:
143,125,53541,6,0,P|246:109|330:171,1,213.750008153916,2|0,0:0|0:0,0:0:0:0:
344,196,54094,1,0,0:0:0:0:
356,220,54173,1,0,0:0:0:0:
416,340,54331,1,0,0:0:0:0:
273,240,54489,1,0,0:0:0:0:
333,360,54646,1,0,0:0:0:0:
376,137,54804,5,10,0:0:0:0:
190,220,54962,1,8,2:0:0:0:
179,217,55041,1,0,2:0:0:0:
168,214,55120,1,8,2:0:0:0:
157,211,55199,1,0,2:0:0:0:
146,208,55278,1,8,2:0:0:0:
135,205,55357,1,0,2:0:0:0:
124,202,55436,1,8,2:0:0:0:
14,172,55594,1,0,0:0:0:0:
210,137,55752,5,8,0:0:0:0:
159,344,55910,1,0,0:0:0:0:
14,172,56067,2,0,L|40:71,1,95,10|0,0:1|0:1,0:1:0:0:
183,251,56383,2,0,L|158:342,1,95,10|0,0:1|0:1,0:1:0:0:
352,330,56699,1,0,0:0:0:0:
426,49,56857,1,2,0:0:0:0:
352,330,57173,5,0,0:0:0:0:
360,304,57252,1,0,0:0:0:0:
367,280,57331,1,2,0:0:0:0:
217,235,57489,1,0,0:0:0:0:
397,180,57646,1,0,0:0:0:0:
97,90,57804,1,0,0:0:0:0:
90,114,57883,5,0,0:0:0:0:
82,140,57962,2,0,L|117:268,1,126.666666666667,2|0,0:0|0:0,0:0:0:0:
200,192,58225,2,0,L|174:100,1,95,2|0,0:0|0:0,0:0:0:0:
128,0,58436,2,0,L|108:68,1,63.3333333333333,2|0,0:0|0:0,0:0:0:0:
82,140,58594,5,2,0:0:0:0:
374,60,58752,1,8,2:0:0:0:
408,152,58910,2,0,L|283:117,1,126.666666666667,2|0,0:0|0:0,0:0:0:0:
320,212,59173,2,0,L|444:245,1,126.666666666667,2|0,0:0|0:0,0:0:0:0:
480,344,59436,2,0,L|355:309,1,126.666666666667,2|0,0:0|0:0,0:0:0:0:
256,360,59699,2,0,L|320:377,1,63.3333333333333,2|0,0:0|0:0,0:0:0:0:
200,280,59857,5,8,2:0:0:0:
159,184,60015,2,0,L|124:96,1,95
240,4,60331,2,0,L|274:92,1,95
450,183,60646,2,0,L|490:79,1,95
384,4,60962,2,0,L|347:93,1,95
236,344,61278,5,8,0:0:0:0:
324,56,61436,2,0,L|254:231,1,142.5,10|0,0:0|0:0,0:0:0:0:
428,320,61752,2,0,L|384:208,1,95,2|0,0:0|0:0,0:0:0:0:
226,81,61989,2,0,L|181:192,1,95,2|0,0:0|0:0,0:0:0:0:
331,296,62225,2,0,L|307:240,1,47.5,2|0,0:0|0:0,0:0:0:0:
128,106,62383,2,0,L|198:281,1,142.5,6|0,0:0|0:0,0:0:0:0:
198,282,62699,5,0,0:0:0:0:
226,81,62857,1,2,0:0:0:0:
217,58,62935,1,2,0:0:0:0:
208,36,63014,1,2,0:0:0:0:
128,106,63173,1,0,0:0:0:0:
163,194,63331,1,0,0:0:0:0:
198,282,63489,1,0,0:0:0:0:
316,276,63646,2,0,L|386:101,1,142.5,6|0,0:0|0:0,0:0:0:0:
386,99,63962,5,0,0:0:0:0:
414,301,64120,1,2,0:0:0:0:
405,323,64198,1,2,0:0:0:0:
396,345,64277,1,2,0:0:0:0:
316,276,64436,1,0,0:0:0:0:
351,187,64594,1,0,0:0:0:0:
386,99,64752,1,0,0:0:0:0:
128,106,64910,5,8,0:0:0:0:
316,276,65067,1,0,0:0:0:0:
386,99,65225,1,8,0:0:0:0:
198,282,65383,1,0,0:0:0:0:
159,127,65542,5,8,0:0:0:0:
301,255,65699,1,0,0:0:0:0:
353,122,65857,1,8,0:0:0:0:
212,259,66015,1,0,0:0:0:0:
184,143,66173,5,8,0:0:0:0:
180,135,66252,1,0,0:0:0:0:
176,127,66331,1,0,0:0:0:0:
172,119,66410,1,0,0:0:0:0:
168,111,66489,1,0,0:0:0:0:
164,103,66568,1,0,0:0:0:0:
160,95,66647,1,0,0:0:0:0:
156,87,66725,1,0,0:0:0:0:
152,80,66804,6,4,L|93:193,1,95,12|0,0:0|0:0,0:0:0:0:
137,261,67041,2,0,L|181:177,1,95,12|0,0:0|0:0,0:0:0:0:
210,273,67278,2,0,L|167:355,1,47.5,12|0,0:0|0:0,0:0:0:0:
239,370,67436,6,0,L|261:358,3,23.75
324,328,67752,2,0,L|347:340,3,23.75
416,368,68067,5,0,0:0:0:0:
429,348,68146,1,0,0:0:0:0:
438,326,68225,1,0,0:0:0:0:
443,302,68304,1,0,0:0:0:0:
439,283,68383,1,0,0:0:0:0:
430,266,68462,1,0,0:0:0:0:
414,255,68541,1,0,0:0:0:0:
404,240,68620,1,0,0:0:0:0:
398,226,68699,5,0,0:0:0:0:
398,211,68778,1,0,0:0:0:0:
404,198,68857,1,0,0:0:0:0:
411,186,68936,1,0,0:0:0:0:
421,175,69015,1,0,0:0:0:0:
410,165,69094,1,0,0:0:0:0:
398,158,69173,1,0,0:0:0:0:
385,152,69252,1,0,0:0:0:0:
370,152,69331,5,0,0:0:0:0:
356,158,69410,1,0,0:0:0:0:
341,168,69489,1,0,0:0:0:0:
330,184,69568,1,0,0:0:0:0:
313,193,69647,1,0,0:0:0:0:
294,197,69726,1,0,0:0:0:0:
270,192,69805,1,0,0:0:0:0:
248,183,69884,1,0,0:0:0:0:
228,170,69962,6,0,L|206:158,3,23.75
144,208,70278,2,0,L|165:219,3,23.75
180,292,70594,5,0,0:0:0:0:
211,303,70673,1,0,0:0:0:0:
244,303,70752,1,0,0:0:0:0:
276,296,70831,1,0,0:0:0:0:
300,281,70910,1,0,0:0:0:0:
320,260,70989,1,0,0:0:0:0:
333,235,71067,1,0,0:0:0:0:
339,207,71146,1,0,0:0:0:0:
332,184,71225,5,0,0:0:0:0:
320,163,71304,1,0,0:0:0:0:
314,139,71383,1,0,0:0:0:0:
320,116,71462,1,0,0:0:0:0:
333,102,71541,1,0,0:0:0:0:
351,96,71620,1,0,0:0:0:0:
370,96,71699,1,0,0:0:0:0:
383,109,71778,1,0,0:0:0:0:
388,121,71857,5,0,0:0:0:0:
385,135,71936,1,0,0:0:0:0:
377,147,72015,1,0,0:0:0:0:
366,157,72094,1,0,0:0:0:0:
357,161,72173,1,0,0:0:0:0:
347,162,72252,1,0,0:0:0:0:
337,162,72331,1,0,0:0:0:0:
328,158,72410,1,0,0:0:0:0:
304,144,72489,5,0,0:0:0:0:
280,132,72567,1,0,0:0:0:0:
256,116,72646,1,0,0:0:0:0:
232,104,72725,1,0,0:0:0:0:
136,160,72883,5,0,0:0:0:0:
160,172,72962,1,0,0:0:0:0:
184,188,73041,1,0,0:0:0:0:
208,200,73119,1,0,0:0:0:0:
232,216,73199,1,0,0:0:0:0:
256,228,73277,1,0,0:0:0:0:
232,324,73436,5,0,0:0:0:0:
208,312,73514,1,0,0:0:0:0:
184,296,73594,1,0,0:0:0:0:
160,284,73672,1,0,0:0:0:0:
136,268,73751,1,0,0:0:0:0:
112,256,73830,1,0,0:0:0:0:
96,236,73910,1,0,0:0:0:0:
92,212,73989,1,0,0:0:0:0:
100,188,74067,5,0,0:0:0:0:
120,172,74146,1,0,0:0:0:0:
144,168,74225,1,0,0:0:0:0:
168,176,74304,1,0,0:0:0:0:
192,184,74383,1,0,0:0:0:0:
216,184,74462,1,0,0:0:0:0:
236,176,74541,1,0,0:0:0:0:
252,156,74620,1,0,0:0:0:0:
256,132,74699,5,0,0:0:0:0:
248,108,74778,1,0,0:0:0:0:
232,88,74857,1,0,0:0:0:0:
220,68,74936,1,0,0:0:0:0:
224,40,75015,1,0,0:0:0:0:
252,28,75094,1,0,0:0:0:0:
284,28,75173,1,0,0:0:0:0:
316,36,75252,1,0,0:0:0:0:
348,48,75331,5,0,0:0:0:0:
372,72,75410,1,0,0:0:0:0:
392,96,75489,1,0,0:0:0:0:
404,128,75567,1,0,0:0:0:0:
408,160,75646,1,0,0:0:0:0:
408,192,75725,1,0,0:0:0:0:
396,224,75804,1,0,0:0:0:0:
380,252,75883,1,0,0:0:0:0:
356,272,75962,5,0,0:0:0:0:
328,288,76041,1,0,0:0:0:0:
296,300,76120,1,0,0:0:0:0:
264,304,76199,1,0,0:0:0:0:
237,302,76278,6,0,P|201:294|165:270,1,71.25,12|0,2:0|0:0,0:0:0:0:
281,166,76594,2,0,P|305:138|344:119,1,71.25,8|0,0:0|0:0,0:0:0:0:
381,246,76910,6,0,P|390:278|387:318,1,71.2500027179719,8|0,0:0|0:0,0:0:0:0:
237,302,77146,2,0,P|201:293|166:269,1,71.2500027179719,8|0,0:0|0:0,0:0:0:0:
281,166,77383,6,0,P|297:145|324:133,1,35.625001358986,8|0,0:0|0:0,0:0:0:0:
381,246,77541,6,0,L|386:292,1,47.5,10|0,0:0|0:0,0:0:0:0:
444,360,77699,1,0,0:0:0:0:
464,336,77778,1,0,0:0:0:0:
476,304,77857,2,0,L|471:257,1,47.5,10|0,0:0|0:0,0:0:0:0:
416,176,78015,1,0,0:0:0:0:
396,152,78094,1,0,0:0:0:0:
384,120,78173,2,0,L|378:72,1,47.5,10|0,0:0|0:0,0:0:0:0:
304,24,78331,5,0,0:0:0:0:
280,48,78410,2,0,L|275:95,1,47.5,10|0,0:0|0:0,0:0:0:0:
208,176,78567,1,0,0:0:0:0:
184,152,78646,2,0,L|179:104,1,47.5,10|0,0:0|0:0,0:0:0:0:
108,24,78804,1,0,0:0:0:0:
88,48,78883,1,0,0:0:0:0:
76,80,78962,2,0,L|80:126,1,47.5,10|0,0:0|0:0,0:0:0:0:
128,200,79120,2,0,L|132:246,1,47.5,10|0,0:0|0:0,0:0:0:0:
88,312,79278,5,0,0:0:0:0:
112,328,79357,1,0,0:0:0:0:
144,332,79436,2,0,L|190:327,1,47.5,10|0,0:0|0:0,0:0:0:0:
304,248,79594,1,0,0:0:0:0:
272,228,79673,2,0,L|225:232,1,47.5,10|0,0:0|0:0,0:0:0:0:
290,323,79831,1,0,0:0:0:0:
322,343,79910,2,0,L|368:338,1,47.5,10|0,0:0|0:0,0:0:0:0:
448,256,80067,2,0,L|400:250,1,47.5,10|0,0:0|0:0,0:0:0:0:
288,184,80225,5,0,0:0:0:0:
320,176,80304,1,0,0:0:0:0:
355,158,80383,2,0,L|360:110,1,47.5,10|0,0:0|0:0,0:0:0:0:
400,32,80541,1,0,0:0:0:0:
432,40,80620,1,0,0:0:0:0:
467,58,80699,2,0,L|472:106,1,47.5,10|0,0:0|0:0,0:0:0:0:
288,184,80857,1,0,0:0:0:0:
268,152,80936,2,0,L|273:106,1,47.5,10|0,0:0|0:0,0:0:0:0:
433,176,81094,1,0,0:0:0:0:
453,208,81173,2,0,L|448:254,1,47.5,10|0,0:0|0:0,0:0:0:0:
360,332,81331,5,0,0:0:0:0:
320,328,81410,1,0,0:0:0:0:
288,324,81489,2,10,L|242:319,2,23.75
212,240,81646,2,0,L|166:235,1,47.5,10|0,0:0|0:0,0:0:0:0:
88,320,81804,1,0,0:0:0:0:
68,296,81883,1,0,0:0:0:0:
64,260,81962,2,0,L|58:212,1,47.5,10|0,0:0|0:0,0:0:0:0:
140,156,82120,1,0,0:0:0:0:
160,188,82199,2,0,L|165:234,1,47.5,10|0,0:0|0:0,0:0:0:0:
72,112,82357,1,0,0:0:0:0:
52,80,82436,2,0,L|47:34,1,47.5,10|0,0:0|0:0,0:0:0:0:
232,144,82594,6,0,L|237:190,1,47.5,10|0,0:0|0:0,0:0:0:0:
404,164,82752,1,0,0:0:0:0:
424,132,82831,1,0,0:0:0:0:
440,108,82910,2,0,L|435:62,1,47.5,10|0,0:0|0:0,0:0:0:0:
276,76,83068,1,0,0:0:0:0:
256,108,83147,1,0,0:0:0:0:
232,144,83225,2,0,L|238:192,1,47.5,10|0,0:0|0:0,0:0:0:0:
424,132,83383,1,0,0:0:0:0:
440,108,83462,2,0,L|435:62,1,47.5,10|0,0:0|0:0,0:0:0:0:
252,112,83620,5,0,0:0:0:0:
232,144,83699,2,0,L|237:190,1,47.5,10|0,0:0|0:0,0:0:0:0:
360,232,83857,1,0,0:0:0:0:
380,264,83936,1,0,0:0:0:0:
404,300,84014,2,0,L|398:348,1,47.5,10|0,0:0|0:0,0:0:0:0:
241,243,84173,2,0,L|235:195,1,47.5,10|0,0:0|0:0,0:0:0:0:
376,40,84331,1,0,0:0:0:0:
380,72,84410,1,0,0:0:0:0:
384,104,84489,2,0,L|390:152,1,47.5,10|0,0:0|0:0,0:0:0:0:
328,264,84646,5,0,0:0:0:0:
308,296,84725,2,0,L|303:342,1,47.5,10|0,0:0|0:0,0:0:0:0:
235,195,84883,1,0,0:0:0:0:
215,163,84962,2,0,L|210:117,1,47.5,10|0,0:0|0:0,0:0:0:0:
112,68,85120,2,0,L|106:20,1,47.5,10|0,0:0|0:0,0:0:0:0:
304,56,85278,5,0,0:0:0:0:
341,61,85357,1,0,0:0:0:0:
372,68,85436,2,0,L|420:74,1,47.5,10|0,0:0|0:0,0:0:0:0:
261,167,85594,1,0,0:0:0:0:
226,173,85673,1,0,0:0:0:0:
195,180,85752,2,0,L|147:186,1,47.5,10|0,0:0|0:0,0:0:0:0:
336,244,85910,1,0,0:0:0:0:
367,251,85989,2,0,L|415:257,1,47.5,10|0,0:0|0:0,0:0:0:0:
228,320,86146,1,0,0:0:0:0:
197,327,86225,2,0,L|149:333,1,47.5,10|0,0:0|0:0,0:0:0:0:
328,356,86383,6,0,L|407:337,2,63.3333333333333,2|0|0,0:0|0:0|0:0,0:0:0:0:
216,192,86699,6,0,L|137:211,2,63.3333333333333,2|0|0,0:0|0:0|0:0,0:0:0:0:
328,356,87015,6,0,L|407:337,2,63.3333333333333,2|0|0,0:0|0:0|0:0,0:0:0:0:
216,192,87331,2,0,L|65:228,1,126.666666666667,2|0,0:0|0:0,0:0:0:0:
120,324,87646,6,0,P|164:340|184:336,1,63.3333333333333
256,300,87857,1,0,0:0:0:0:
120,277,87962,6,0,P|155:307|176:310,1,63.3333333333333
256,300,88173,1,0,0:0:0:0:
137,232,88278,6,0,P|160:272|178:282,1,63.3333333333333
256,300,88489,1,0,0:0:0:0:
312,216,88594,2,0,P|260:240|304:256,1,126.666666666667
444,236,88909,6,0,P|452:200|440:164,1,63.3333333333333
404,112,89120,1,0,0:0:0:0:
400,243,89225,6,0,P|419:211|420:173,1,63.3333333333333
404,112,89436,1,0,0:0:0:0:
356,234,89541,6,0,P|385:211|399:176,1,63.3333333333333
404,112,89752,1,0,0:0:0:0:
324,80,89857,2,0,P|340:128|376:88,1,126.666666666667
212,32,90173,6,0,P|184:64|176:88,1,63.3333333333333
208,164,90383,1,0,0:0:0:0:
167,39,90488,6,0,P|151:78|152:103,1,63.3333333333333
208,164,90698,1,0,0:0:0:0:
127,61,90804,6,0,P|126:103|135:127,1,63.3333333333333
208,164,91014,1,0,0:0:0:0:
272,228,91120,2,0,P|265:176|223:214,1,95
40,296,91436,5,0,2:0:0:0:
56,304,91541,1,0,2:0:0:0:
72,312,91646,1,0,2:0:0:0:
144,272,91751,5,0,2:0:0:0:
160,264,91856,1,0,2:0:0:0:
176,256,91961,1,0,2:0:0:0:
240,304,92067,5,0,2:0:0:0:
256,312,92173,1,0,2:0:0:0:
272,320,92278,1,0,2:0:0:0:
344,280,92383,6,0,L|388:144,1,126.666666666667
400,68,92699,5,0,0:0:0:0:
381,36,92804,1,0,0:0:0:0:
343,36,92909,1,0,0:0:0:0:
324,68,93015,1,0,0:0:0:0:
343,101,93120,1,0,0:0:0:0:
381,101,93225,1,0,0:0:0:0:
380,192,93330,5,0,0:0:0:0:
412,222,93435,1,0,0:0:0:0:
402,265,93540,1,0,0:0:0:0:
359,279,93646,1,0,0:0:0:0:
324,248,93751,1,0,0:0:0:0:
335,204,93856,1,0,0:0:0:0:
260,128,93962,5,0,0:0:0:0:
217,93,94067,1,0,0:0:0:0:
166,116,94172,1,0,0:0:0:0:
160,171,94278,1,0,0:0:0:0:
202,203,94383,1,0,0:0:0:0:
250,183,94488,1,0,0:0:0:0:
320,236,94594,5,0,0:0:0:0:
370,225,94699,1,0,0:0:0:0:
406,263,94804,1,0,0:0:0:0:
389,317,94910,1,0,0:0:0:0:
335,329,95015,1,0,0:0:0:0:
299,287,95120,1,0,0:0:0:0:
236,168,95225,6,0,L|228:44,1,63.3333333333333,2|0,0:0|0:0,0:0:0:0:
400,160,95541,2,0,L|523:152,1,63.3333333333333,2|0,0:0|0:0,0:0:0:0:
404,296,95857,2,0,L|411:419,1,63.3333333333333,2|0,0:0|0:0,0:0:0:0:
232,312,96173,2,0,L|108:319,1,63.3333333333333,2|0,0:0|0:0,0:0:0:0:
280,188,96489,5,0,0:0:0:0:
333,185,96594,1,0,0:0:0:0:
336,232,96699,1,0,0:0:0:0:
283,235,96804,1,0,0:0:0:0:
280,188,96910,1,0,0:0:0:0:
333,185,97015,1,0,0:0:0:0:
336,232,97120,6,0,L|284:236,1,47.5
464,320,97752,6,0,L|485:213,1,95,8|0,0:0|0:0,0:0:0:0:
250,174,98383,2,0,L|229:278,1,95,8|0,0:0|0:0,0:0:0:0:
16,236,99015,2,0,L|36:131,1,95,8|0,0:0|0:0,0:0:0:0:
482,226,99489,1,0,0:0:0:0:
477,250,99567,1,0,0:0:0:0:
473,273,99646,1,0,0:0:0:0:
232,268,99804,6,0,L|241:221,1,47.5,8|0,0:0|0:0,0:0:0:0:
259,135,99962,1,2,0:0:0:0:
25,188,100120,1,0,0:0:0:0:
355,325,100278,6,0,L|374:228,1,95
152,124,100594,1,0,0:0:0:0:
133,217,100751,1,0,0:0:0:0:
392,156,100910,2,0,L|411:59,1,95
152,124,101225,1,0,0:0:0:0:
114,310,101383,1,0,2:0:0:0:
304,352,101541,1,0,0:0:0:0:
267,169,101699,1,2,0:0:0:0:
304,352,101857,6,0,L|280:234,1,118.750004529953,2|0,0:0|0:0,0:0:0:0:
164,192,102173,2,0,L|182:289,1,71.2500027179719,2|0,0:0|0:0,0:0:0:0:
267,169,102383,2,0,L|253:99,1,71.2500027179719,2|0,0:0|0:0,0:0:0:0:
140,49,102594,2,0,L|150:109,1,47.5000018119813,2|0,0:0|0:0,0:0:0:0:
192,340,102804,6,0,L|313:317,1,95
360,150,103120,1,0,0:0:0:0:
267,169,103278,1,0,0:0:0:0:
328,316,103436,2,0,L|440:295,1,95
453,131,103752,1,0,2:0:0:0:
267,169,103910,1,0,0:0:0:0:
482,289,104067,6,0,L|443:78,1,213.750008153916,2|0,0:0|0:0,0:0:0:0:
436,48,104620,1,0,0:0:0:0:
428,16,104699,1,2,0:0:0:0:
320,42,104857,1,0,0:0:0:0:
158,286,105015,1,2,0:0:0:0:
361,245,105173,1,0,0:0:0:0:
117,83,105331,6,0,L|87:240,1,142.500005435944,2|0,0:0|0:0,0:0:0:0:
341,350,105804,2,0,L|383:120,1,213.750008153916,2|0,0:0|0:0,0:0:0:0:
312,76,106436,5,0,0:0:0:0:
91,223,106594,1,2,0:0:0:0:
264,340,106752,2,0,L|286:221,1,95,0|2,0:0|0:0,0:0:0:0:
312,76,107067,1,0,0:0:0:0:
91,223,107225,1,0,0:0:0:0:
472,272,107383,6,0,L|485:201,1,71.2500027179719,2|0,0:0|0:0,0:0:0:0:
484,201,107699,1,0,0:0:0:0:
447,352,107857,6,0,L|318:325,1,118.750004529953,2|0,0:0|0:0,0:0:0:0:
252,248,108173,2,0,L|279:114,1,118.750004529953,2|0,0:0|0:0,0:0:0:0:
412,270,108489,2,0,L|328:253,1,71.2500027179719,2|0,0:0|0:0,0:0:0:0:
180,204,108699,2,0,L|197:120,1,71.2500027179719,2|0,0:0|0:0,0:0:0:0:
377,189,108909,2,0,L|335:180,1,35.625001358986,2|0,0:0|0:0,0:0:0:0:
115,138,109120,5,0,0:0:0:0:
320,56,109278,1,0,0:0:0:0:
396,228,109436,6,0,L|370:347,1,118.750004529953,2|0,0:0|0:0,0:0:0:0:
144,268,109752,2,0,L|213:253,1,71.2500027179719
328,189,109962,2,0,L|312:267,1,71.2500027179719
120,196,110173,2,0,L|174:184,1,47.5000018119813
316,116,110383,6,0,L|282:123,1,35.625001358986,8|0,0:0|0:0,0:0:0:0:
144,68,110541,2,0,L|178:61,1,35.625001358986,8|0,0:0|0:0,0:0:0:0:
420,20,110699,1,8,0:0:0:0:
368,352,110857,1,0,0:0:0:0:
352,271,111015,6,0,L|331:173,1,71.2500027179719,2|0,0:0|0:0,0:0:0:0:
408,100,111252,2,0,L|428:199,1,71.2500027179719,2|0,0:0|0:0,0:0:0:0:
236,68,111489,2,0,L|225:18,1,35.625001358986,2|0,0:0|0:0,0:0:0:0:
180,140,111646,1,0,0:0:0:0:
392,24,111804,1,0,0:0:0:0:
260,184,111962,6,0,L|274:253,1,71.2500027179719,2|0,0:0|0:0,0:0:0:0:
200,324,112199,1,0,0:0:0:0:
168,296,112278,2,0,L|153:226,1,71.2500027179719,10|0,0:0|0:0,0:0:0:0:
320,120,112488,2,0,L|334:189,1,71.2500027179719,2|0,0:0|0:0,0:0:0:0:
108,360,112699,2,0,L|97:314,1,47.5000018119813,2|0,0:0|0:0,0:0:0:0:
132,80,112910,6,0,L|367:31,1,213.750008153916,6|0,0:0|0:0,0:0:0:0:
372,28,113462,1,0,0:0:0:0:
404,20,113541,1,0,0:0:0:0:
428,140,113699,5,0,0:0:0:0:
292,256,113857,1,0,0:0:0:0:
262,106,114015,1,0,0:0:0:0:
458,290,114173,5,4,0:0:0:0:
212,340,114332,1,0,0:0:0:0:
292,256,114490,1,0,0:0:0:0:
46,206,114647,5,0,0:0:0:0:
53,240,114725,1,0,0:0:0:0:
60,275,114804,1,4,0:0:0:0:
212,340,114962,1,0,0:0:0:0:
184,200,115120,1,0,0:0:0:0:
156,60,115278,1,0,0:0:0:0:
45,206,115436,6,0,P|148:260|240:228,1,190,4|0,0:0|0:0,0:0:0:0:
276,212,115831,1,0,0:0:0:0:
340,188,115910,1,0,0:0:0:0:
408,188,115989,1,0,0:0:0:0:
464,224,116067,2,0,P|472:308|376:340,1,190
340,324,116462,5,0,0:0:0:0:
308,288,116541,1,0,0:0:0:0:
296,248,116620,1,0,0:0:0:0:
296,204,116699,1,0,0:0:0:0:
312,168,116778,1,0,0:0:0:0:
332,136,116857,6,0,P|344:120|360:60,1,47.5,12|0,0:0|0:0,0:0:0:0:
220,160,117015,2,0,P|208:176|192:236,1,47.5,12|0,0:0|0:0,0:0:0:0:
272,340,117173,1,0,0:0:0:0:
296,328,117252,1,0,0:0:0:0:
316,308,117331,6,0,P|332:285|354:203,1,95,12|0,0:0|0:0,0:0:0:0:
128,176,117567,2,0,P|121:198|127:270,1,95,12|0,0:0|0:0,0:0:0:0:
424,228,117804,2,0,P|429:208|424:147,1,47.5,12|0,0:0|0:0,0:0:0:0:
60,328,117962,5,12,0:0:0:0:
256,192,118041,12,0,121752,0:0:0:0:
