osu file format v14

[General]
AudioFilename: audio.mp3
AudioLeadIn: 0
PreviewTime: 43110
Countdown: 1
SampleSet: None
StackLeniency: 0.2
Mode: 0
LetterboxInBreaks: 0
WidescreenStoryboard: 0

[Editor]
Bookmarks: 7741,9005,46899,57005,75952,77215,86057
DistanceSpacing: 1
BeatDivisor: 4
GridSize: 32
TimelineZoom: 2.3

[Metadata]
Title:Sweet Requiem
TitleUnicode:Sweet Requiem
Artist:REDALiCE vs. aran
ArtistUnicode:REDALiCE vs. aran
Creator:DiceSA
Version:Dream Collapse
Source:SOUND VOLTEX IV HEAVENLY HAVEN
Tags:
BeatmapID:1728599
BeatmapSetID:824910

[Difficulty]
HPDrainRate:4
CircleSize:4
OverallDifficulty:8
ApproachRate:8.5
SliderMultiplier:2
SliderTickRate:1

[Events]
//Background and Video events
0,0,"bg.png",0,0
//Break Periods
2,68889,71488
//Storyboard Layer 0 (Background)
//Storyboard Layer 1 (Fail)
//Storyboard Layer 2 (Pass)
//Storyboard Layer 3 (Foreground)
//Storyboard Sound Samples

[TimingPoints]
163,315.789473684211,4,2,1,100,1,0
163,-66.6666666666667,4,2,1,100,0,0
1110,-20,4,2,1,100,0,0
1426,-66.6666666666667,4,2,1,100,0,0
3952,-66.6666666666667,4,2,1,100,0,0
4031,-66.6666666666667,4,2,1,5,0,0
4110,-50,4,2,1,100,0,0
4189,-50,4,2,1,5,0,0
4268,-45.4545454545455,4,2,1,100,0,0
4584,-66.6666666666667,4,2,1,100,0,0
6163,-33.3333333333333,4,2,1,100,0,0
6794,-66.6666666666667,4,2,1,100,0,0
9005,-66.6666666666667,4,2,1,100,0,0
10899,-25,4,2,1,100,0,0
11215,-66.6666666666667,4,2,1,65,0,0
16899,-100,4,2,1,90,0,0
20689,-100,4,2,1,100,0,0
21952,-50,4,1,1,65,0,0
26294,-50,4,1,0,5,0,0
26610,-50,4,1,1,65,0,0
27163,-133.333333333333,4,1,1,65,0,0
29215,-66.6666666666667,4,1,1,65,0,0
39320,-133.333333333333,4,1,1,65,0,0
41531,-33.3333333333333,4,2,1,100,0,0
42005,-66.6666666666667,4,2,1,100,0,0
43741,-200,4,2,1,100,0,0
46268,-33.3333333333333,4,2,1,100,0,1
46899,-58.8235294117647,4,2,1,65,0,1
53215,-50,4,2,1,65,0,1
53689,-66.6666666666667,4,2,1,65,0,1
54478,-66.6666666666667,4,2,1,65,0,0
56373,-133.333333333333,4,2,1,65,0,0
56531,-50,4,2,1,65,0,0
57005,-66.6666666666667,4,1,1,100,0,1
57636,-50,4,1,1,100,0,1
57952,-66.6666666666667,4,1,1,100,0,1
58899,-50,4,1,1,100,0,1
59215,-66.6666666666667,4,1,1,100,0,1
60163,-50,4,1,1,100,0,1
60478,-66.6666666666667,4,1,1,100,0,1
61426,-50,4,1,1,100,0,1
61741,-66.6666666666667,4,1,1,100,0,1
62689,-50,4,1,1,100,0,1
63005,-66.6666666666667,4,1,1,100,0,1
63952,-50,4,1,1,100,0,1
64268,-66.6666666666667,4,1,1,100,0,1
65215,-50,4,1,1,100,0,1
65531,-66.6666666666667,4,1,1,100,0,1
66478,-50,4,1,1,100,0,1
66794,-66.6666666666667,4,1,1,100,0,1
67110,-66.6666666666667,4,2,1,100,0,0
68610,-66.6666666666667,4,2,1,5,0,0
68768,-66.6666666666667,4,2,1,100,0,0
71531,-133.333333333333,4,1,1,10,0,0
71847,-133.333333333333,4,1,1,10,0,0
72163,-133.333333333333,4,1,1,10,0,0
73820,-133.333333333333,4,1,1,15,0,0
74251,-133.333333333333,4,1,1,20,0,0
74452,-133.333333333333,4,1,1,25,0,0
74531,-133.333333333333,4,1,1,30,0,0
74610,-133.333333333333,4,1,1,35,0,0
74689,-133.333333333333,4,1,1,40,0,0
74768,-133.333333333333,4,1,1,45,0,0
74847,-133.333333333333,4,1,1,55,0,0
74926,-133.333333333333,4,1,1,65,0,0
75005,-133.333333333333,4,1,1,75,0,0
75084,-133.333333333333,4,1,1,85,0,0
75163,-133.333333333333,4,1,1,100,0,0
76268,-50,4,1,1,100,0,0
77215,-40,4,1,1,100,0,1
81399,-40,4,1,1,100,0,1
86057,-153.846153846153,4,2,1,100,0,0
87005,-35.7142857142857,4,2,1,100,0,0
87320,-153.846153846153,4,2,1,100,0,0
88268,-35.7142857142857,4,2,1,100,0,0
88584,-153.846153846153,4,2,1,100,0,0
89531,-35.7142857142857,4,2,1,100,0,0
89847,-153.846153846153,4,2,1,100,0,0
90794,-35.7142857142857,4,2,1,100,0,0
91110,-153.846153846153,4,2,1,100,0,0
92057,-33.3333333333333,4,2,1,100,0,0
92689,-66.6666666666667,4,2,1,100,0,0
94268,-133.333333333333,4,2,1,100,0,0
95531,-40,4,2,1,100,0,0
96163,-40,4,2,1,100,0,1
96478,-40,4,2,1,100,0,1
96794,-40,4,2,1,100,0,1
97110,-25,4,1,1,100,0,1
97426,-40,4,1,1,80,0,1
98689,-62.5,4,1,1,80,0,1
99478,-66.6666666666667,4,1,1,80,0,1
99952,-66.6666666666667,4,1,1,80,0,1
101215,-133.333333333333,4,1,1,80,0,1
102478,-50,4,1,1,80,0,1
103741,-66.6666666666667,4,1,1,80,0,1
105005,-40,4,1,1,100,0,1
106268,-50,4,1,1,100,0,1
106584,-100,4,1,1,100,0,1
107057,-50,4,1,1,100,0,1
107373,-133.333333333333,4,1,1,100,0,1
107452,-133.333333333333,4,1,1,5,0,1
107531,-100,4,1,1,100,0,1
107847,-100,4,1,1,100,0,1
110057,-133.333333333333,4,1,1,100,0,1
110373,-66.6666666666667,4,1,1,80,0,1
110531,-100,4,1,1,80,0,1
111952,-66.6666666666667,4,1,1,80,0,1
112110,-100,4,1,1,80,0,1
116531,-40,4,2,1,100,0,1
117636,-200,4,1,1,80,0,0
121584,-200,4,1,1,5,0,0

[HitObjects]
469,134,163,6,0,B|398:304|293:339|293:339|334:194|167:46,1,600.000022888185,8|0,0:1|0:0,0:0:0:0:
32,0,1110,2,0,L|416:384,1,500,4|0,0:1|0:0,0:0:0:0:
426,266,1426,6,0,L|290:130,1,150.000005722046,4|0,0:0|0:0,0:0:0:0:
319,159,1741,2,0,L|183:23,1,150.000005722046
213,53,2057,2,0,L|77:188,1,150.000005722046,4|0,0:1|0:2,0:0:0:0:
106,159,2373,2,0,L|241:294,1,150.000005722046
212,265,2689,2,0,L|105:158,1,150.000005722046,4|0,0:0|0:0,0:0:0:0:
105,158,3005,2,0,L|211:264,1,150.000005722046
212,265,3320,2,0,L|105:158,1,150.000005722046,4|0,0:1|0:2,0:0:0:0:
105,159,3636,2,0,L|298:159,1,150.000005722046
448,160,3952,6,0,L|447:285,1,75.0000028610231,4|0,0:0|0:0,0:0:0:0:
447,234,4110,2,0,L|369:311,1,100
375,304,4268,2,0,L|136:304,1,220.000006713867
40,328,4584,6,0,L|147:220,1,150.000005722046,4|0,0:1|0:0,0:0:0:0:
224,160,4899,2,0,L|117:53,1,150.000005722046
96,160,5215,2,0,L|203:267,1,150.000005722046,4|0,0:0|0:0,0:0:0:0:
330,266,5531,2,0,L|223:159,1,150.000005722046
202,266,5847,2,0,L|309:373,1,150.000005722046,4|0,0:1|0:0,0:0:0:0:
348,361,6163,6,0,L|-4:361,2,300.000011444092,0|0|4,0:0|0:0|0:0,0:0:0:0:
480,352,6636,5,0,0:0:0:0:
412,284,6794,2,0,L|298:170,1,150.000005722046
224,96,7110,1,4,0:1:0:0:
160,160,7268,1,0,0:0:0:0:
224,224,7426,2,0,L|335:335,1,150.000005722046
384,256,7741,1,4,0:0:0:0:
320,192,7899,1,0,0:0:0:0:
256,128,8057,2,0,L|367:16,1,150.000005722046
384,96,8373,5,4,2:1:0:0:
384,192,8531,1,0,2:0:0:0:
384,288,8689,2,0,L|224:288,1,150.000005722046,0|0,2:0|2:0,2:0:0:0:
160,224,9005,1,4,2:0:0:0:
96,160,9163,1,0,2:0:0:0:
32,96,9320,2,0,L|32:277,1,150.000005722046,0|0,2:0|2:0,2:0:0:0:
32,320,9636,1,4,2:1:0:0:
128,320,9794,1,0,2:0:0:0:
224,320,9952,2,0,L|224:160,1,150.000005722046,0|0,2:0|2:0,2:0:0:0:
160,160,10268,5,4,0:0:0:0:
224,224,10426,1,0,0:0:0:0:
288,288,10584,1,0,0:0:0:0:
352,352,10741,1,0,0:0:0:0:
416,352,10899,2,0,L|64:0,1,400,4|0,0:1|0:0,0:0:0:0:
64,64,11215,1,8,0:1:0:0:
64,64,11294,1,8,0:1:0:0:
64,64,11373,1,8,0:1:0:0:
192,64,11531,1,2,0:3:0:0:
256,192,11689,12,0,16584,0:0:0:0:
160,64,16899,5,0,0:1:0:0:
160,64,16978,1,0,0:1:0:0:
160,64,17057,1,0,0:1:0:0:
160,64,17136,1,0,0:1:0:0:
160,64,17215,2,0,L|256:160,1,100,4|0,0:1|0:1,0:1:0:0:
320,192,17531,5,0,0:1:0:0:
320,192,17610,1,0,0:1:0:0:
320,192,17689,1,0,0:1:0:0:
320,192,17768,1,0,0:1:0:0:
320,192,17847,2,0,L|229:282,1,100,4|0,0:1|0:1,0:1:0:0:
128,256,18163,5,0,0:1:0:0:
128,256,18242,1,0,0:1:0:0:
128,256,18321,1,0,0:1:0:0:
128,256,18400,1,0,0:1:0:0:
128,256,18478,2,0,L|218:165,1,100,4|0,0:1|0:1,0:1:0:0:
288,160,18794,5,0,0:1:0:0:
288,160,18873,1,0,0:1:0:0:
288,160,18952,1,0,0:1:0:0:
288,160,19031,1,0,0:1:0:0:
288,160,19110,2,0,L|288:288,1,100,4|0,0:1|0:1,0:1:0:0:
224,320,19426,5,0,0:1:0:0:
224,320,19505,1,0,0:1:0:0:
224,320,19584,1,0,0:1:0:0:
224,320,19663,1,0,0:1:0:0:
224,320,19742,2,0,L|133:229,1,100,4|0,0:1|0:1,0:1:0:0:
64,192,20057,5,0,0:1:0:0:
64,192,20136,1,0,0:1:0:0:
64,192,20215,1,0,0:1:0:0:
64,192,20294,1,0,0:1:0:0:
64,192,20373,2,0,L|64:320,1,100,4|0,0:1|0:1,0:1:0:0:
160,288,20689,5,0,0:1:0:0:
160,288,20768,1,0,0:1:0:0:
160,288,20847,2,0,L|159:223,1,50,0|0,0:1|0:1,0:1:0:0:
160,128,21005,2,0,L|111:79,2,50,4|0|0,2:1|2:1|2:1,2:1:0:0:
256,192,21320,5,0,0:0:0:0:
256,192,21399,1,0,0:0:0:0:
256,192,21478,1,0,0:0:0:0:
256,192,21557,1,0,0:0:0:0:
256,192,21636,2,0,L|384:64,1,100,4|4,0:1|0:2,0:0:0:0:
416,32,21952,6,0,L|256:192,1,200,0|8,0:0|0:2,0:0:0:0:
239,209,22268,2,0,L|79:369,1,200,0|0,0:0|0:1,0:0:0:0:
256,192,22899,1,4,0:2:0:0:
32,320,23373,5,8,0:2:0:0:
17,332,23452,5,0,0:0:0:0:
9,314,23531,5,0,0:0:0:0:
64,128,23689,5,0,0:0:0:0:
96,160,23847,5,0,0:0:0:0:
128,192,24005,5,0,0:0:0:0:
256,192,24163,5,4,0:2:0:0:
512,0,24636,5,8,0:2:0:0:
512,64,24794,1,0,0:0:0:0:
256,192,25426,1,4,0:2:0:0:
256,192,26689,6,0,L|416:32,1,200,4|0,0:2|0:0,0:0:0:0:
453,0,27163,2,0,P|377:78|377:78,1,75.0000028610231,8|0,0:2|0:0,0:0:0:0:
256,192,27952,1,4,0:2:0:0:
32,32,28426,5,8,0:2:0:0:
32,51,28505,5,0,0:0:0:0:
51,46,28584,5,0,0:0:0:0:
128,32,28741,5,0,0:0:0:0:
160,64,28899,5,0,0:0:0:0:
192,96,29057,5,0,0:0:0:0:
256,192,29215,6,0,L|256:352,1,150.000005722046,4|0,0:2|0:2,0:2:0:0:
252,338,29689,1,8,0:2:0:0:
256,342,29847,2,0,L|362:235,1,150.000005722046,0|0,0:2|0:2,0:2:0:0:
467,128,30636,2,0,L|361:235,1,150.000005722046,0|0,0:2|0:2,0:2:0:0:
256,342,31110,6,0,L|362:235,1,150.000005722046
448,160,31347,2,0,L|298:160,1,150.000005722046
96,160,31584,1,0,0:0:0:0:
192,160,31741,2,0,L|298:53,1,150.000005722046,4|0,0:2|0:0,0:0:0:0:
448,0,32215,2,0,L|384:64,1,75.0000028610231,8|0,0:2|0:0,0:0:0:0:
256,192,32373,1,4,0:2:0:0:
256,192,33005,5,4,0:2:0:0:
512,352,33478,5,8,0:2:0:0:
256,192,33636,1,4,0:2:0:0:
256,192,34268,5,4,0:2:0:0:
0,32,34741,5,8,0:2:0:0:
256,192,34899,1,4,0:2:0:0:
256,192,35531,5,4,0:2:0:0:
192,0,36005,5,8,0:2:0:0:
256,192,36163,1,4,0:2:0:0:
320,384,36794,5,4,0:2:0:0:
248,184,36952,2,0,L|216:152,4,37.5000014305115,0|0|0|0|0,0:1|0:1|0:1|0:1|0:1,0:1:0:0:
256,192,37268,1,8,0:2:0:0:
263,200,37426,2,0,L|296:232,4,37.5000014305115,4|0|0|0|0,0:2|0:2|0:2|0:2|0:2,0:2:0:0:
199,136,37741,5,0,0:2:0:0:
135,72,37899,1,0,0:0:0:0:
71,135,38057,1,4,0:2:0:0:
134,198,38215,1,0,0:0:0:0:
197,261,38373,1,0,0:0:0:0:
257,190,38531,1,8,0:2:0:0:
257,99,38689,5,4,0:2:0:0:
347,99,38847,1,0,0:0:0:0:
347,189,39005,1,0,0:0:0:0:
257,190,39163,1,0,0:0:0:0:
231,167,39320,6,0,L|199:135,6,37.5000014305115,4|0|0|0|0|0|0,0:2|0:0|0:0|0:0|0:0|0:0|0:0,0:0:0:0:
256,192,39873,1,0,0:0:0:0:
282,218,39952,2,0,L|309:244,6,37.5000014305115,4|0|0|0|0|0|0,0:2|0:0|0:0|0:0|0:0|0:0|0:0,0:0:0:0:
256,192,40584,1,4,0:2:0:0:
160,96,40899,1,4,0:2:0:0:
64,192,41215,1,4,0:2:0:0:
480,192,41531,2,0,L|-32:192,1,450.000017166138,8|0,0:1|0:2,0:2:0:0:
0,160,41847,2,4,L|128:288,1,150.000005722046,8|0,0:2|0:1,0:1:0:0:
128,320,42163,6,0,L|192:256,1,75.0000028610231
256,192,42478,1,0,0:0:0:0:
320,128,42794,1,0,0:0:0:0:
256,64,42952,1,0,0:0:0:0:
192,128,43110,1,8,0:2:0:0:
320,224,43268,5,0,0:0:0:0:
256,288,43426,1,0,0:0:0:0:
192,224,43584,1,0,0:0:0:0:
255,174,43741,2,0,L|255:142,4,25,8|0|0|0|0,0:0|0:0|0:0|0:0|0:0,0:0:0:0:
320,224,44215,5,0,0:0:0:0:
256,288,44373,1,8,0:2:0:0:
192,224,44531,1,0,0:0:0:0:
192,128,44689,1,0,0:0:0:0:
256,64,44847,5,0,0:0:0:0:
320,128,45005,1,8,0:0:0:0:
256,192,45320,1,0,0:0:0:0:
256,192,45636,5,8,0:0:0:0:
409,63,46268,6,0,L|64:352,1,450.000017166138,12|0,0:1|0:0,0:0:0:0:
423,111,46899,6,0,B|311:111|269:232|269:232|470:239|470:239|459:349|251:378,1,680.000012969971,0|8,0:0|0:0,2:0:0:0:
46,166,48163,6,0,B|42:350|42:350|155:135|325:149|325:149|245:265,1,680.000012969971,0|8,0:0|0:0,0:0:0:0:
232,120,49426,6,0,B|329:156|385:256|354:275|354:275|318:246|480:71|480:71|260:23,1,680.000012969971,0|8,0:0|0:0,0:0:0:0:
381,315,50689,6,0,B|276:244|276:244|144:341|10:221|10:221|126:73|242:174|242:174|383:174|383:174|456:107|365:65|365:65|312:122|312:122,1,1020.00001945496
383,176,51952,6,0,B|423:322|343:407|343:407|115:31,1,680.000012969971,0|8,0:0|0:0,0:0:0:0:
34,326,53215,6,0,B|124:162|233:399|399:217,1,400
409,184,53689,5,0,0:0:0:0:
384,160,53847,6,0,L|191:159,1,150.000005722046,8|0,0:0|0:0,0:0:0:0:
160,160,54163,2,0,L|23:296,1,150.000005722046
119,354,54478,6,0,L|119:202,1,150.000005722046
99,143,54794,2,0,L|205:36,1,150.000005722046
304,38,55110,2,0,L|198:145,1,150.000005722046,8|0,0:2|0:0,0:0:0:0:
67,170,55426,2,0,L|173:63,1,150.000005722046
202,136,55741,2,0,L|96:243,1,150.000005722046
0,240,56057,2,0,L|106:133,1,150.000005722046
199,130,56373,6,0,L|167:162,1,37.5000014305115,8|0,0:2|0:0,0:0:0:0:
153,71,56531,2,10,B|205:23|205:23|221:76,4,100,10|10|10|10|10,0:1|0:1|0:1|0:1|0:1,0:1:0:0:
208,129,57005,6,0,L|72:265,1,150
64,224,57320,2,0,L|200:359,1,150.000005722046,0|0,0:0|0:2,0:0:0:0:
263,329,57636,6,0,L|404:188,1,200,8|0,0:2|0:0,0:0:0:0:
341,124,57952,2,0,L|234:17,1,150
142,18,58268,1,2,0:1:0:0:
29,354,58426,1,2,0:1:0:0:
113,351,58584,2,0,L|112:201,1,150.000005722046,0|0,0:0|0:2,0:0:0:0:
111,97,58899,6,0,L|253:239,1,200,8|0,0:2|0:0,0:0:0:0:
288,320,59215,2,0,L|288:127,1,150
224,64,59531,2,0,L|117:170,1,150
32,256,59847,2,0,L|168:391,1,150.000005722046,0|0,0:0|0:2,0:0:0:0:
256,358,60163,6,0,L|399:214,1,200,8|0,0:2|0:0,0:0:0:0:
320,128,60478,2,0,L|184:-8,1,150
63,64,60794,1,2,0:1:0:0:
449,160,60952,1,2,0:1:0:0:
352,256,61110,2,0,L|245:362,1,150
155,364,61426,6,0,L|13:223,1,200,8|0,0:2|0:0,0:0:0:0:
18,130,61741,2,0,L|124:23,1,150
222,21,62057,2,0,L|328:128,1,150
389,185,62373,2,0,L|495:79,1,150.000005722046
422,21,62689,6,0,L|212:21,1,200,8|0,0:2|0:0,0:0:0:0:
162,92,63005,2,0,L|268:198,1,150
392,319,63320,1,2,0:1:0:0:
271,22,63478,1,2,0:1:0:0:
384,128,63636,2,0,L|519:263,1,150.000005722046
480,288,63952,6,0,L|280:288,1,200,8|0,0:2|0:0,0:0:0:0:
96,192,64268,2,0,L|288:192,1,150
416,192,64584,2,0,L|309:86,1,150.000005722046,0|0,0:0|0:2,0:0:0:0:
224,0,64899,2,0,L|89:135,1,150.000005722046
32,192,65215,6,0,L|232:192,1,200,8|0,0:2|0:0,0:0:0:0:
384,192,65531,2,0,L|277:86,1,150.000005722046,0|0,0:0|0:2,0:0:0:0:
160,0,65847,1,2,0:1:0:0:
448,0,66005,1,2,0:1:0:0:
320,96,66163,2,0,L|170:96,1,150
96,192,66478,6,0,L|296:191,1,200,8|0,0:2|0:0,0:0:0:0:
416,192,66794,2,0,L|288:320,1,150.000005722046
256,192,67110,12,0,68689,0:0:0:0:
256,160,72163,6,8,L|256:224,48,37.5000014305115,8|8|8|8|8|8|8|8|8|8|8|8|8|8|8|8|8|8|8|8|8|8|8|8|8|8|8|8|8|8|8|8|8|8|8|8|8|8|8|8|8|8|8|8|8|8|8|8|10,0:0|0:0|0:0|0:0|0:0|0:0|0:0|0:0|0:0|0:0|0:0|0:0|0:0|0:0|0:0|0:0|0:0|0:0|0:0|0:0|0:0|0:0|0:0|0:0|0:0|0:0|0:0|0:0|0:0|0:0|0:0|0:0|0:0|0:0|0:0|0:0|0:0|0:0|0:0|0:0|0:0|0:0|0:0|0:0|0:0|0:0|0:0|0:0|0:0,0:0:0:0:
105,280,76268,2,0,B|384:32|384:32|128:32|128:32|405:278,1,1000,0|0,0:0|0:0,2:0:0:0:
449,360,77215,6,0,B|312:295|312:295|381:219,1,250,12|0,0:2|0:0,0:0:0:0:
449,143,77531,2,0,B|463:119|463:119|398:4|398:4|300:21,1,250
220,25,77847,6,0,B|96:42|96:42|84:183,1,250
133,259,78084,2,0,B|247:319|247:319|361:237,1,250
406,172,78320,2,0,B|415:55|415:55|271:25,1,250,0|12,0:0|0:2,0:0:0:0:
159,48,78636,6,0,B|84:63|84:63|90:132,1,125
99,186,78794,2,0,B|125:246|125:246|187:193,1,125
238,121,79110,6,0,B|336:88|336:88|368:147|368:147|309:210,1,250
237,286,79347,2,0,B|81:369|81:369|36:220,1,250
32,203,79584,1,0,0:0:0:0:
43,110,79741,2,0,B|84:15|84:15|285:18,1,250,12|0,0:2|0:2,0:0:0:0:
346,32,80057,6,0,B|467:113|467:113|453:236,1,250,0|0,0:0|0:2,0:0:0:0:
407,301,80373,2,0,B|226:358|226:358|157:216,1,250,0|0,0:0|0:2,0:0:0:0:
155,209,80610,2,0,B|143:35|143:35|277:2,1,250,0|0,0:0|0:2,0:0:0:0:
324,16,80847,2,0,B|480:108|480:108|468:198,1,250,0|12,0:0|0:2,0:0:0:0:
461,256,81163,1,0,0:0:0:0:
461,256,81241,1,0,0:0:0:0:
461,256,81320,2,0,B|414:327|414:327|406:261,1,125
383,199,81636,6,0,B|319:88|319:88|224:71|224:71|179:95,1,250,0|0,0:0|0:2,0:0:0:0:
118,142,81873,2,0,B|27:296|27:296|113:335,1,250,0|0,0:0|0:2,0:0:0:0:
195,354,82110,2,0,B|304:329|304:329|336:297,1,125,0|0,0:0|0:2,0:0:0:0:
379,276,82268,1,12,0:2:0:0:
450,123,82584,6,0,B|502:27|502:27|418:51|418:51|353:124,1,250,0|0,0:0|0:2,0:0:0:0:
275,193,82899,2,0,B|119:301|119:301|119:163,1,250,0|0,0:0|0:2,0:0:0:0:
123,124,83136,2,0,B|172:7|172:7|271:148,1,250,0|0,0:0|0:2,0:0:0:0:
299,226,83373,2,0,B|321:365|321:365|187:348,1,250,0|12,0:0|0:2,0:0:0:0:
107,315,83689,5,0,0:0:0:0:
28,257,83847,2,0,B|-8:98|-8:98|86:68,1,250,0|0,0:0|0:2,0:0:0:0:
225,50,84163,6,0,B|416:49|416:49|366:183,1,250,0|0,0:0|0:2,0:0:0:0:
356,216,84399,2,0,B|284:368|284:368|151:306,1,250,0|0,0:0|0:2,0:0:0:0:
128,294,84636,1,0,1:2:0:0:
62,212,84794,2,0,B|28:40|28:40|161:37,1,250,12|0,0:2|0:2,0:0:0:0:
246,38,85110,6,0,B|430:40|430:40|448:139,1,250,0|0,0:0|0:2,0:0:0:0:
471,212,85426,2,0,B|422:363|422:363|328:351,1,250,0|0,0:0|0:2,0:0:0:0:
257,336,85663,2,0,B|180:288|180:288|221:231,1,125,0|0,0:0|0:2,0:0:0:0:
256,192,85899,1,0,0:0:0:0:
287,160,86057,6,0,L|317:130,2,43.3333313496908
224,224,86373,2,0,L|193:254,2,43.3333313496908,12|0|0,0:0|0:0|0:0,0:0:0:0:
224,160,86689,2,0,L|192:128,2,43.3333313496908
288,224,87005,2,0,B|352:288|352:288|352:96|352:96|288:160,1,373.333321940105,6|0,0:1|0:0,0:0:0:0:
224,224,87320,6,0,L|193:254,2,43.3333313496908,4|0|0,0:0|0:0|0:0,0:0:0:0:
288,160,87636,2,0,L|318:129,2,43.3333313496908
224,224,87952,2,0,L|193:254,2,43.3333313496908
288,160,88268,2,0,B|352:96|352:96|160:96|160:96|224:160,1,373.333321940105,6|0,0:1|0:0,0:0:0:0:
288,224,88584,6,0,B|320:256|320:256|288:288,1,86.6666626993817,4|0,0:0|0:0,0:0:0:0:
256,320,88899,1,0,0:0:0:0:
256,320,89005,1,0,0:0:0:0:
256,320,89110,1,0,0:0:0:0:
224,288,89216,2,0,B|192:256|192:256|224:224,1,86.6666626993817
288,160,89531,2,0,B|352:96|352:96|160:96|160:96|224:160,1,373.333321940105,6|0,0:1|0:0,0:0:0:0:
288,224,89847,6,0,L|320:256,1,43.3333313496908,4|0,0:0|0:0,0:0:0:0:
288,288,90163,2,0,L|257:318,1,43.3333313496908
224,288,90479,2,0,L|192:256,1,43.3333313496908
224,224,90794,2,0,B|160:288|160:288|352:288|352:288|288:224,1,373.333321940105,6|0,0:1|0:0,0:0:0:0:
223,160,91110,6,0,L|193:129,2,43.3333313496908,4|0|0,0:0|0:0|0:0,0:0:0:0:
288,224,91426,2,0,B|320:256|320:256|352:224,1,86.6666626993817
416,160,91741,6,0,B|445:130|445:130|477:162,1,86.6666626993817
480,192,92057,2,0,L|-32:192,1,450.000017166138,12|0,0:1|0:2,0:2:0:0:
32,256,92373,2,0,L|160:384,1,150.000005722046,12|4,0:2|0:1,0:1:0:0:
256,352,92689,2,0,L|256:256,1,75.0000028610231
256,192,93004,1,8,0:0:0:0:
256,128,93320,5,0,2:0:0:0:
192,192,93478,1,0,2:0:0:0:
256,256,93636,1,8,2:2:0:0:
320,192,93794,1,0,2:0:0:0:
256,128,93952,5,0,2:0:0:0:
224,224,94110,1,0,2:0:0:0:
256,192,94268,2,0,L|282:165,4,37.5000014305115,8|0|0|0|0,2:2|2:0|2:0|2:0|2:0,2:0:0:0:
315,280,94820,5,0,0:2:0:0:
281,258,94899,1,8,0:0:0:0:
254,231,94978,1,0,0:0:0:0:
236,197,95057,1,0,0:0:0:0:
224,161,95136,1,0,0:0:0:0:
224,123,95215,1,0,0:0:0:0:
232,86,95294,1,0,0:0:0:0:
250,53,95373,1,0,0:0:0:0:
276,26,95452,1,0,0:0:0:0:
309,22,95531,6,0,L|181:278,1,250,8|0,1:0|1:0,1:0:0:0:
96,192,96163,6,0,P|170:80|281:80,1,250,4|0,0:0|0:0,0:0:0:0:
416,192,96478,2,0,P|361:301|244:340,1,250
117,111,96794,2,0,P|237:51|334:107,1,250,4|0,0:0|0:0,0:0:0:0:
358,250,97110,2,0,P|278:306|182:286,2,200,0|2|0,0:2|0:1|0:1,0:0:0:0:
330,102,97426,6,0,P|238:24|121:55,1,250,0|0,0:1|0:0,0:0:0:0:
62,210,97741,2,0,P|106:322|227:332,1,250,0|8,0:0|0:2,0:0:0:0:
360,120,98057,2,0,P|268:42|152:73,1,250
128,256,98373,2,0,P|228:344|331:309,1,250
416,256,98689,2,0,B|322:133|417:54|417:54|267:27|175:112,1,480,0|8,1:0|1:2,2:0:0:0:
47,262,99320,1,0,0:0:0:0:
192,288,99478,6,0,L|224:192,1,75.0000028610231
160,160,99636,2,0,L|136:231,1,75.0000028610231
121,311,99952,2,0,P|161:357|242:346,1,150.000005722046
331,269,100268,1,0,0:0:0:0:
352,154,100426,2,0,L|316:78,1,75.0000028610231,8|0,0:2|0:0,0:0:0:0:
250,33,100584,2,0,P|170:34|116:82,1,150.000005722046
58,185,100899,1,0,0:0:0:0:
72,269,101057,1,0,0:0:0:0:
178,318,101215,5,0,0:0:0:0:
265,294,101373,1,0,0:0:0:0:
237,192,101531,2,0,L|218:119,1,75.0000028610231,0|8,0:0|0:2,0:0:0:0:
272,44,101847,5,0,0:0:0:0:
373,37,102005,1,0,0:0:0:0:
457,93,102163,2,0,L|378:138,1,75.0000028610231
327,94,102478,2,0,P|79:121|354:295,1,800
384,192,103268,1,0,0:0:0:0:
384,192,103347,1,0,0:0:0:0:
384,192,103426,2,0,P|273:220|194:185,1,200
96,181,103741,6,0,P|264:320|330:282,1,300.000011444092
403,192,104215,1,8,0:2:0:0:
403,192,104294,1,0,0:0:0:0:
403,192,104373,2,0,P|381:119|322:74,1,150.000005722046
258,47,104689,1,0,0:0:0:0:
186,48,104847,1,0,0:0:0:0:
115,67,105005,2,0,P|85:175|172:138,1,250
257,86,105320,1,0,0:0:0:0:
338,32,105478,2,0,P|435:88|348:123,1,250,8|0,0:2|0:0,0:0:0:0:
47,24,105952,1,0,0:0:0:0:
116,128,106110,5,0,0:0:0:0:
204,177,106268,2,0,P|268:209|399:151,1,200
495,66,106584,2,0,L|495:2,2,50,0|0|8,0:0|0:0|0:2,0:0:0:0:
384,310,106899,1,0,0:0:0:0:
298,113,107057,6,0,B|214:89|135:148|135:148|208:104|261:148|261:148,1,300,8|0,0:0|0:0,0:0:0:0:
304,166,107373,2,0,L|349:147,1,37.5000014305115,2|0,0:1|0:3,0:0:0:0:
353,146,107531,1,6,0:1:0:0:
83,312,107847,2,0,L|30:341,2,50,0|0|8,0:0|0:0|0:2,0:0:0:0:
352,192,108163,5,0,0:0:0:0:
89,65,108478,2,0,L|36:36,2,50,0|0|0,0:0|0:0|0:2,0:0:0:0:
374,215,108794,1,0,0:0:0:0:
292,272,108952,1,0,0:0:0:0:
193,254,109110,1,0,0:0:0:0:
122,183,109268,1,8,0:2:0:0:
144,38,109426,1,0,0:0:0:0:
210,168,109584,1,0,0:0:0:0:
81,102,109741,1,0,0:0:0:0:
225,80,109899,1,0,0:0:0:0:
96,32,110057,5,0,0:0:0:0:
96,32,110136,1,0,0:0:0:0:
96,32,110215,1,0,0:0:0:0:
96,32,110294,1,0,0:0:0:0:
96,32,110373,2,0,L|256:160,1,150.000005722046,8|0,2:1|1:0,1:0:0:0:
213,125,110610,1,0,0:0:0:0:
213,125,110689,1,0,0:0:0:0:
380,299,111005,5,0,0:0:0:0:
219,193,111163,1,0,0:0:0:0:
281,354,111320,1,0,0:0:0:0:
338,195,111478,1,0,0:0:0:0:
188,301,111636,1,0,0:0:0:0:
473,57,111794,5,8,0:2:0:0:
469,61,111873,1,0,0:0:0:0:
465,65,111952,2,0,L|320:192,1,150.000005722046,0|0,2:1|1:0,1:0:0:0:
352,163,112189,1,0,0:0:0:0:
352,163,112268,1,0,0:0:0:0:
15,333,112584,5,4,0:1:0:0:
130,211,112741,1,0,0:0:0:0:
93,357,112899,1,0,0:0:0:0:
230,168,113057,1,8,0:2:0:0:
181,373,113215,1,4,0:0:0:0:
333,125,113373,1,0,0:0:0:0:
274,383,113531,1,0,0:0:0:0:
411,90,113689,1,0,0:0:0:0:
43,246,113847,2,0,B|6:265|22:319|75:292,1,100,4|0,0:0|0:0,0:0:0:0:
307,118,114320,5,8,0:2:0:0:
162,190,114478,1,4,0:0:0:0:
333,195,114636,1,0,0:0:0:0:
191,262,114794,1,0,0:0:0:0:
256,96,114952,1,0,0:0:0:0:
256,288,115110,1,4,0:0:0:0:
325,103,115426,5,4,0:0:0:0:
116,236,115584,1,8,0:2:0:0:
334,180,115741,1,4,0:0:0:0:
112,159,115899,1,0,0:0:0:0:
303,253,116057,1,4,0:0:0:0:
153,103,116215,1,0,0:0:0:0:
228,273,116373,1,4,0:0:0:0:
30,101,116531,1,0,0:0:0:0:
58,175,116689,6,0,B|146:340|146:340|246:337,1,250,8|0,0:1|0:2,0:0:0:0:
362,301,117005,2,0,B|488:214|488:214|432:103|432:103,1,250,8|0,0:1|0:2,0:0:0:0:
383,76,117241,2,0,B|278:30|278:30|214:187|214:187|126:151,1,375,8|8,0:1|0:1,0:0:0:0:
58,167,117636,6,0,B|72:203|72:203|41:232|41:232|120:224|120:224|156:283|247:295|247:295|302:288|302:288|276:377|276:377|359:348|408:308|437:254|502:132|516:79|455:107|455:107|470:45|399:73|335:83|326:110|351:153|305:194|250:197|181:187|125:163|115:130|115:130,1,1250,4|0,2:2|2:2,2:2:0:0:
