osu file format v14

[General]
AudioFilename: audio.mp3
AudioLeadIn: 0
PreviewTime: 112118
Countdown: 0
SampleSet: Soft
StackLeniency: 0.7
Mode: 3
LetterboxInBreaks: 0
SpecialStyle: 0
WidescreenStoryboard: 1

[Editor]
DistanceSpacing: 0.6
BeatDivisor: 4
GridSize: 8
TimelineZoom: 1.7

[Metadata]
Title:SAIKYO STRONGER
TitleUnicode:最強STRONGER
Artist:REDALiCE vs. USAO
ArtistUnicode:REDALiCE vs. USAO
Creator:Otosaka-Yu
Version:Spy's PAST
Source:Arcaea
Tags:lowiro HARDCORE TANO*C DORO*C KEI Collaboration Memory Archive UOM Records USAO-017 XTREME TCSLCD-0006 OVERLOAD Frenchcore video game electronic instrumental 1112deng Suzuki_1112 Spy Hanazawa Kana Reincarnation Necho Quantum Rosta ExNeko
BeatmapID:2295255
BeatmapSetID:1098586

[Difficulty]
HPDrainRate:7
CircleSize:4
OverallDifficulty:7
ApproachRate:5
SliderMultiplier:1.4
SliderTickRate:1

[Events]
//Background and Video events
0,0,"BG.jpg",0,0
//Break Periods
//Storyboard Layer 0 (Background)
//Storyboard Layer 1 (Fail)
//Storyboard Layer 2 (Pass)
//Storyboard Layer 3 (Foreground)
//Storyboard Layer 4 (Overlay)
//Storyboard Sound Samples
Sample,9679,0,"soft-hitwhistle.wav",40
Sample,19192,0,"soft-hitclap.wav",70
Sample,22265,0,"soft-hitwhistle.wav",40
Sample,23728,0,"soft-hitfinish.wav",70
Sample,23874,0,"soft-hithihat.wav",50
Sample,24899,0,"soft-hitfinish.wav",70
Sample,26362,0,"soft-hitwhistle.wav",40
Sample,26948,0,"soft-hitwhistle.wav",40
Sample,58704,0,"soft-hithihat.wav",50
Sample,73484,0,"soft-hitwhistle.wav",30
Sample,84606,0,"soft-hitclap.wav",70
Sample,85777,0,"soft-hitclap.wav",70
Sample,86948,0,"soft-hitclap.wav",70
Sample,114899,0,"soft-hitclap.wav",70
Sample,116948,0,"soft-hithihat.wav",50
Sample,119289,0,"soft-hitclap.wav",70
Sample,119874,0,"soft-hitclap.wav",70
Sample,120167,0,"soft-hitclap.wav",70
Sample,120460,0,"soft-hitclap.wav",70
Sample,120753,0,"soft-hitclap.wav",70
Sample,121192,0,"soft-hitclap.wav",70
Sample,124265,0,"soft-hitclap.wav",70
Sample,125728,0,"soft-hithihat.wav",50
Sample,126021,0,"soft-hithihat.wav",50
Sample,126313,0,"soft-hithihat.wav",50
Sample,126606,0,"soft-hitclap.wav",70
Sample,127777,0,"soft-hithihat.wav",50
Sample,128362,0,"soft-hithihat.wav",50
Sample,136265,0,"soft-hitclap.wav",70
Sample,136557,0,"soft-hitclap.wav",70
Sample,136850,0,"soft-hithihat.wav",50
Sample,137143,0,"soft-hithihat.wav",50
Sample,137435,0,"soft-hitclap.wav",70
Sample,137728,0,"soft-hitclap.wav",70
Sample,138021,0,"soft-hitclap.wav",70
Sample,138313,0,"soft-hithihat.wav",50
Sample,138606,0,"soft-hithihat.wav",50
Sample,138899,0,"soft-hithihat.wav",50
Sample,139192,0,"soft-hithihat.wav",50
Sample,139484,0,"soft-hithihat.wav",50

[TimingPoints]
314,292.682926829268,4,2,1,70,1,0
112704,-100,4,2,1,70,0,1
122070,-100,4,2,1,70,0,0
123240,-100,4,2,1,70,0,1
131435,-100,4,2,1,70,0,0

[HitObjects]
64,192,314,5,0,0:0:0:70:soft-hitfinish.wav
448,192,314,1,0,0:0:0:70:soft-hitclap.wav
192,192,606,1,0,0:0:0:0:
320,192,753,1,0,0:0:0:0:
192,192,1045,1,0,0:0:0:0:
448,192,1192,1,0,0:0:0:0:
320,192,1484,1,0,0:0:0:0:
192,192,1631,1,0,0:0:0:0:
64,192,1777,1,0,0:0:0:0:
192,192,1923,1,0,0:0:0:0:
448,192,2070,1,0,0:0:0:0:
64,192,2655,1,0,0:0:0:0:
320,192,2655,1,0,0:0:0:0:
192,192,2948,1,0,0:0:0:0:
320,192,3094,1,0,0:0:0:0:
192,192,3387,1,0,0:0:0:0:
448,192,3533,1,0,0:0:0:0:
320,192,3826,1,0,0:0:0:0:
192,192,3972,1,0,0:0:0:0:
64,192,4118,1,0,0:0:0:0:
192,192,4265,1,0,0:0:0:0:
320,192,4411,1,0,0:0:0:0:
448,192,4557,128,0,4996:0:0:0:0:
64,192,4996,1,0,0:0:0:0:
320,192,4996,1,0,0:0:0:0:
192,192,5289,1,0,0:0:0:0:
320,192,5435,1,0,0:0:0:0:
192,192,5728,1,0,0:0:0:0:
448,192,5874,1,0,0:0:0:0:
320,192,6167,1,0,0:0:0:0:
448,192,6313,1,0,0:0:0:0:
192,192,6460,1,0,0:0:0:0:
448,192,6606,1,0,0:0:0:0:
64,192,6753,1,0,0:0:0:0:
192,192,6899,1,0,0:0:0:0:
320,192,7045,1,0,0:0:0:0:
192,192,7192,1,0,0:0:0:0:
64,192,7338,1,0,0:0:0:0:
448,192,7631,1,0,0:0:0:0:
320,192,7777,1,0,0:0:0:0:
448,192,7923,1,0,0:0:0:0:
192,192,8070,1,0,0:0:0:0:
320,192,8216,1,0,0:0:0:0:
64,192,8509,1,0,0:0:0:70:soft-hitclap.wav
448,192,8509,1,0,0:0:0:0:
64,192,9094,128,0,9679:0:0:0:0:
192,192,9679,1,0,0:0:0:70:soft-hitclap.wav
448,192,9679,1,0,0:0:0:70:soft-hitfinish.wav
64,192,9972,1,0,0:0:0:70:soft-hitclap.wav
320,192,9972,1,0,0:0:0:40:soft-hitwhistle.wav
192,192,10265,1,0,0:0:0:40:soft-hitwhistle.wav
448,192,10265,1,0,0:0:0:70:soft-hitclap.wav
192,192,10557,1,0,0:0:0:70:soft-hitclap.wav
320,192,10557,1,0,0:0:0:40:soft-hitwhistle.wav
64,192,10850,1,0,0:0:0:40:soft-hitwhistle.wav
448,192,10850,1,0,0:0:0:70:soft-hitclap.wav
192,192,11143,1,0,0:0:0:70:soft-hitclap.wav
448,192,11143,1,0,0:0:0:40:soft-hitwhistle.wav
64,192,11435,1,0,0:0:0:40:soft-hitwhistle.wav
320,192,11435,1,0,0:0:0:70:soft-hitclap.wav
192,192,11728,1,0,0:0:0:40:soft-hitwhistle.wav
320,192,11728,1,0,0:0:0:70:soft-hitclap.wav
320,192,12021,1,0,0:0:0:70:soft-hitclap.wav
448,192,12021,1,0,0:0:0:40:soft-hitwhistle.wav
64,192,12167,1,0,0:0:0:70:soft-hitclap.wav
192,192,12167,1,0,0:0:0:40:soft-hitwhistle.wav
320,192,12313,1,0,0:0:0:70:soft-hitclap.wav
448,192,12313,1,0,0:0:0:40:soft-hitwhistle.wav
64,192,12460,1,0,0:0:0:40:soft-hitwhistle.wav
192,192,12460,1,0,0:0:0:70:soft-hitclap.wav
320,192,12606,1,0,0:0:0:70:soft-hitclap.wav
448,192,12606,128,0,13192:0:0:0:40:soft-hitwhistle.wav
192,192,13192,1,0,0:0:0:70:soft-hitclap.wav
320,192,13192,1,0,0:0:0:40:soft-hitwhistle.wav
64,192,13338,1,0,0:0:0:0:
320,192,13484,1,0,0:0:0:0:
64,192,13631,1,0,0:0:0:0:
320,192,13777,1,0,0:0:0:0:
64,192,14070,1,0,0:0:0:70:soft-hitclap.wav
448,192,14216,1,0,0:0:0:70:soft-hitclap.wav
192,192,14289,1,0,0:0:0:70:soft-hitclap.wav
320,192,14362,1,0,0:0:0:70:soft-hitclap.wav
64,192,14509,1,0,0:0:0:50:soft-hithihat.wav
320,192,14655,1,0,0:0:0:70:soft-hitclap.wav
64,192,14801,1,0,0:0:0:50:soft-hithihat.wav
320,192,14948,1,0,0:0:0:70:soft-hitclap.wav
64,192,15094,1,0,0:0:0:50:soft-hithihat.wav
320,192,15240,1,0,0:0:0:70:soft-hitclap.wav
64,192,15387,1,0,0:0:0:50:soft-hithihat.wav
320,192,15533,1,0,0:0:0:70:soft-hitclap.wav
64,192,15679,1,0,0:0:0:50:soft-hithihat.wav
320,192,15826,1,0,0:0:0:70:soft-hitclap.wav
64,192,15972,1,0,0:0:0:50:soft-hithihat.wav
320,192,16118,1,0,0:0:0:70:soft-hitclap.wav
64,192,16265,1,0,0:0:0:50:soft-hithihat.wav
320,192,16411,1,0,0:0:0:70:soft-hitclap.wav
64,192,16557,1,0,0:0:0:50:soft-hithihat.wav
192,192,16631,1,0,0:0:0:50:soft-hithihat.wav
448,192,16704,1,0,0:0:0:70:soft-hitclap.wav
192,192,16850,1,0,0:0:0:50:soft-hithihat.wav
448,192,16996,1,0,0:0:0:70:soft-hitclap.wav
192,192,17143,1,0,0:0:0:50:soft-hithihat.wav
448,192,17289,1,0,0:0:0:70:soft-hitclap.wav
192,192,17435,1,0,0:0:0:50:soft-hithihat.wav
448,192,17582,1,0,0:0:0:70:soft-hitclap.wav
192,192,17728,1,0,0:0:0:50:soft-hithihat.wav
448,192,17874,1,0,0:0:0:70:soft-hitclap.wav
320,192,18021,1,0,0:0:0:50:soft-hithihat.wav
64,192,18167,1,0,0:0:0:0:
192,192,18313,1,0,0:0:0:0:
448,192,18460,1,0,0:0:0:70:soft-hitclap.wav
192,192,18606,1,0,0:0:0:0:
320,192,18753,1,0,0:0:0:0:
448,192,18899,1,0,0:0:0:0:
64,192,19045,1,0,0:0:0:70:soft-hitclap.wav
64,192,19192,1,0,0:0:0:50:soft-hithihat.wav
192,192,19338,1,0,0:0:0:70:soft-hitclap.wav
448,192,19338,1,0,0:0:0:40:soft-hitwhistle.wav
320,192,19484,1,0,0:0:0:50:soft-hithihat.wav
64,192,19631,1,0,0:0:0:70:soft-hitclap.wav
192,192,19777,1,0,0:0:0:50:soft-hithihat.wav
320,192,19923,1,0,0:0:0:40:soft-hitwhistle.wav
448,192,19923,1,0,0:0:0:70:soft-hitclap.wav
64,192,20070,1,0,0:0:0:50:soft-hithihat.wav
192,192,20143,1,0,0:0:0:0:
320,192,20216,1,0,0:0:0:70:soft-hitclap.wav
448,192,20362,1,0,0:0:0:50:soft-hithihat.wav
64,192,20509,1,0,0:0:0:70:soft-hitclap.wav
320,192,20509,1,0,0:0:0:40:soft-hitwhistle.wav
192,192,20655,1,0,0:0:0:50:soft-hithihat.wav
64,192,20801,1,0,0:0:0:70:soft-hitclap.wav
320,192,20948,1,0,0:0:0:50:soft-hithihat.wav
192,192,21021,1,0,0:0:0:0:
64,192,21094,1,0,0:0:0:70:soft-hitclap.wav
448,192,21094,1,0,0:0:0:40:soft-hitwhistle.wav
320,192,21387,1,0,0:0:0:70:soft-hitclap.wav
192,192,21679,1,0,0:0:0:40:soft-hitwhistle.wav
64,192,21826,1,0,0:0:0:70:soft-hitclap.wav
192,192,21972,1,0,0:0:0:70:soft-hitclap.wav
64,192,22118,1,0,0:0:0:70:soft-hitclap.wav
192,192,22265,1,0,0:0:0:70:soft-hitclap.wav
320,192,22338,1,0,0:0:0:0:
192,192,22411,1,0,0:0:0:70:soft-hitclap.wav
448,192,22557,1,0,0:0:0:70:soft-hitclap.wav
320,192,22704,1,0,0:0:0:50:soft-hithihat.wav
192,192,22850,128,0,23143:0:0:0:0:
320,192,23143,128,0,23289:0:0:0:70:soft-hitclap.wav
64,192,23362,1,0,0:0:0:70:soft-hitclap.wav
192,192,23435,1,0,0:0:0:70:soft-hitclap.wav
448,192,23582,1,0,0:0:0:70:soft-hitclap.wav
320,192,23728,1,0,0:0:0:70:soft-hitclap.wav
320,192,23874,1,0,0:0:0:70:soft-hitclap.wav
64,192,24021,1,0,0:0:0:70:soft-hitclap.wav
448,192,24021,1,0,0:0:0:40:soft-hitwhistle.wav
320,192,24167,1,0,0:0:0:50:soft-hithihat.wav
192,192,24313,1,0,0:0:0:70:soft-hitclap.wav
320,192,24460,1,0,0:0:0:50:soft-hithihat.wav
192,192,24606,1,0,0:0:0:40:soft-hitwhistle.wav
448,192,24606,1,0,0:0:0:70:soft-hitclap.wav
320,192,24753,1,0,0:0:0:50:soft-hithihat.wav
192,192,24826,1,0,0:0:0:0:
64,192,24899,1,0,0:0:0:70:soft-hitclap.wav
320,192,25045,1,0,0:0:0:50:soft-hithihat.wav
64,192,25192,1,0,0:0:0:70:soft-hitclap.wav
192,192,25192,1,0,0:0:0:40:soft-hitwhistle.wav
320,192,25338,1,0,0:0:0:50:soft-hithihat.wav
448,192,25484,1,0,0:0:0:70:soft-hitclap.wav
192,192,25631,1,0,0:0:0:50:soft-hithihat.wav
320,192,25704,1,0,0:0:0:0:
64,192,25777,1,0,0:0:0:40:soft-hitwhistle.wav
448,192,25777,1,0,0:0:0:70:soft-hitclap.wav
192,192,25923,1,0,0:0:0:70:soft-hitclap.wav
320,192,25996,1,0,0:0:0:70:soft-hitclap.wav
192,192,26070,1,0,0:0:0:70:soft-hitclap.wav
64,192,26216,1,0,0:0:0:50:soft-hithihat.wav
320,192,26362,1,0,0:0:0:70:soft-hitclap.wav
192,192,26435,1,0,0:0:0:0:
64,192,26509,1,0,0:0:0:50:soft-hithihat.wav
320,192,26655,1,0,0:0:0:70:soft-hitclap.wav
192,192,26801,1,0,0:0:0:0:
448,192,26948,1,0,0:0:0:70:soft-hitclap.wav
192,192,27094,1,0,0:0:0:0:
64,192,27240,1,0,0:0:0:70:soft-hitclap.wav
192,192,27387,1,0,0:0:0:0:
320,192,27533,1,0,0:0:0:70:soft-hitclap.wav
64,192,27679,1,0,0:0:0:0:
192,192,27826,1,0,0:0:0:0:
448,192,27972,1,0,0:0:0:0:
192,192,28118,128,0,28411:0:0:0:0:
64,192,28411,1,0,0:0:0:70:soft-hitclap.wav
320,192,28411,1,0,0:0:0:70:soft-hitfinish.wav
448,192,28557,1,0,0:0:0:50:soft-hithihat.wav
64,192,28704,1,0,0:0:0:40:soft-hitwhistle.wav
192,192,28704,1,0,0:0:0:0:
320,192,28850,1,0,0:0:0:0:
64,192,29143,1,0,0:0:0:70:soft-hitclap.wav
448,192,29143,1,0,0:0:0:0:
192,192,29289,1,0,0:0:0:40:soft-hitwhistle.wav
320,192,29289,1,0,0:0:0:0:
64,192,29582,1,0,0:0:0:70:soft-hitclap.wav
320,192,29582,1,0,0:0:0:0:
192,192,29728,1,0,0:0:0:50:soft-hithihat.wav
320,192,29874,1,0,0:0:0:40:soft-hitwhistle.wav
448,192,29874,1,0,0:0:0:0:
192,192,30021,1,0,0:0:0:50:soft-hithihat.wav
64,192,30313,1,0,0:0:0:50:soft-hithihat.wav
320,192,30313,1,0,0:0:0:70:soft-hitclap.wav
192,192,30460,1,0,0:0:0:40:soft-hitwhistle.wav
448,192,30460,1,0,0:0:0:0:
320,192,30606,1,0,0:0:0:50:soft-hithihat.wav
64,192,30753,1,0,0:0:0:70:soft-hitclap.wav
192,192,30753,1,0,0:0:0:70:soft-hitfinish.wav
320,192,30972,1,0,0:0:0:70:soft-hitclap.wav
448,192,30972,1,0,0:0:0:0:
192,192,31192,1,0,0:0:0:70:soft-hitclap.wav
320,192,31192,1,0,0:0:0:50:soft-hithihat.wav
64,192,31411,1,0,0:0:0:70:soft-hitclap.wav
448,192,31411,1,0,0:0:0:0:
320,192,31631,128,0,31923:0:0:0:70:soft-hitclap.wav
64,192,31923,1,0,0:0:0:70:soft-hitclap.wav
448,192,32801,128,0,33094:0:0:0:0:
64,192,33094,1,0,0:0:0:70:soft-hitclap.wav
320,192,33094,1,0,0:0:0:70:soft-hitfinish.wav
320,192,33240,1,0,0:0:0:0:
192,192,33387,1,0,0:0:0:40:soft-hitwhistle.wav
320,192,33679,1,0,0:0:0:70:soft-hitclap.wav
448,192,33679,1,0,0:0:0:0:
64,192,33826,1,0,0:0:0:0:
192,192,33972,1,0,0:0:0:0:
64,192,34265,1,0,0:0:0:40:soft-hitwhistle.wav
448,192,34265,128,0,34850:0:0:0:70:soft-hitclap.wav
192,192,34850,128,0,35143:0:0:0:70:soft-hitclap.wav
64,192,35143,128,0,35435:0:0:0:40:soft-hitwhistle.wav
320,192,35143,1,0,0:0:0:70:soft-hitclap.wav
192,192,35435,1,0,0:0:0:70:soft-hitfinish.wav
448,192,35435,1,0,0:0:0:70:soft-hitclap.wav
320,192,35582,1,0,0:0:0:50:soft-hithihat.wav
64,192,35728,1,0,0:0:0:70:soft-hitclap.wav
448,192,35728,1,0,0:0:0:0:
192,192,35874,1,0,0:0:0:50:soft-hithihat.wav
64,192,36021,1,0,0:0:0:40:soft-hitwhistle.wav
320,192,36021,1,0,0:0:0:0:
192,192,36460,1,0,0:0:0:70:soft-hitclap.wav
320,192,36460,1,0,0:0:0:0:
320,192,36753,1,0,0:0:0:50:soft-hithihat.wav
64,192,36899,1,0,0:0:0:70:soft-hitclap.wav
448,192,36899,1,0,0:0:0:0:
192,192,37045,1,0,0:0:0:50:soft-hithihat.wav
320,192,37192,1,0,0:0:0:40:soft-hitwhistle.wav
448,192,37192,1,0,0:0:0:0:
192,192,37484,1,0,0:0:0:0:
448,192,37631,1,0,0:0:0:0:
64,192,37777,1,0,0:0:0:70:soft-hitclap.wav
192,192,37777,1,0,0:0:0:0:
320,192,37923,1,0,0:0:0:50:soft-hithihat.wav
64,192,38070,1,0,0:0:0:70:soft-hitclap.wav
448,192,38070,1,0,0:0:0:0:
320,192,38216,1,0,0:0:0:50:soft-hithihat.wav
64,192,38362,1,0,0:0:0:40:soft-hitwhistle.wav
192,192,38362,1,0,0:0:0:0:
192,192,38655,1,0,0:0:0:0:
64,192,38801,1,0,0:0:0:70:soft-hitclap.wav
448,192,38801,1,0,0:0:0:0:
320,192,38948,1,0,0:0:0:0:
64,192,39094,1,0,0:0:0:70:soft-hitclap.wav
192,192,39094,1,0,0:0:0:50:soft-hithihat.wav
320,192,39240,1,0,0:0:0:70:soft-hitclap.wav
448,192,39240,128,0,39533:0:0:0:0:
64,192,39533,1,0,0:0:0:40:soft-hitwhistle.wav
192,192,39533,1,0,0:0:0:0:
320,192,39679,1,0,0:0:0:50:soft-hithihat.wav
192,192,39826,1,0,0:0:0:0:
192,192,39972,1,0,0:0:0:0:
64,192,40118,1,0,0:0:0:70:soft-hitclap.wav
448,192,40118,1,0,0:0:0:0:
320,192,40265,1,0,0:0:0:50:soft-hithihat.wav
64,192,40411,1,0,0:0:0:70:soft-hitclap.wav
192,192,40411,1,0,0:0:0:0:
320,192,40557,1,0,0:0:0:50:soft-hithihat.wav
64,192,40704,1,0,0:0:0:40:soft-hitwhistle.wav
448,192,40704,1,0,0:0:0:0:
192,192,41143,1,0,0:0:0:70:soft-hitclap.wav
320,192,41143,1,0,0:0:0:0:
64,192,41582,1,0,0:0:0:70:soft-hitclap.wav
448,192,41582,1,0,0:0:0:0:
192,192,41728,1,0,0:0:0:50:soft-hithihat.wav
320,192,41874,1,0,0:0:0:40:soft-hitwhistle.wav
448,192,41874,1,0,0:0:0:0:
192,192,42167,1,0,0:0:0:0:
448,192,42313,1,0,0:0:0:50:soft-hithihat.wav
64,192,42460,1,0,0:0:0:70:soft-hitclap.wav
192,192,42460,1,0,0:0:0:0:
320,192,42606,1,0,0:0:0:50:soft-hithihat.wav
64,192,42753,1,0,0:0:0:70:soft-hitclap.wav
448,192,42753,1,0,0:0:0:0:
192,192,42899,1,0,0:0:0:0:
320,192,43045,1,0,0:0:0:40:soft-hitwhistle.wav
448,192,43045,1,0,0:0:0:0:
192,192,43192,1,0,0:0:0:50:soft-hithihat.wav
320,192,43338,128,0,43631:0:0:0:0:
64,192,43631,128,0,43923:0:0:0:70:soft-hitclap.wav
448,192,43631,1,0,0:0:0:0:
320,192,43923,128,0,44801:0:0:0:0:
64,192,44801,1,0,0:0:0:70:soft-hitclap.wav
448,192,44801,1,0,0:0:0:70:soft-hitfinish.wav
192,192,45094,1,0,0:0:0:0:
64,192,45387,1,0,0:0:0:70:soft-hitfinish.wav
448,192,45387,1,0,0:0:0:70:soft-hitclap.wav
192,192,45582,1,0,0:0:0:0:
320,192,45679,1,0,0:0:0:0:
64,192,45972,1,0,0:0:0:70:soft-hitfinish.wav
448,192,45972,1,0,0:0:0:70:soft-hitclap.wav
64,192,46265,1,0,0:0:0:70:soft-hitfinish.wav
448,192,46265,1,0,0:0:0:70:soft-hitclap.wav
64,192,46557,1,0,0:0:0:70:soft-hitfinish.wav
448,192,46557,1,0,0:0:0:70:soft-hitclap.wav
320,192,46850,128,0,47143:0:0:0:0:
64,192,47143,1,0,0:0:0:70:soft-hitfinish.wav
448,192,47143,1,0,0:0:0:70:soft-hitclap.wav
192,192,47435,1,0,0:0:0:0:
320,192,47582,1,0,0:0:0:50:soft-hithihat.wav
64,192,47728,1,0,0:0:0:70:soft-hitclap.wav
448,192,47728,1,0,0:0:0:40:soft-hitwhistle.wav
448,192,48021,1,0,0:0:0:0:
64,192,48313,1,0,0:0:0:70:soft-hitclap.wav
448,192,48313,1,0,0:0:0:0:
320,192,48606,1,0,0:0:0:0:
192,192,48753,1,0,0:0:0:50:soft-hithihat.wav
64,192,48899,1,0,0:0:0:40:soft-hitwhistle.wav
448,192,48899,1,0,0:0:0:70:soft-hitclap.wav
320,192,49192,1,0,0:0:0:0:
64,192,49484,1,0,0:0:0:70:soft-hitclap.wav
448,192,49484,1,0,0:0:0:40:soft-hitwhistle.wav
320,192,49777,1,0,0:0:0:0:
192,192,49923,1,0,0:0:0:50:soft-hithihat.wav
64,192,50070,1,0,0:0:0:70:soft-hitclap.wav
448,192,50070,1,0,0:0:0:40:soft-hitwhistle.wav
64,192,50362,1,0,0:0:0:0:
64,192,50655,1,0,0:0:0:70:soft-hitclap.wav
448,192,50655,1,0,0:0:0:0:
192,192,50948,1,0,0:0:0:50:soft-hithihat.wav
320,192,51094,1,0,0:0:0:50:soft-hithihat.wav
64,192,51240,1,0,0:0:0:70:soft-hitclap.wav
192,192,51240,1,0,0:0:0:40:soft-hitwhistle.wav
448,192,51533,128,0,51826:0:0:0:0:
64,192,51826,1,0,0:0:0:70:soft-hitclap.wav
320,192,51826,1,0,0:0:0:70:soft-hitfinish.wav
192,192,51972,1,0,0:0:0:50:soft-hithihat.wav
64,192,52118,1,0,0:0:0:50:soft-hitwhistle.wav
448,192,52118,1,0,0:0:0:0:
320,192,52265,1,0,0:0:0:50:soft-hithihat.wav
64,192,52557,1,0,0:0:0:70:soft-hitclap.wav
320,192,52557,1,0,0:0:0:0:
192,192,52704,1,0,0:0:0:70:soft-hitclap.wav
320,192,52704,1,0,0:0:0:40:soft-hitwhistle.wav
64,192,52996,1,0,0:0:0:70:soft-hitclap.wav
448,192,52996,1,0,0:0:0:0:
192,192,53143,1,0,0:0:0:50:soft-hithihat.wav
64,192,53289,1,0,0:0:0:40:soft-hitwhistle.wav
320,192,53289,1,0,0:0:0:0:
192,192,53435,1,0,0:0:0:50:soft-hithihat.wav
320,192,53728,1,0,0:0:0:70:soft-hitclap.wav
448,192,53728,1,0,0:0:0:0:
192,192,53874,1,0,0:0:0:70:soft-hitclap.wav
320,192,53874,1,0,0:0:0:40:soft-hitwhistle.wav
64,192,54021,1,0,0:0:0:50:soft-hithihat.wav
192,192,54167,1,0,0:0:0:70:soft-hitclap.wav
448,192,54167,1,0,0:0:0:0:
192,192,54387,1,0,0:0:0:70:soft-hitclap.wav
320,192,54387,1,0,0:0:0:0:
64,192,54606,1,0,0:0:0:70:soft-hitclap.wav
320,192,54606,1,0,0:0:0:0:
192,192,54826,1,0,0:0:0:70:soft-hitclap.wav
448,192,54826,1,0,0:0:0:0:
64,192,55045,128,0,55338:0:0:0:70:soft-hitclap.wav
448,192,55045,1,0,0:0:0:0:
192,192,55338,1,0,0:0:0:70:soft-hitclap.wav
320,192,55338,1,0,0:0:0:0:
192,192,55631,1,0,0:0:0:70:soft-hitclap.wav
320,192,55631,1,0,0:0:0:0:
64,192,55923,1,0,0:0:0:70:soft-hitclap.wav
448,192,55923,1,0,0:0:0:0:
320,192,56070,1,0,0:0:0:70:soft-hitclap.wav
192,192,56143,1,0,0:0:0:70:soft-hitclap.wav
64,192,56216,128,0,56509:0:0:0:0:
192,192,56509,1,0,0:0:0:70:soft-hitclap.wav
448,192,56509,1,0,0:0:0:70:soft-hitfinish.wav
64,192,56801,1,0,0:0:0:40:soft-hitwhistle.wav
320,192,56801,1,0,0:0:0:70:soft-hitclap.wav
192,192,56948,1,0,0:0:0:50:soft-hithihat.wav
64,192,57094,1,0,0:0:0:70:soft-hitclap.wav
448,192,57094,1,0,0:0:0:0:
192,192,57387,1,0,0:0:0:70:soft-hitclap.wav
448,192,57387,1,0,0:0:0:40:soft-hitwhistle.wav
64,192,57679,1,0,0:0:0:70:soft-hitclap.wav
448,192,57679,1,0,0:0:0:0:
192,192,57972,1,0,0:0:0:70:soft-hitclap.wav
448,192,57972,1,0,0:0:0:40:soft-hitwhistle.wav
320,192,58118,1,0,0:0:0:50:soft-hithihat.wav
64,192,58265,1,0,0:0:0:70:soft-hitclap.wav
448,192,58265,1,0,0:0:0:0:
192,192,58557,1,0,0:0:0:70:soft-hitclap.wav
320,192,58557,1,0,0:0:0:40:soft-hitwhistle.wav
320,192,58704,1,0,0:0:0:40:soft-hitwhistle.wav
64,192,58850,1,0,0:0:0:70:soft-hitclap.wav
448,192,58850,1,0,0:0:0:0:
64,192,59143,1,0,0:0:0:70:soft-hitclap.wav
320,192,59143,1,0,0:0:0:40:soft-hitwhistle.wav
192,192,59289,1,0,0:0:0:50:soft-hithihat.wav
64,192,59435,1,0,0:0:0:70:soft-hitclap.wav
448,192,59435,1,0,0:0:0:0:
64,192,59728,1,0,0:0:0:40:soft-hitwhistle.wav
320,192,59728,1,0,0:0:0:70:soft-hitclap.wav
64,192,60021,1,0,0:0:0:70:soft-hitclap.wav
448,192,60021,1,0,0:0:0:0:
64,192,60313,1,0,0:0:0:40:soft-hitwhistle.wav
320,192,60313,1,0,0:0:0:70:soft-hitclap.wav
192,192,60606,1,0,0:0:0:70:soft-hitclap.wav
448,192,60606,128,0,60899:0:0:0:0:
64,192,60899,128,0,61192:0:0:0:0:
192,192,61192,1,0,0:0:0:70:soft-hitclap.wav
448,192,61192,1,0,0:0:0:0:
320,192,61338,1,0,0:0:0:50:soft-hithihat.wav
64,192,61484,1,0,0:0:0:70:soft-hitclap.wav
448,192,61484,1,0,0:0:0:40:soft-hitwhistle.wav
192,192,61631,1,0,0:0:0:50:soft-hithihat.wav
320,192,61923,1,0,0:0:0:50:soft-hithihat.wav
448,192,62216,1,0,0:0:0:50:soft-hithihat.wav
320,192,62509,1,0,0:0:0:50:soft-hithihat.wav
64,192,62655,1,0,0:0:0:70:soft-hitclap.wav
448,192,62655,1,0,0:0:0:40:soft-hitwhistle.wav
192,192,62801,1,0,0:0:0:50:soft-hithihat.wav
320,192,62948,1,0,0:0:0:70:soft-hitclap.wav
448,192,62948,1,0,0:0:0:0:
64,192,63240,128,0,63533:0:0:0:70:soft-hitclap.wav
320,192,63240,1,0,0:0:0:40:soft-hitwhistle.wav
192,192,63533,1,0,0:0:0:70:soft-hitclap.wav
448,192,63533,1,0,0:0:0:0:
320,192,63679,1,0,0:0:0:50:soft-hithihat.wav
64,192,63826,1,0,0:0:0:70:soft-hitclap.wav
320,192,63826,1,0,0:0:0:40:soft-hitwhistle.wav
192,192,63972,1,0,0:0:0:50:soft-hithihat.wav
320,192,64118,1,0,0:0:0:70:soft-hitclap.wav
448,192,64118,1,0,0:0:0:0:
64,192,64265,1,0,0:0:0:50:soft-hithihat.wav
192,192,64411,1,0,0:0:0:70:soft-hitclap.wav
448,192,64411,1,0,0:0:0:40:soft-hitwhistle.wav
192,192,64704,1,0,0:0:0:70:soft-hitclap.wav
320,192,64704,1,0,0:0:0:0:
64,192,64850,1,0,0:0:0:0:
192,192,64996,1,0,0:0:0:0:
320,192,65143,1,0,0:0:0:0:
192,192,65216,1,0,0:0:0:0:
64,192,65289,1,0,0:0:0:0:
448,192,65435,1,0,0:0:0:0:
320,192,65582,1,0,0:0:0:0:
192,192,65655,1,0,0:0:0:0:
64,192,65728,1,0,0:0:0:0:
192,192,65874,1,0,0:0:0:70:soft-hitfinish.wav
448,192,65874,1,0,0:0:0:70:soft-hitclap.wav
320,192,66021,1,0,0:0:0:0:
320,192,66313,1,0,0:0:0:0:
448,192,66753,1,0,0:0:0:40:soft-hithihat.wav
64,192,67045,1,0,0:0:0:40:soft-hithihat.wav
320,192,67192,1,0,0:0:0:0:
64,192,67338,1,0,0:0:0:40:soft-hithihat.wav
448,192,67338,1,0,0:0:0:0:
192,192,67484,1,0,0:0:0:0:
64,192,67631,1,0,0:0:0:40:soft-hithihat.wav
320,192,67631,1,0,0:0:0:0:
64,192,67923,1,0,0:0:0:40:soft-hithihat.wav
64,192,68216,1,0,0:0:0:40:soft-hithihat.wav
320,192,68509,1,0,0:0:0:40:soft-hithihat.wav
320,192,68801,1,0,0:0:0:40:soft-hithihat.wav
320,192,69094,1,0,0:0:0:40:soft-hithihat.wav
192,192,69387,1,0,0:0:0:40:soft-hithihat.wav
192,192,69679,1,0,0:0:0:40:soft-hithihat.wav
192,192,69972,1,0,0:0:0:40:soft-hithihat.wav
192,192,70265,1,0,0:0:0:40:soft-hithihat.wav
64,192,70557,1,0,0:0:0:40:soft-hithihat.wav
320,192,70557,1,0,0:0:0:40:soft-hitfinish.wav
192,192,70850,1,0,0:0:0:30:soft-hitwhistle.wav
320,192,70850,1,0,0:0:0:40:soft-hithihat.wav
192,192,71143,1,0,0:0:0:40:soft-hithihat.wav
320,192,71289,1,0,0:0:0:0:
64,192,71435,1,0,0:0:0:30:soft-hitwhistle.wav
448,192,71435,1,0,0:0:0:40:soft-hithihat.wav
320,192,71728,1,0,0:0:0:40:soft-hithihat.wav
192,192,71874,1,0,0:0:0:0:
64,192,72021,1,0,0:0:0:30:soft-hitwhistle.wav
448,192,72021,1,0,0:0:0:40:soft-hithihat.wav
320,192,72313,1,0,0:0:0:40:soft-hithihat.wav
448,192,72460,1,0,0:0:0:0:
64,192,72606,1,0,0:0:0:40:soft-hithihat.wav
320,192,72606,1,0,0:0:0:30:soft-hitwhistle.wav
192,192,72899,1,0,0:0:0:40:soft-hithihat.wav
64,192,73045,1,0,0:0:0:0:
192,192,73192,1,0,0:0:0:30:soft-hitwhistle.wav
448,192,73192,1,0,0:0:0:40:soft-hithihat.wav
320,192,73484,1,0,0:0:0:40:soft-hithihat.wav
192,192,73631,1,0,0:0:0:0:
64,192,73777,1,0,0:0:0:40:soft-hithihat.wav
320,192,73777,1,0,0:0:0:30:soft-hitwhistle.wav
192,192,74070,1,0,0:0:0:70:soft-hitclap.wav
320,192,74070,1,0,0:0:0:0:
64,192,74216,1,0,0:0:0:0:
192,192,74362,1,0,0:0:0:0:
448,192,74509,1,0,0:0:0:0:
192,192,74655,128,0,74948:0:0:0:0:
448,192,74948,128,0,75240:0:0:0:0:
64,192,75240,1,0,0:0:0:40:soft-hitwhistle.wav
320,192,75240,1,0,0:0:0:70:soft-hitclap.wav
192,192,75387,1,0,0:0:0:0:
320,192,75533,1,0,0:0:0:40:soft-hithihat.wav
64,192,75679,1,0,0:0:0:70:soft-hitclap.wav
448,192,75679,1,0,0:0:0:0:
192,192,75972,1,0,0:0:0:0:
320,192,76265,1,0,0:0:0:0:
448,192,76557,1,0,0:0:0:0:
320,192,76704,1,0,0:0:0:40:soft-hithihat.wav
192,192,76850,1,0,0:0:0:0:
64,192,77289,128,0,77582:0:0:0:40:soft-hitwhistle.wav
320,192,77582,1,0,0:0:0:70:soft-hitclap.wav
448,192,77582,1,0,0:0:0:0:
192,192,77728,1,0,0:0:0:0:
64,192,77874,1,0,0:0:0:40:soft-hithihat.wav
192,192,78021,1,0,0:0:0:70:soft-hitclap.wav
448,192,78021,1,0,0:0:0:0:
192,192,78313,1,0,0:0:0:70:soft-hitclap.wav
320,192,78313,1,0,0:0:0:0:
64,192,78606,1,0,0:0:0:0:
192,192,78899,1,0,0:0:0:0:
320,192,79045,1,0,0:0:0:40:soft-hithihat.wav
448,192,79192,1,0,0:0:0:0:
320,192,79484,1,0,0:0:0:0:
64,192,79631,128,0,79923:0:0:0:40:soft-hithihat.wav
192,192,79923,1,0,0:0:0:70:soft-hitclap.wav
448,192,79923,1,0,0:0:0:0:
320,192,80070,1,0,0:0:0:0:
192,192,80216,1,0,0:0:0:40:soft-hithihat.wav
320,192,80362,1,0,0:0:0:70:soft-hitclap.wav
448,192,80362,1,0,0:0:0:0:
192,192,80655,1,0,0:0:0:0:
320,192,80948,1,0,0:0:0:0:
192,192,81240,1,0,0:0:0:0:
64,192,81387,1,0,0:0:0:40:soft-hithihat.wav
192,192,81533,1,0,0:0:0:0:
320,192,81679,1,0,0:0:0:40:soft-hithihat.wav
64,192,82265,1,0,0:0:0:70:soft-hitclap.wav
448,192,82265,1,0,0:0:0:0:
192,192,82557,1,0,0:0:0:40:soft-hithihat.wav
64,192,82704,1,0,0:0:0:70:soft-hitclap.wav
320,192,82704,1,0,0:0:0:0:
448,192,82850,128,0,83143:0:0:0:0:
192,192,83143,1,0,0:0:0:70:soft-hitclap.wav
320,192,83143,1,0,0:0:0:0:
64,192,83435,1,0,0:0:0:70:soft-hitclap.wav
448,192,83435,1,0,0:0:0:0:
320,192,83728,1,0,0:0:0:0:
192,192,84021,1,0,0:0:0:0:
64,192,84313,1,0,0:0:0:0:
448,192,84313,1,0,0:0:0:0:
320,192,84606,1,0,0:0:0:70:soft-hitfinish.wav
192,192,84704,1,0,0:0:0:70:soft-hitclap.wav
320,192,84801,1,0,0:0:0:70:soft-hitclap.wav
192,192,84899,1,0,0:0:0:70:soft-hitclap.wav
448,192,85094,1,0,0:0:0:70:soft-hitclap.wav
64,192,85192,1,0,0:0:0:70:soft-hitclap.wav
448,192,85289,1,0,0:0:0:70:soft-hitclap.wav
64,192,85387,1,0,0:0:0:70:soft-hitclap.wav
320,192,85484,1,0,0:0:0:70:soft-hitclap.wav
192,192,85777,1,0,0:0:0:70:soft-hitfinish.wav
448,192,85874,1,0,0:0:0:70:soft-hitclap.wav
192,192,85972,1,0,0:0:0:70:soft-hitclap.wav
448,192,86070,1,0,0:0:0:70:soft-hitclap.wav
320,192,86265,1,0,0:0:0:70:soft-hitclap.wav
64,192,86362,1,0,0:0:0:70:soft-hitclap.wav
320,192,86460,1,0,0:0:0:70:soft-hitclap.wav
64,192,86557,1,0,0:0:0:70:soft-hitclap.wav
192,192,86655,1,0,0:0:0:70:soft-hitclap.wav
320,192,86948,1,0,0:0:0:70:soft-hitfinish.wav
192,192,87045,1,0,0:0:0:70:soft-hitclap.wav
320,192,87143,1,0,0:0:0:70:soft-hitclap.wav
192,192,87240,1,0,0:0:0:70:soft-hitclap.wav
448,192,87435,1,0,0:0:0:70:soft-hitclap.wav
64,192,87533,1,0,0:0:0:70:soft-hitclap.wav
448,192,87631,1,0,0:0:0:70:soft-hitclap.wav
64,192,87728,1,0,0:0:0:70:soft-hitclap.wav
320,192,87826,1,0,0:0:0:70:soft-hitclap.wav
192,192,88118,1,0,0:0:0:70:soft-hitclap.wav
448,192,88216,1,0,0:0:0:70:soft-hitclap.wav
192,192,88313,1,0,0:0:0:70:soft-hitclap.wav
448,192,88411,1,0,0:0:0:70:soft-hitclap.wav
320,192,88606,1,0,0:0:0:70:soft-hitclap.wav
64,192,88704,1,0,0:0:0:70:soft-hitclap.wav
320,192,88801,1,0,0:0:0:70:soft-hitclap.wav
64,192,88899,1,0,0:0:0:70:soft-hitclap.wav
192,192,88996,1,0,0:0:0:70:soft-hitclap.wav
448,192,88996,128,0,89289:0:0:0:0:
192,192,89289,1,0,0:0:0:70:soft-hitclap.wav
320,192,89289,1,0,0:0:0:0:
64,192,89582,1,0,0:0:0:50:soft-hitwhistle.wav
448,192,89582,1,0,0:0:0:70:soft-hitclap.wav
192,192,89874,1,0,0:0:0:70:soft-hitclap.wav
320,192,89874,1,0,0:0:0:0:
64,192,90167,1,0,0:0:0:50:soft-hitwhistle.wav
448,192,90167,1,0,0:0:0:70:soft-hitclap.wav
192,192,90460,1,0,0:0:0:70:soft-hitclap.wav
320,192,90460,1,0,0:0:0:0:
64,192,90753,1,0,0:0:0:50:soft-hitwhistle.wav
448,192,90753,1,0,0:0:0:70:soft-hitclap.wav
192,192,91045,1,0,0:0:0:70:soft-hitclap.wav
320,192,91045,1,0,0:0:0:0:
64,192,91338,1,0,0:0:0:50:soft-hitwhistle.wav
448,192,91338,1,0,0:0:0:70:soft-hitclap.wav
192,192,91631,1,0,0:0:0:70:soft-hitclap.wav
320,192,91631,1,0,0:0:0:70:soft-hitfinish.wav
192,192,91923,128,0,92216:0:0:0:0:
320,192,92216,128,0,92362:0:0:0:0:
64,192,92362,128,0,92509:0:0:0:0:
448,192,92509,128,0,92801:0:0:0:0:
64,192,92801,128,0,93387:0:0:0:70:soft-hitclap.wav
320,192,92801,1,0,0:0:0:0:
448,192,93387,128,0,93679:0:0:0:0:
64,192,93679,1,0,0:0:0:40:soft-hitwhistle.wav
320,192,93679,1,0,0:0:0:0:
192,192,93826,1,0,0:0:0:0:
320,192,93899,1,0,0:0:0:0:
64,192,93972,1,0,0:0:0:70:soft-hitclap.wav
448,192,93972,1,0,0:0:0:70:soft-hitfinish.wav
192,192,94118,1,0,0:0:0:50:soft-hithihat.wav
320,192,94265,1,0,0:0:0:70:soft-hitclap.wav
448,192,94265,1,0,0:0:0:40:soft-hitwhistle.wav
64,192,94411,1,0,0:0:0:50:soft-hithihat.wav
192,192,94704,1,0,0:0:0:50:soft-hithihat.wav
64,192,94996,1,0,0:0:0:50:soft-hithihat.wav
320,192,95289,1,0,0:0:0:50:soft-hithihat.wav
192,192,95362,1,0,0:0:0:0:
64,192,95435,1,0,0:0:0:70:soft-hitclap.wav
448,192,95435,1,0,0:0:0:40:soft-hitwhistle.wav
320,192,95582,128,0,95874:0:0:0:50:soft-hithihat.wav
192,192,96167,1,0,0:0:0:50:soft-hithihat.wav
320,192,96240,1,0,0:0:0:0:
64,192,96313,1,0,0:0:0:70:soft-hitclap.wav
448,192,96313,1,0,0:0:0:0:
192,192,96460,1,0,0:0:0:50:soft-hithihat.wav
320,192,96606,1,0,0:0:0:70:soft-hitclap.wav
448,192,96606,1,0,0:0:0:40:soft-hitwhistle.wav
64,192,96753,1,0,0:0:0:50:soft-hithihat.wav
192,192,97045,1,0,0:0:0:50:soft-hithihat.wav
320,192,97338,1,0,0:0:0:50:soft-hithihat.wav
192,192,97631,1,0,0:0:0:50:soft-hithihat.wav
64,192,97777,1,0,0:0:0:70:soft-hitclap.wav
448,192,97777,1,0,0:0:0:40:soft-hitwhistle.wav
192,192,97923,128,0,98216:0:0:0:50:soft-hithihat.wav
448,192,98509,1,0,0:0:0:50:soft-hithihat.wav
320,192,98582,1,0,0:0:0:0:
64,192,98655,1,0,0:0:0:70:soft-hitfinish.wav
192,192,98655,1,0,0:0:0:70:soft-hitclap.wav
320,192,98801,1,0,0:0:0:50:soft-hithihat.wav
64,192,98948,1,0,0:0:0:70:soft-hitclap.wav
448,192,98948,1,0,0:0:0:40:soft-hitwhistle.wav
192,192,99094,1,0,0:0:0:50:soft-hithihat.wav
320,192,99387,1,0,0:0:0:50:soft-hithihat.wav
448,192,99679,1,0,0:0:0:50:soft-hithihat.wav
320,192,99972,1,0,0:0:0:50:soft-hithihat.wav
448,192,100045,1,0,0:0:0:0:
64,192,100118,1,0,0:0:0:70:soft-hitclap.wav
320,192,100118,1,0,0:0:0:40:soft-hitwhistle.wav
192,192,100265,128,0,100557:0:0:0:50:soft-hithihat.wav
448,192,100850,1,0,0:0:0:50:soft-hithihat.wav
320,192,100923,1,0,0:0:0:0:
64,192,100996,1,0,0:0:0:70:soft-hitclap.wav
192,192,100996,1,0,0:0:0:0:
448,192,101143,1,0,0:0:0:50:soft-hithihat.wav
192,192,101289,1,0,0:0:0:70:soft-hitclap.wav
320,192,101289,1,0,0:0:0:40:soft-hitwhistle.wav
64,192,101435,1,0,0:0:0:50:soft-hithihat.wav
192,192,101582,1,0,0:0:0:70:soft-hitclap.wav
448,192,101582,1,0,0:0:0:0:
320,192,101728,1,0,0:0:0:50:soft-hithihat.wav
64,192,101874,1,0,0:0:0:70:soft-hitclap.wav
192,192,101874,1,0,0:0:0:40:soft-hitwhistle.wav
320,192,102021,1,0,0:0:0:50:soft-hithihat.wav
64,192,102167,1,0,0:0:0:70:soft-hitclap.wav
448,192,102167,1,0,0:0:0:0:
192,192,102313,1,0,0:0:0:0:
320,192,102387,1,0,0:0:0:0:
448,192,102460,1,0,0:0:0:0:
192,192,102606,1,0,0:0:0:0:
448,192,102753,1,0,0:0:0:0:
64,192,103045,128,0,103338:0:0:0:0:
192,192,103338,1,0,0:0:0:70:soft-hitclap.wav
448,192,103338,1,0,0:0:0:0:
320,192,103484,1,0,0:0:0:0:
448,192,103631,1,0,0:0:0:0:
320,192,103777,1,0,0:0:0:0:
192,192,104070,1,0,0:0:0:0:
320,192,104362,1,0,0:0:0:0:
192,192,104655,1,0,0:0:0:0:
320,192,104728,1,0,0:0:0:0:
192,192,104801,1,0,0:0:0:0:
448,192,104948,1,0,0:0:0:0:
320,192,105094,1,0,0:0:0:0:
192,192,105533,1,0,0:0:0:0:
64,192,105606,1,0,0:0:0:0:
192,192,105679,1,0,0:0:0:70:soft-hitclap.wav
448,192,105679,1,0,0:0:0:70:soft-hitfinish.wav
320,192,105826,1,0,0:0:0:50:soft-hithihat.wav
64,192,105972,1,0,0:0:0:70:soft-hitclap.wav
448,192,105972,1,0,0:0:0:0:
192,192,106118,1,0,0:0:0:50:soft-hithihat.wav
320,192,106411,1,0,0:0:0:50:soft-hithihat.wav
192,192,106704,1,0,0:0:0:50:soft-hithihat.wav
64,192,106996,1,0,0:0:0:50:soft-hithihat.wav
192,192,107070,1,0,0:0:0:0:
320,192,107143,1,0,0:0:0:70:soft-hitclap.wav
448,192,107143,1,0,0:0:0:0:
192,192,107289,1,0,0:0:0:50:soft-hithihat.wav
64,192,107435,1,0,0:0:0:70:soft-hitclap.wav
448,192,107435,1,0,0:0:0:0:
192,192,107874,1,0,0:0:0:50:soft-hithihat.wav
64,192,107948,1,0,0:0:0:0:
192,192,108021,1,0,0:0:0:70:soft-hitclap.wav
448,192,108021,1,0,0:0:0:70:soft-hitfinish.wav
320,192,108167,1,0,0:0:0:50:soft-hithihat.wav
64,192,108313,1,0,0:0:0:70:soft-hitclap.wav
448,192,108313,1,0,0:0:0:40:soft-hitwhistle.wav
192,192,108460,1,0,0:0:0:50:soft-hithihat.wav
320,192,108753,1,0,0:0:0:50:soft-hithihat.wav
192,192,109045,1,0,0:0:0:50:soft-hithihat.wav
320,192,109192,1,0,0:0:0:70:soft-hitclap.wav
448,192,109192,128,0,109484:0:0:0:0:
64,192,109484,1,0,0:0:0:70:soft-hitclap.wav
192,192,109484,1,0,0:0:0:40:soft-hitwhistle.wav
320,192,109631,1,0,0:0:0:50:soft-hithihat.wav
320,192,109777,128,0,109923:0:0:0:70:soft-hitclap.wav
192,192,110216,1,0,0:0:0:50:soft-hithihat.wav
64,192,110289,1,0,0:0:0:0:
192,192,110362,1,0,0:0:0:70:soft-hitclap.wav
448,192,110362,1,0,0:0:0:0:
64,192,110509,1,0,0:0:0:50:soft-hithihat.wav
192,192,110655,1,0,0:0:0:70:soft-hitclap.wav
320,192,110655,1,0,0:0:0:40:soft-hitwhistle.wav
448,192,110801,1,0,0:0:0:50:soft-hithihat.wav
64,192,110948,1,0,0:0:0:70:soft-hitclap.wav
320,192,110948,1,0,0:0:0:0:
192,192,111094,1,0,0:0:0:50:soft-hithihat.wav
320,192,111240,1,0,0:0:0:70:soft-hitclap.wav
448,192,111240,1,0,0:0:0:40:soft-hitwhistle.wav
192,192,111387,1,0,0:0:0:50:soft-hithihat.wav
448,192,111533,1,0,0:0:0:0:
64,192,111679,1,0,0:0:0:0:
192,192,111753,1,0,0:0:0:0:
320,192,111826,1,0,0:0:0:0:
192,192,111972,1,0,0:0:0:0:
448,192,112118,1,0,0:0:0:0:
64,192,112411,128,0,112704:0:0:0:70:soft-hitclap.wav
192,192,112704,1,0,0:0:0:70:soft-hitclap.wav
448,192,112704,1,0,0:0:0:70:soft-hitfinish.wav
320,192,112850,1,0,0:0:0:50:soft-hithihat.wav
64,192,112996,1,0,0:0:0:70:soft-hitclap.wav
192,192,112996,1,0,0:0:0:40:soft-hitwhistle.wav
448,192,113143,1,0,0:0:0:50:soft-hithihat.wav
320,192,113435,1,0,0:0:0:50:soft-hithihat.wav
192,192,113728,1,0,0:0:0:50:soft-hithihat.wav
64,192,114021,1,0,0:0:0:50:soft-hithihat.wav
192,192,114167,1,0,0:0:0:40:soft-hitwhistle.wav
448,192,114167,1,0,0:0:0:70:soft-hitclap.wav
320,192,114313,128,0,114606:0:0:0:50:soft-hithihat.wav
64,192,114753,1,0,0:0:0:40:soft-hitwhistle.wav
448,192,114753,1,0,0:0:0:70:soft-hitclap.wav
192,192,114899,1,0,0:0:0:50:soft-hithihat.wav
192,192,115045,1,0,0:0:0:70:soft-hitclap.wav
448,192,115045,1,0,0:0:0:0:
320,192,115192,128,0,115338:0:0:0:50:soft-hithihat.wav
64,192,115338,1,0,0:0:0:40:soft-hitwhistle.wav
448,192,115338,1,0,0:0:0:70:soft-hitclap.wav
192,192,115484,1,0,0:0:0:50:soft-hithihat.wav
320,192,115777,1,0,0:0:0:50:soft-hithihat.wav
192,192,116070,1,0,0:0:0:50:soft-hithihat.wav
320,192,116362,1,0,0:0:0:50:soft-hithihat.wav
64,192,116509,1,0,0:0:0:40:soft-hitwhistle.wav
448,192,116509,1,0,0:0:0:70:soft-hitclap.wav
320,192,116655,128,0,116948:0:0:0:50:soft-hithihat.wav
64,192,116948,1,0,0:0:0:70:soft-hitclap.wav
192,192,117094,1,0,0:0:0:40:soft-hitwhistle.wav
448,192,117094,128,0,117387:0:0:0:70:soft-hitclap.wav
64,192,117387,1,0,0:0:0:70:soft-hitclap.wav
320,192,117387,1,0,0:0:0:70:soft-hitfinish.wav
192,192,117533,1,0,0:0:0:50:soft-hithihat.wav
64,192,117679,1,0,0:0:0:40:soft-hitwhistle.wav
448,192,117679,1,0,0:0:0:70:soft-hitclap.wav
320,192,117826,1,0,0:0:0:50:soft-hithihat.wav
192,192,118118,1,0,0:0:0:50:soft-hithihat.wav
320,192,118265,1,0,0:0:0:70:soft-hitclap.wav
448,192,118265,128,0,118557:0:0:0:40:soft-hitwhistle.wav
64,192,118557,1,0,0:0:0:70:soft-hitclap.wav
320,192,118557,1,0,0:0:0:0:
192,192,118704,1,0,0:0:0:50:soft-hithihat.wav
320,192,118850,1,0,0:0:0:70:soft-hitclap.wav
448,192,118850,1,0,0:0:0:40:soft-hitwhistle.wav
64,192,118996,128,0,119289:0:0:0:50:soft-hithihat.wav
192,192,119289,1,0,0:0:0:50:soft-hithihat.wav
320,192,119435,1,0,0:0:0:40:soft-hitwhistle.wav
448,192,119435,128,0,119728:0:0:0:70:soft-hitclap.wav
64,192,119728,1,0,0:0:0:70:soft-hitclap.wav
320,192,119728,1,0,0:0:0:0:
192,192,119874,1,0,0:0:0:50:soft-hithihat.wav
64,192,120021,1,0,0:0:0:70:soft-hitclap.wav
448,192,120021,1,0,0:0:0:0:
320,192,120167,1,0,0:0:0:50:soft-hithihat.wav
192,192,120460,1,0,0:0:0:50:soft-hithihat.wav
64,192,120753,1,0,0:0:0:50:soft-hithihat.wav
448,192,121045,1,0,0:0:0:70:soft-hithihat.wav
320,192,121192,1,0,0:0:0:40:soft-hitwhistle.wav
192,192,121338,1,0,0:0:0:50:soft-hithihat.wav
448,192,121338,1,0,0:0:0:70:soft-hitclap.wav
64,192,121557,1,0,0:0:0:70:soft-hitclap.wav
448,192,121557,1,0,0:0:0:0:
192,192,121777,1,0,0:0:0:70:soft-hitclap.wav
320,192,121777,1,0,0:0:0:0:
64,192,122070,1,0,0:0:0:70:soft-hitclap.wav
320,192,122070,1,0,0:0:0:70:soft-hitfinish.wav
192,192,122216,1,0,0:0:0:0:
448,192,122362,1,0,0:0:0:0:
320,192,122509,1,0,0:0:0:0:
64,192,122948,1,0,0:0:0:70:soft-hitclap.wav
448,192,122948,1,0,0:0:0:0:
192,192,123240,1,0,0:0:0:70:soft-hitclap.wav
320,192,123240,1,0,0:0:0:70:soft-hitfinish.wav
64,192,123387,1,0,0:0:0:50:soft-hithihat.wav
192,192,123533,1,0,0:0:0:40:soft-hitwhistle.wav
448,192,123533,1,0,0:0:0:70:soft-hitclap.wav
320,192,123679,1,0,0:0:0:50:soft-hithihat.wav
64,192,123826,1,0,0:0:0:70:soft-hitclap.wav
448,192,123826,1,0,0:0:0:0:
320,192,123972,1,0,0:0:0:50:soft-hithihat.wav
192,192,124265,1,0,0:0:0:50:soft-hithihat.wav
64,192,124338,1,0,0:0:0:70:soft-hitclap.wav
192,192,124411,1,0,0:0:0:70:soft-hitclap.wav
448,192,124411,1,0,0:0:0:0:
320,192,124557,1,0,0:0:0:50:soft-hithihat.wav
64,192,124704,1,0,0:0:0:70:soft-hitclap.wav
448,192,124704,1,0,0:0:0:40:soft-hitwhistle.wav
192,192,124850,1,0,0:0:0:50:soft-hithihat.wav
320,192,125143,1,0,0:0:0:50:soft-hithihat.wav
448,192,125435,1,0,0:0:0:50:soft-hithihat.wav
320,192,125728,1,0,0:0:0:70:soft-hitclap.wav
64,192,125874,1,0,0:0:0:70:soft-hitclap.wav
448,192,125874,1,0,0:0:0:40:soft-hitwhistle.wav
192,192,126021,1,0,0:0:0:70:soft-hitclap.wav
448,192,126167,128,0,126313:0:0:0:70:soft-hitclap.wav
64,192,126313,1,0,0:0:0:70:soft-hitclap.wav
320,192,126606,1,0,0:0:0:50:soft-hithihat.wav
192,192,126679,1,0,0:0:0:70:soft-hitclap.wav
64,192,126753,1,0,0:0:0:70:soft-hitfinish.wav
448,192,126753,1,0,0:0:0:70:soft-hitclap.wav
320,192,126899,1,0,0:0:0:50:soft-hithihat.wav
64,192,127045,1,0,0:0:0:40:soft-hitwhistle.wav
448,192,127045,1,0,0:0:0:70:soft-hitclap.wav
192,192,127192,1,0,0:0:0:50:soft-hithihat.wav
320,192,127484,1,0,0:0:0:50:soft-hithihat.wav
64,192,127631,1,0,0:0:0:40:soft-hitwhistle.wav
448,192,127631,1,0,0:0:0:70:soft-hitclap.wav
192,192,127777,1,0,0:0:0:70:soft-hitclap.wav
320,192,127923,128,0,128216:0:0:0:70:soft-hitclap.wav
64,192,128216,1,0,0:0:0:40:soft-hitwhistle.wav
448,192,128216,1,0,0:0:0:0:
320,192,128362,1,0,0:0:0:70:soft-hitclap.wav
64,192,128655,128,0,128801:0:0:0:0:
192,192,128801,1,0,0:0:0:40:soft-hitwhistle.wav
448,192,128801,1,0,0:0:0:70:soft-hitclap.wav
320,192,128948,1,0,0:0:0:50:soft-hithihat.wav
192,192,129021,1,0,0:0:0:0:
64,192,129094,1,0,0:0:0:70:soft-hitclap.wav
448,192,129094,1,0,0:0:0:0:
192,192,129240,1,0,0:0:0:50:soft-hithihat.wav
320,192,129387,1,0,0:0:0:40:soft-hitwhistle.wav
448,192,129387,1,0,0:0:0:70:soft-hitclap.wav
192,192,129533,1,0,0:0:0:50:soft-hithihat.wav
64,192,129679,1,0,0:0:0:70:soft-hitclap.wav
448,192,129679,1,0,0:0:0:0:
320,192,129826,1,0,0:0:0:50:soft-hithihat.wav
64,192,129972,1,0,0:0:0:40:soft-hitwhistle.wav
448,192,129972,1,0,0:0:0:70:soft-hitclap.wav
320,192,130118,1,0,0:0:0:50:soft-hithihat.wav
64,192,130265,1,0,0:0:0:70:soft-hitclap.wav
448,192,130265,1,0,0:0:0:0:
320,192,130411,1,0,0:0:0:0:
192,192,130484,1,0,0:0:0:0:
64,192,130557,1,0,0:0:0:0:
192,192,130704,1,0,0:0:0:0:
320,192,130850,128,0,130996:0:0:0:0:
192,192,130996,128,0,131143:0:0:0:0:
64,192,131143,1,0,0:0:0:40:soft-hitwhistle.wav
448,192,131143,1,0,0:0:0:0:
64,192,131435,1,0,0:0:0:70:soft-hitfinish.wav
320,192,131435,1,0,0:0:0:70:soft-hitclap.wav
64,192,131582,1,0,0:0:0:70:soft-hitclap.wav
320,192,131582,1,0,0:0:0:0:
192,192,131728,1,0,0:0:0:40:soft-hitwhistle.wav
448,192,131728,1,0,0:0:0:70:soft-hitclap.wav
192,192,132021,1,0,0:0:0:70:soft-hitclap.wav
320,192,132021,1,0,0:0:0:0:
64,192,132313,1,0,0:0:0:40:soft-hitwhistle.wav
448,192,132313,1,0,0:0:0:70:soft-hitclap.wav
192,192,132606,1,0,0:0:0:70:soft-hitclap.wav
320,192,132606,1,0,0:0:0:0:
64,192,132899,1,0,0:0:0:70:soft-hitclap.wav
448,192,132899,1,0,0:0:0:40:soft-hitwhistle.wav
192,192,133192,1,0,0:0:0:70:soft-hitclap.wav
320,192,133192,1,0,0:0:0:0:
64,192,133484,1,0,0:0:0:40:soft-hitwhistle.wav
448,192,133484,1,0,0:0:0:70:soft-hitclap.wav
192,192,133777,1,0,0:0:0:70:soft-hitclap.wav
320,192,133777,1,0,0:0:0:0:
192,192,134070,1,0,0:0:0:70:soft-hitclap.wav
448,192,134070,1,0,0:0:0:40:soft-hitwhistle.wav
64,192,134362,1,0,0:0:0:70:soft-hitclap.wav
320,192,134362,1,0,0:0:0:0:
64,192,134655,1,0,0:0:0:70:soft-hitclap.wav
448,192,134655,1,0,0:0:0:40:soft-hitwhistle.wav
192,192,134948,1,0,0:0:0:70:soft-hitclap.wav
448,192,134948,1,0,0:0:0:0:
64,192,135240,1,0,0:0:0:70:soft-hitclap.wav
320,192,135240,1,0,0:0:0:40:soft-hitwhistle.wav
192,192,135533,1,0,0:0:0:70:soft-hitclap.wav
320,192,135533,1,0,0:0:0:0:
64,192,135826,1,0,0:0:0:70:soft-hitclap.wav
448,192,135826,1,0,0:0:0:40:soft-hitwhistle.wav
192,192,136118,1,0,0:0:0:70:soft-hitclap.wav
448,192,136118,1,0,0:0:0:70:soft-hitfinish.wav
320,192,136265,1,0,0:0:0:50:soft-hithihat.wav
64,192,136411,1,0,0:0:0:70:soft-hitclap.wav
192,192,136411,1,0,0:0:0:40:soft-hitwhistle.wav
320,192,136557,1,0,0:0:0:50:soft-hithihat.wav
64,192,136704,1,0,0:0:0:70:soft-hitclap.wav
448,192,136704,1,0,0:0:0:0:
320,192,136850,1,0,0:0:0:70:soft-hitclap.wav
64,192,136996,1,0,0:0:0:70:soft-hitclap.wav
192,192,136996,1,0,0:0:0:40:soft-hitwhistle.wav
448,192,137143,1,0,0:0:0:70:soft-hitclap.wav
64,192,137289,1,0,0:0:0:70:soft-hitclap.wav
320,192,137289,1,0,0:0:0:0:
192,192,137435,1,0,0:0:0:50:soft-hithihat.wav
64,192,137582,1,0,0:0:0:40:soft-hitwhistle.wav
448,192,137582,1,0,0:0:0:70:soft-hitclap.wav
320,192,137728,1,0,0:0:0:50:soft-hithihat.wav
64,192,137874,1,0,0:0:0:70:soft-hitclap.wav
192,192,137874,1,0,0:0:0:0:
320,192,138021,1,0,0:0:0:70:soft-hitfinish.wav
64,192,138167,1,0,0:0:0:70:soft-hitclap.wav
448,192,138167,1,0,0:0:0:40:soft-hitwhistle.wav
192,192,138313,1,0,0:0:0:70:soft-hitclap.wav
320,192,138460,1,0,0:0:0:70:soft-hitclap.wav
448,192,138460,1,0,0:0:0:0:
192,192,138606,1,0,0:0:0:70:soft-hitclap.wav
64,192,138753,1,0,0:0:0:70:soft-hitclap.wav
448,192,138753,1,0,0:0:0:40:soft-hitwhistle.wav
320,192,138899,1,0,0:0:0:70:soft-hitclap.wav
64,192,139045,1,0,0:0:0:70:soft-hitclap.wav
192,192,139045,1,0,0:0:0:0:
448,192,139192,1,0,0:0:0:70:soft-hitclap.wav
64,192,139338,1,0,0:0:0:70:soft-hitclap.wav
320,192,139338,1,0,0:0:0:0:
192,192,139484,1,0,0:0:0:70:soft-hitclap.wav
64,192,139631,128,0,140216:0:0:0:70:soft-hitclap.wav
448,192,139631,1,0,0:0:0:0:
320,192,140216,128,0,140509:0:0:0:0:
192,192,140509,128,0,140801:0:0:0:0:
64,192,140801,1,0,0:0:0:70:soft-hitfinish.wav
448,192,140801,1,0,0:0:0:70:soft-hitclap.wav
