osu file format v14

[General]
AudioFilename: audio.mp3
AudioLeadIn: 0
PreviewTime: 112118
Countdown: 0
SampleSet: Soft
StackLeniency: 0.3
Mode: 0
LetterboxInBreaks: 0
WidescreenStoryboard: 1

[Editor]
Bookmarks: 14448,19131,23814,28497,33180,44887,51912,56595,65960,75326,84692,94058,103424,122156,131521,139717
DistanceSpacing: 0.3
BeatDivisor: 4
GridSize: 4
TimelineZoom: 3.099999

[Metadata]
Title:SAIKYO STRONGER
TitleUnicode:最強STRONGER
Artist:REDALiCE vs. USAO
ArtistUnicode:REDALiCE vs. USAO
Creator:Otosaka-Yu
Version:Quantum Rosta's FUTURE
Source:Arcaea
Tags:lowiro HARDCORE TANO*C DORO*C KEI Collaboration Memory Archive UOM Records USAO-017 XTREME TCSLCD-0006 OVERLOAD Frenchcore video game electronic instrumental 1112deng Suzuki_1112 Spy Hanazawa Kana Reincarnation Necho Quantum Rosta ExNeko
BeatmapID:2549697
BeatmapSetID:1098586

[Difficulty]
HPDrainRate:6
CircleSize:4
OverallDifficulty:7.5
ApproachRate:9
SliderMultiplier:1.6
SliderTickRate:1

[Events]
//Background and Video events
0,0,"BG.jpg",0,0
//Break Periods
2,66074,69957
//Storyboard Layer 0 (Background)
//Storyboard Layer 1 (Fail)
//Storyboard Layer 2 (Pass)
//Storyboard Layer 3 (Foreground)
//Storyboard Layer 4 (Overlay)
//Storyboard Sound Samples

[TimingPoints]
314,292.682926829268,4,2,2,40,1,0
314,-250,4,2,2,40,0,0
533,-250,4,2,2,5,0,0
606,-250,4,2,2,40,0,0
972,-250,4,2,2,5,0,0
1045,-250,4,2,2,40,0,0
2070,-166.666666666667,4,2,2,40,0,0
3826,-125,4,2,2,40,0,0
4045,-125,4,2,2,5,0,0
4118,-125,4,2,2,40,0,0
5216,-125,4,2,2,5,0,0
5289,-125,4,2,2,40,0,0
6972,-125,4,2,2,5,0,0
7045,-125,4,2,2,40,0,0
7557,-125,4,2,2,5,0,0
7631,-125,4,2,2,40,0,0
8143,-125,4,2,2,5,0,0
8216,-125,4,2,2,40,0,0
8509,-83.3333333333333,4,2,2,45,0,0
9679,-66.6666666666667,4,2,2,50,0,0
12899,-125,4,2,2,50,0,0
13192,-83.3333333333333,4,2,2,50,0,0
13777,-66.6666666666667,4,2,2,50,0,0
14362,-83.3333333333333,4,2,2,60,0,0
15533,-125,4,2,2,60,0,0
15826,-83.3333333333333,4,2,2,60,0,0
17582,-125,4,2,2,60,0,0
17874,-125,4,2,2,55,0,0
18606,-125,4,2,0,55,0,0
19045,-125,4,2,2,65,0,0
19338,-66.6666666666667,4,2,2,65,0,0
21387,-250,4,2,2,65,0,0
21679,-125,4,2,2,65,0,0
22265,-100,4,2,2,65,0,0
22557,-66.6666666666667,4,2,2,55,0,0
22850,-100,4,2,2,55,0,0
23728,-66.6666666666667,4,2,2,65,0,0
26362,-100,4,2,2,65,0,0
27240,-125,4,2,2,55,0,0
28118,-66.6666666666667,4,2,2,55,0,0
28411,-83.3333333333333,4,2,2,65,0,0
30753,-125,4,2,2,65,0,0
31923,-125,4,2,0,65,0,0
32801,-125,4,2,0,65,0,0
33094,-66.6666666666667,4,2,2,55,0,0
33387,-125,4,2,2,55,0,0
33679,-66.6666666666667,4,2,2,55,0,0
35435,-66.6666666666667,4,2,2,60,0,0
35728,-83.3333333333333,4,2,2,60,0,0
39533,-66.6666666666667,4,2,2,60,0,0
39826,-83.3333333333333,4,2,2,60,0,0
40704,-66.6666666666667,4,2,2,60,0,0
41582,-133.333333333333,4,2,2,60,0,0
41874,-80,4,2,2,60,0,0
42167,-250,4,2,2,60,0,0
42460,-100,4,2,2,60,0,0
43338,-250,4,2,2,60,0,0
44801,-250,4,2,2,50,0,0
46557,-66.6666666666667,4,2,2,50,0,0
47143,-83.3333333333333,4,2,2,60,0,0
49192,-125,4,2,2,60,0,0
49484,-83.3333333333333,4,2,2,60,0,0
51826,-66.6666666666667,4,2,2,60,0,0
52996,-125,4,2,2,60,0,0
53289,-66.6666666666667,4,2,2,60,0,0
53728,-125,4,2,2,60,0,0
53874,-66.6666666666667,4,2,2,60,0,0
55923,-66.6666666666667,4,2,0,60,0,0
56216,-83.3333333333333,4,2,0,60,0,0
56509,-66.6666666666667,4,2,2,60,0,0
58850,-125,4,2,2,60,0,0
59143,-83.3333333333333,4,2,2,60,0,0
60606,-250,4,2,2,60,0,0
61192,-83.3333333333333,4,2,2,65,0,0
61923,-66.6666666666667,4,2,2,65,0,0
62216,-83.3333333333333,4,2,2,65,0,0
62655,-66.6666666666667,4,2,2,65,0,0
63533,-125,4,2,2,65,0,0
65874,-125,4,2,2,40,0,0
70557,-125,4,2,2,45,0,0
73192,-250,4,2,2,45,0,0
74070,-83.3333333333333,4,2,2,45,0,0
74362,-125,4,2,2,45,0,0
74655,-83.3333333333333,4,2,2,45,0,0
75240,-66.6666666666667,4,2,2,50,0,0
76411,-66.6666666666667,4,2,0,50,0,0
77289,-66.6666666666667,4,2,2,50,0,0
79923,-250,4,2,2,50,0,0
80216,-125,4,2,2,50,0,0
80801,-100,4,2,2,50,0,0
81094,-83.3333333333333,4,2,2,50,0,0
81679,-66.6666666666667,4,2,2,50,0,0
82265,-133.333333333333,4,2,2,50,0,0
82557,-250,4,2,2,50,0,0
82850,-66.6666666666667,4,2,2,50,0,0
83362,-66.6666666666667,4,2,2,5,0,0
83435,-66.6666666666667,4,2,2,50,0,0
83655,-66.6666666666667,4,2,2,5,0,0
83728,-66.6666666666667,4,2,2,50,0,0
83948,-66.6666666666667,4,2,2,5,0,0
84021,-66.6666666666667,4,2,2,50,0,0
84240,-66.6666666666667,4,2,2,5,0,0
84313,-66.6666666666667,4,2,2,50,0,0
84533,-66.6666666666667,4,2,2,5,0,0
84606,-125,4,2,2,60,0,0
87826,-66.6666666666667,4,2,2,60,0,0
88118,-100,4,2,2,60,0,0
91923,-250,4,2,0,60,0,0
92216,-125,4,2,0,60,0,0
92509,-83.3333333333333,4,2,0,60,0,0
93387,-83.3333333333333,4,2,2,60,0,0
93972,-66.6666666666667,4,2,2,65,0,0
102167,-83.3333333333333,4,2,2,65,0,0
102460,-125,4,2,2,65,0,0
102753,-250,4,2,2,65,0,0
103338,-100,4,2,2,65,0,0
103631,-200,4,2,2,65,0,0
104362,-83.3333333333333,4,2,0,65,0,0
105240,-66.6666666666667,4,2,0,65,0,0
105679,-66.6666666666667,4,2,2,65,0,0
109192,-83.3333333333333,4,2,2,65,0,0
109484,-66.6666666666667,4,2,2,65,0,0
111533,-125,4,2,0,65,0,0
112265,-66.6666666666667,4,2,0,65,0,0
112411,-66.6666666666667,4,2,2,65,0,0
112704,-66.6666666666667,4,2,2,70,0,1
118265,-125,4,2,2,70,0,1
118557,-66.6666666666667,4,2,2,70,0,1
121557,-250,4,2,2,70,0,1
121777,-125,4,2,2,70,0,1
122070,-83.3333333333333,4,2,2,60,0,0
122362,-250,4,2,2,60,0,0
122655,-66.6666666666667,4,2,2,60,0,0
123240,-66.6666666666667,4,2,2,70,0,1
125435,-125,4,2,2,70,0,1
126753,-66.6666666666667,4,2,2,70,0,1
128216,-83.3333333333333,4,2,2,70,0,1
129094,-125,4,2,2,70,0,1
129972,-83.3333333333333,4,2,2,70,0,1
130850,-250,4,2,2,70,0,1
131143,-83.3333333333333,4,2,2,70,0,1
131435,-83.3333333333333,4,2,2,60,0,0
131728,-66.6666666666667,4,2,2,60,0,0
132021,-166.666666666667,4,2,2,60,0,0
134655,-83.3333333333333,4,2,2,60,0,0
136118,-125,4,2,2,60,0,0
138460,-250,4,2,2,60,0,0
139631,-66.6666666666667,4,2,2,60,0,0
140216,-133.333333333333,4,2,2,60,0,0

[Colours]
Combo1 : 192,192,192
Combo2 : 255,81,81
Combo3 : 128,128,128
Combo4 : 255,128,64

[HitObjects]
144,336,314,6,0,L|199:343,1,48,4|0,3:2|0:0,0:0:0:0:
206,344,606,1,0,0:0:0:0:
368,272,753,6,0,L|313:279,1,48,2|0,0:0|0:0,0:0:0:0:
306,280,1045,1,0,0:0:0:0:
201,226,1192,1,2,0:0:0:0:
404,60,1631,5,2,0:0:0:0:
381,85,1777,1,0,0:0:0:0:
415,92,1923,1,2,0:0:0:0:
400,79,2070,6,0,L|298:93,2,95.9999970703126,0|0|2,0:0|0:0|0:0,0:0:0:0:
124,20,2948,6,0,L|76:13,1,47.9999985351563,0|2,0:0|0:0,0:0:0:0:
73,24,3387,6,0,L|120:30,1,47.9999985351563,0|2,0:0|0:0,0:0:0:0:
168,192,3826,6,0,B|185:173|185:173|173:90,1,96,2|0,0:0|0:0,0:0:0:0:
179,98,4118,2,0,L|242:106,1,64,2|0,0:0|0:0,0:0:0:0:
74,181,4411,6,0,L|10:172,1,64,2|0,0:0|0:0,0:0:0:0:
111,267,4704,1,2,0:0:0:0:
213,367,4996,6,0,B|195:348|195:348|207:265,1,96,2|0,0:0|0:0,0:0:0:0:
212,272,5289,1,0,0:0:0:0:
314,290,5435,1,2,0:0:0:0:
314,290,5728,5,0,0:0:0:0:
332,188,5874,1,2,0:0:0:0:
332,188,6313,5,2,0:0:0:0:
263,138,6460,2,0,L|274:54,1,64,0|2,0:0|0:0,0:0:0:0:
408,0,6753,6,0,B|425:18|425:18|413:101,1,96,0|0,0:0|0:0,0:0:0:0:
420,96,7045,2,0,L|411:159,1,64,2|0,0:0|0:0,0:0:0:0:
480,380,7338,6,0,L|493:284,1,96,2|0,0:0|0:0,0:0:0:0:
492,276,7631,1,2,0:0:0:0:
324,364,7777,5,0,0:0:0:0:
408,320,7923,2,0,B|413:280|413:280|338:269,1,96,2|0,0:0|0:0,0:0:0:0:
288,224,8216,6,0,L|284:200,4,16,2|0|0|0|0,0:0|0:0|0:0|0:0|0:0,0:0:0:0:
240,294,8509,6,0,B|215:317|215:317|106:301,1,143.999995605469,0|0,3:0|0:0,0:0:0:0:
0,324,8801,6,0,B|38:335|52:370|52:370|55:332|88:312,1,143.999995605469,2|0,0:0|0:0,0:0:0:0:
88,291,9094,1,2,0:0:0:0:
21,160,9240,5,0,0:0:0:0:
44,185,9386,1,2,0:0:0:0:
10,192,9533,1,2,0:0:0:0:
100,112,9679,6,0,B|146:125|187:106|176:94|217:75|273:87,1,180.000006866455,12|0,1:2|0:0,0:0:0:0:
280,76,9972,2,0,P|322:36|379:44,1,120.000004577637,8|0,1:2|0:0,0:0:0:0:
440,124,10265,6,0,P|422:194|498:255,1,180.000006866455,8|0,1:2|0:0,0:0:0:0:
510,263,10557,2,0,L|493:381,1,120.000004577637,8|2,1:2|0:0,0:0:0:0:
413,278,10850,5,8,1:2:0:0:
316,293,10996,1,2,0:0:0:0:
156,368,11143,5,8,1:2:0:0:
253,383,11289,1,2,0:0:0:0:
226,230,11435,1,8,1:2:0:0:
122,264,11582,5,2,0:0:0:0:
122,264,11655,1,0,0:0:0:0:
122,264,11728,2,0,L|-5:282,1,120.000004577637,8|0,1:2|0:0,0:0:0:0:
156,368,12021,5,8,1:2:0:0:
253,383,12167,1,0,1:0:0:0:
284,180,12313,5,8,1:2:0:0:
187,165,12459,1,0,1:0:0:0:
90,150,12606,5,8,1:2:0:0:
88,142,12679,1,0,3:0:0:0:
87,135,12752,1,8,1:2:0:0:
86,127,12825,1,0,3:0:0:0:
85,120,12899,2,0,L|53:124,3,32,8|0|8|0,1:2|3:0|1:2|3:0,0:0:0:0:
148,64,13192,6,0,P|192:40|212:0,1,95.9999970703126,2|2,0:0|0:0,0:0:0:0:
305,13,13484,2,0,P|314:59|348:91,1,95.9999970703126,2|2,0:0|0:0,0:0:0:0:
512,156,13777,6,0,B|466:143|425:162|436:174|395:193|339:181,1,180.000006866455,2|0,0:0|0:0,0:0:0:0:
324,188,14070,5,0,3:0:0:0:
216,296,14216,1,0,0:0:0:0:
230,288,14289,2,0,L|235:252,1,30.0000011444092,0|0,3:0|0:0,0:0:0:0:
243,296,14362,2,0,B|260:305|260:305|335:295,1,95.9999970703126,4|2,1:2|0:0,0:0:0:0:
426,382,14655,6,0,L|439:286,1,95.9999970703126,0|2,1:0|0:0,0:0:0:0:
234,258,14948,2,0,L|220:353,1,95.9999970703126,0|2,1:0|0:0,0:0:0:0:
160,200,15240,6,0,B|112:191|112:191|156:173,1,95.9999970703126,0|2,1:0|0:0,0:0:0:0:
0,136,15533,6,0,L|44:143,3,32,0|0|2|0,1:0|0:0|0:0|0:0,0:0:0:0:
48,132,15826,6,0,L|62:37,1,95.9999970703126,0|2,1:0|0:0,0:0:0:0:
192,0,16118,2,0,B|201:17|201:17|191:92,1,95.9999970703126,0|2,1:0|0:0,0:0:0:0:
155,173,16411,6,0,B|172:182|172:182|247:172,1,95.9999970703126,0|2,1:0|0:0,0:0:0:0:
256,164,16631,1,2,0:0:0:0:
264,156,16704,2,0,L|359:170,1,95.9999970703126,0|2,1:0|0:0,0:0:0:0:
428,236,16996,6,0,B|445:249|445:249|496:242|496:242|509:224,1,95.9999970703126,0|2,1:0|0:0,0:0:0:0:
492,80,17289,2,0,B|474:66|474:66|423:73|423:73|410:91,1,95.9999970703126,0|2,1:0|0:0,0:0:0:0:
412,76,17509,1,0,0:0:0:0:
415,60,17582,2,0,L|422:16,3,32,0|0|2|0,1:0|0:0|0:0|0:0,0:0:0:0:
344,16,17874,6,0,L|334:83,3,64,0|2|0|0,1:0|0:0|0:0|0:0,0:0:0:0:
358,169,18460,5,0,1:0:0:0:
509,223,18606,1,2,0:3:0:0:
433,277,18753,6,0,L|442:344,1,64,8|4,0:3|0:3,0:0:0:0:
260,352,19045,6,0,L|255:383,1,32,4|0,1:0|0:0,0:0:0:0:
171,371,19192,2,0,L|176:340,1,32,0|0,1:0|0:0,0:0:0:0:
229,273,19338,6,0,B|241:217|222:176|210:187|191:146|204:100,1,180.000006866455,8|0,0:0|0:0,0:0:0:0:
200,88,19631,2,0,P|142:86|107:39,1,120.000004577637,0|2,1:0|0:0,0:0:0:0:
200,88,19923,5,8,0:0:0:0:
276,56,20070,1,2,0:0:0:0:
355,81,20216,5,0,1:0:0:0:
399,150,20362,1,2,0:0:0:0:
381,229,20509,5,8,0:0:0:0:
459,206,20655,1,2,0:0:0:0:
482,284,20801,1,0,1:0:0:0:
384,328,20948,5,2,0:0:0:0:
384,328,21021,1,0,0:0:0:0:
384,328,21094,2,0,B|328:316|287:335|298:347|257:366|211:353,1,180.000006866455,8|0,0:0|0:0,0:0:0:0:
144,304,21387,6,0,L|89:311,1,48,0|0,1:0|3:0,0:0:0:0:
102,297,21679,6,0,L|141:292,1,32,8|0,0:0|0:0,0:0:0:0:
181,226,21826,5,0,1:0:0:0:
181,226,21899,1,0,3:0:0:0:
181,226,21972,2,0,L|187:186,1,32,0|0,1:0|0:0,0:0:0:0:
8,203,22118,2,0,L|14:163,1,32,0|0,1:0|0:0,0:0:0:0:
76,44,22265,6,0,B|96:41|96:41|94:23,3,40,8|0|0|0,0:0|1:0|3:0|0:0,0:0:0:0:
0,64,22557,2,0,B|56:52|97:71|86:83|127:102|173:89,1,180.000006866455,0|0,3:0|0:0,0:0:0:0:
240,40,22850,6,0,P|304:40|340:80,1,120,2|0,0:0|0:0,0:0:0:0:
340,96,23143,1,0,1:0:0:0:
476,152,23362,5,0,1:0:0:0:
511,146,23435,1,0,3:0:0:0:
378,195,23582,5,0,3:0:0:0:
487,286,23728,6,0,B|454:297|443:324|443:324|437:295|412:275,1,120.000004577637,4|0,1:0|1:0,0:0:0:0:
326,265,24021,2,0,L|199:282,1,120.000004577637,8|2,0:0|0:0,0:0:0:0:
0,192,24313,6,0,B|32:203|43:230|43:230|49:201|74:181,1,120.000004577637,0|2,1:0|0:0,0:0:0:0:
27,112,24606,5,8,0:0:0:0:
74,181,24753,1,2,0:0:0:0:
154,203,24899,5,0,1:0:0:0:
229,168,25045,1,2,0:0:0:0:
263,92,25192,5,8,0:0:0:0:
341,69,25338,1,2,0:0:0:0:
364,147,25484,1,0,1:0:0:0:
458,51,25631,5,2,0:0:0:0:
458,51,25704,1,0,0:0:0:0:
458,51,25777,2,0,L|438:189,1,120.000004577637,8|0,0:0|1:0,0:0:0:0:
449,179,25996,5,0,3:0:0:0:
456,188,26070,2,0,B|444:209|444:209|457:303,1,120.000004577637,0|0,1:0|0:0,0:0:0:0:
368,364,26362,6,0,B|348:361|348:361|345:381,2,40,8|0|0,0:0|3:0|3:0,0:0:0:0:
456,304,26655,1,0,1:0:0:0:
361,258,26801,1,0,1:0:0:0:
220,176,26948,6,0,B|259:171|259:171|265:211,1,80,8|0,0:0|1:0,0:0:0:0:
192,264,27240,6,0,L|128:255,1,64,0|0,3:0|0:0,0:0:0:0:
64,312,27533,2,0,L|0:320,1,64,0|0,3:0|0:0,0:0:0:0:
71,191,27826,6,0,B|64:179|64:179|71:129,1,64,8|0,0:0|3:0,0:0:0:0:
268,0,28118,6,0,B|279:21|279:21|266:115,1,120.000004577637,2|0,0:0|0:0,0:0:0:0:
372,144,28411,6,0,L|471:130,1,95.9999970703126,4|0,1:2|0:0,0:0:0:0:
332,232,28704,5,8,0:3:0:0:
334,248,28850,1,2,0:0:0:0:
348,256,28996,1,0,0:0:0:0:
346,240,29143,1,0,1:0:0:0:
256,296,29289,6,0,L|156:282,1,95.9999970703126,8|2,0:3|0:0,0:0:0:0:
84,344,29582,5,0,1:0:0:0:
61,347,29728,1,2,0:0:0:0:
49,368,29874,1,8,0:3:0:0:
72,365,30021,1,2,0:0:0:0:
79,261,30167,6,0,B|70:244|70:244|80:168,1,95.9999970703126,2|0,0:3|1:0,0:0:0:0:
168,152,30460,6,0,L|263:138,1,95.9999970703126,8|0,0:3|0:0,0:0:0:0:
96,16,30753,6,0,B|55:10|55:10|46:7|46:7|37:7|37:7|1:2,3,96,4|4|4|4,1:2|1:2|1:2|1:2,0:0:0:0:
201,61,31631,5,4,3:2:0:0:
203,53,31704,1,0,3:0:0:0:
204,46,31777,1,0,3:0:0:0:
205,38,31850,1,0,3:0:0:0:
206,31,31924,2,0,L|238:35,3,32,8|0|0|4,0:3|0:0|0:0|0:3,0:0:0:0:
316,45,32216,5,0,0:0:0:0:
341,68,32362,1,4,0:3:0:0:
348,34,32508,1,0,0:0:0:0:
445,102,32655,5,8,0:3:0:0:
420,79,32801,1,4,0:3:0:0:
413,113,32947,1,0,0:0:0:0:
396,192,33094,6,0,B|409:238|390:279|378:268|359:309|371:365,1,180.000006866455,4|0,1:0|0:0,0:0:0:0:
376,371,33387,2,0,P|369:326|333:294,1,96,8|0,0:3|0:0,0:0:0:0:
248,256,33679,6,0,B|250:277|230:287|230:287|149:298,1,120.000004577637,4|0,1:0|0:0,0:0:0:0:
108,384,33972,2,0,B|105:362|82:358|82:358|1:370,1,120.000004577637,8|0,0:3|0:0,0:0:0:0:
62,256,34265,5,4,1:0:0:0:
64,241,34411,1,0,1:0:0:0:
66,226,34557,1,8,0:0:0:0:
68,211,34704,1,0,1:0:0:0:
70,196,34850,5,0,3:0:0:0:
71,188,34923,1,0,3:0:0:0:
72,181,34996,1,0,3:0:0:0:
73,173,35070,1,0,3:0:0:0:
74,166,35143,1,8,0:0:0:0:
0,112,35435,6,0,P|80:116|124:24,1,180.000006866455,4|0,3:2|0:0,0:0:0:0:
124,24,35728,2,0,L|223:37,1,95.9999970703126,0|0,3:0|0:0,0:0:0:0:
416,88,36021,6,0,B|463:91|463:91|418:108,1,95.9999970703126,8|0,0:3|0:0,0:0:0:0:
336,152,36313,2,0,B|288:148|288:148|333:131,1,95.9999970703126,0|0,0:0|3:0,0:0:0:0:
418,108,36606,6,0,B|465:111|465:111|420:128,1,95.9999970703126,0|0,0:0|3:0,0:0:0:0:
338,172,36898,2,0,B|290:168|290:168|335:151,1,95.9999970703126,0|0,3:0|1:0,0:0:0:0:
420,128,37192,6,0,B|467:131|467:131|422:148,1,95.9999970703126,8|0,0:3|0:0,0:0:0:0:
340,192,37484,2,0,B|292:188|292:188|337:171,1,95.9999970703126,0|0,0:0|0:0,0:0:0:0:
422,148,37777,6,0,B|469:151|469:151|424:168,1,95.9999970703126,0|0,3:0|0:0,0:0:0:0:
342,212,38069,2,0,B|294:208|294:208|339:191,1,95.9999970703126,0|0,3:0|0:0,0:0:0:0:
424,168,38362,6,0,B|471:171|471:171|426:188,1,95.9999970703126,8|2,0:3|0:0,0:0:0:0:
344,232,38654,2,0,B|296:228|296:228|341:211,1,95.9999970703126,2|0,0:0|1:0,0:0:0:0:
422,280,38948,6,0,B|432:297|432:297|422:371,1,95.9999970703126,2|0,0:0|1:0,0:0:0:0:
350,344,39240,2,0,L|355:318,6,23.9999992675781,0|0|0|0|2|0|0,3:0|0:0|0:0|0:0|0:0|0:0|0:0,0:0:0:0:
340,211,39533,6,0,P|260:215|216:123,1,180.000006866455,8|0,0:0|0:0,0:0:0:0:
216,123,39826,2,0,L|117:136,1,95.9999970703126,2|0,0:0|0:0,0:0:0:0:
20,80,40118,5,4,3:2:0:0:
104,52,40265,1,0,0:0:0:0:
32,0,40411,6,0,B|21:17|21:17|32:91,1,95.9999970703126,0|0,3:0|0:0,0:0:0:0:
120,135,40704,6,0,P|96:211|-5:221,1,180.000006866455,8|0,0:3|0:0,0:0:0:0:
20,224,40996,2,0,B|76:212|117:231|106:243|147:262|193:249,1,180.000006866455,0|0,0:0|0:0,0:0:0:0:
268,280,41289,6,0,B|294:362|294:362|386:332,1,180.000006866455,0|0,0:0|0:0,0:0:0:0:
385,251,41582,2,0,B|371:209|371:209|325:224,1,90.0000034332277,0|0,3:0|0:0,0:0:0:0:
328,213,41874,6,0,B|377:197|377:197|392:244,1,100,8|0,0:3|0:0,0:0:0:0:
464,324,42167,6,0,L|501:319,1,32,2|0,0:0|0:0,0:0:0:0:
466,143,42460,6,0,B|445:148|445:148|450:166,2,40,0|0|0,1:0|3:0|3:0,0:0:0:0:
284,52,42753,2,0,B|244:38|244:38|254:2,3,80,0|0|8|0,1:0|1:0|0:0|1:0,0:0:0:0:
364,84,43338,6,0,L|368:115,1,32,0|0,1:0|0:0,0:0:0:0:
512,0,43631,5,4,1:2:0:0:
395,79,43923,6,0,L|363:83,1,32,0|0,0:0|0:0,0:0:0:0:
256,192,44143,12,0,44728,0:0:0:0:
117,79,44801,5,4,1:2:0:0:
117,79,45387,5,4,1:2:0:0:
36,152,45582,5,2,0:1:0:0:
1,146,45679,1,2,0:1:0:0:
140,186,45972,6,0,L|135:233,1,42.6666666666667,4|0,1:2|0:0,0:0:0:0:
215,196,46265,2,0,L|207:247,1,42.6666666666667,4|0,1:2|0:0,0:0:0:0:
161,302,46557,6,0,P|309:254|460:372,1,360.000013732911,4|0,1:2|0:0,0:0:0:0:
459,370,47143,6,0,P|441:331|441:279,1,95.9999970703126,4|0,1:2|0:0,0:0:0:0:
352,264,47435,2,0,P|367:224|403:187,1,95.9999970703126,2|0,0:0|0:0,0:0:0:0:
495,150,47728,6,0,P|436:152|384:80,1,143.999995605469,8|0,0:0|0:0,0:0:0:0:
384,80,48021,2,0,B|347:90|314:75|323:65|290:50|245:60,1,143.999995605469,2|0,0:0|0:0,0:0:0:0:
164,32,48313,6,0,B|117:36|117:36|154:7,1,95.9999970703126,0|0,1:0|0:0,0:0:0:0:
245,60,48606,2,0,B|255:77|255:77|245:151,1,95.9999970703126,2|2,0:0|0:0,0:0:0:0:
232,231,48899,6,0,P|191:287|122:290,1,143.999995605469,8|0,0:0|0:0,0:0:0:0:
124,300,49192,6,0,L|128:331,3,32,2|2|2|2,0:1|0:1|0:1|0:1,0:0:0:0:
52,372,49484,6,0,L|38:276,1,95.9999970703126,0|0,1:0|0:0,0:0:0:0:
24,180,49777,1,2,0:0:0:0:
122,290,49923,1,0,0:0:0:0:
232,231,50070,6,0,P|291:233|343:161,1,143.999995605469,8|0,0:0|0:0,0:0:0:0:
348,164,50362,2,0,B|373:148|373:148|486:164,1,143.999995605469,0|0,0:0|0:0,0:0:0:0:
504,168,50655,1,0,1:0:0:0:
408,12,50948,6,0,B|393:55|393:55|346:39,1,95.9999970703126,2|2,0:3|0:0,0:0:0:0:
256,132,51240,2,0,B|208:116|208:116|194:159,1,95.9999970703126,8|2,0:0|0:0,0:0:0:0:
232,231,51533,6,0,B|276:221|309:236|300:246|333:261|370:250,1,143.999995605469,2|2,0:0|0:0,0:0:0:0:
384,248,51826,5,4,1:2:0:0:
480,320,51972,1,2,0:0:0:0:
370,366,52118,2,0,B|357:344|357:344|370:250,1,120.000004577637,8|2,0:0|0:0,0:0:0:0:
512,180,52411,6,0,P|438:182|386:99,1,180.000006866455,0|0,0:0|0:0,0:0:0:0:
388,80,52704,2,0,B|331:67|290:86|301:99|260:117|215:104,1,180.000006866455,8|0,0:0|0:0,0:0:0:0:
160,48,52996,6,0,L|153:0,3,32,0|0|0|0,1:0|0:0|0:0|0:0,0:0:0:0:
124,117,53289,2,0,B|102:129|102:129|8:117,1,120.000004577637,8|2,0:0|0:0,0:0:0:0:
196,186,53582,5,0,0:0:0:0:
188,187,53655,1,0,0:0:0:0:
180,188,53728,2,0,L|175:219,1,32,0|0,1:0|0:0,0:0:0:0:
53,250,53874,6,0,L|171:233,1,120.000004577637,8|0,0:0|0:0,0:0:0:0:
220,300,54167,6,0,B|236:322|236:322|300:331|300:331|321:315,1,120.000004577637,4|0,1:2|0:0,0:0:0:0:
330,304,54387,2,0,B|351:288|351:288|415:297|415:297|432:320,1,120.000004577637,4|0,1:2|0:0,0:0:0:0:
424,328,54606,6,0,B|404:296|404:296|416:209,1,120.000004577637,4|0,1:2|0:0,0:0:0:0:
424,204,54826,2,0,B|443:172|443:172|431:85,1,120.000004577637,4|0,1:2|0:0,0:0:0:0:
348,0,55045,5,4,3:2:0:0:
346,15,55118,1,0,3:0:0:0:
344,30,55191,1,0,3:0:0:0:
342,45,55264,1,0,3:0:0:0:
340,60,55337,1,0,1:0:0:0:
256,112,55484,5,2,0:0:0:0:
164,82,55631,1,8,0:0:0:0:
134,174,55776,5,2,0:0:0:0:
42,204,55923,1,8,0:3:0:0:
0,40,56070,5,0,0:0:0:0:
0,40,56143,1,4,0:3:0:0:
0,40,56216,2,0,P|2:92|0:135,1,95.9999970703126
42,204,56509,6,0,P|93:211|134:261,1,120.000004577637,4|2,1:2|0:0,0:0:0:0:
156,372,56801,2,0,P|188:330|251:320,1,120.000004577637,8|2,0:0|0:0,0:0:0:0:
362,343,57094,6,0,P|283:326|265:225,1,180.000006866455,0|0,1:0|0:0,0:0:0:0:
264,224,57387,2,0,L|382:207,1,120.000004577637,8|2,0:0|0:0,0:0:0:0:
488,240,57679,6,0,B|475:218|475:218|488:124,1,120.000004577637,0|2,1:0|0:0,0:0:0:0:
468,44,57972,6,0,B|411:31|370:50|381:63|340:81|295:68,1,180.000006866455,8|0,0:0|0:0,0:0:0:0:
284,76,58265,2,0,B|262:89|262:89|168:76,1,120.000004577637,0|2,1:0|0:0,0:0:0:0:
252,0,58557,5,8,0:0:0:0:
172,88,58704,1,0,1:0:0:0:
55,62,58850,2,0,L|23:66,3,32,0|0|2|0,1:0|0:0|0:0|0:0,0:0:0:0:
100,133,59143,6,0,P|92:189|20:229,1,143.999995605469,8|0,0:0|0:0,0:0:0:0:
8,228,59435,2,0,B|53:217|86:232|77:243|110:257|145:247,1,143.999995605469,0|0,1:0|0:0,0:0:0:0:
156,256,59728,2,0,B|171:280|171:280|162:346,1,95.9999970703126,8|2,0:0|0:0,0:0:0:0:
296,380,60021,6,0,L|310:277,1,95.9999970703126,0|2,1:0|0:0,0:0:0:0:
296,112,60313,6,0,P|304:168|376:208,1,143.999995605469,8|0,0:0|0:0,0:0:0:0:
448,234,60606,6,0,P|451:210|448:186,1,48,0|0,1:0|0:0,0:0:0:0:
394,134,60899,5,0,0:0:0:0:
396,119,60972,1,0,0:0:0:0:
398,104,61045,1,0,0:0:0:0:
400,89,61118,1,0,0:0:0:0:
402,74,61192,6,0,L|524:52,1,95.9999970703126,4|2,1:0|0:0,0:0:0:0:
344,8,61484,1,8,0:0:0:0:
270,146,61631,6,0,L|175:163,1,95.9999970703126,2|0,0:0|1:0,0:0:0:0:
53,87,61923,6,0,P|151:76|181:162,1,180.000006866455,2|0,0:0|0:0,0:0:0:0:
180,150,62216,2,0,L|274:132,1,95.9999970703126,2|0,0:0|1:0,0:0:0:0:
256,304,62509,5,2,0:0:0:0:
328,212,62655,2,0,B|359:231|359:231|442:220,1,120.000004577637,8|2,0:0|0:0,0:0:0:0:
512,44,62948,6,0,P|433:61|415:162,1,180.000006866455,0|0,1:0|0:0,0:0:0:0:
441,220,63240,2,0,L|458:342,1,120.000004577637,8|0,0:0|0:0,0:0:0:0:
344,316,63533,6,0,L|339:284,3,32,8|8|8|8,1:0|0:1|0:1|0:1,0:0:0:0:
336,360,63826,2,0,L|331:328,3,32,8|8|8|8,0:0|0:1|0:1|0:1,0:0:0:0:
180,328,64118,6,0,L|176:360,3,32,8|8|8|8,1:0|0:1|0:1|0:1,0:0:0:0:
172,284,64411,2,0,L|168:316,3,32,8|8|8|8,0:0|0:1|0:1|0:1,0:0:0:0:
71,220,64704,5,0,1:0:0:0:
94,195,64850,1,2,0:0:0:0:
60,188,64996,1,2,0:0:0:0:
24,64,65143,5,2,0:0:0:0:
1,89,65289,1,2,0:0:0:0:
35,96,65435,1,2,0:0:0:0:
21,82,65582,6,0,L|122:67,1,95.9999970703126,2|0,0:0|0:0,0:0:0:0:
124,60,65874,1,4,3:2:0:0:
420,44,70557,6,0,L|324:57,1,96,4|0,0:0|0:0,0:0:0:0:
309,60,70850,1,2,0:3:0:0:
256,140,70996,5,2,0:0:0:0:
177,128,71143,2,0,L|243:137,1,64,0|2,0:0|0:0,0:0:0:0:
92,212,71435,6,0,L|187:225,1,96,2|0,0:3|0:0,0:0:0:0:
203,228,71728,1,0,0:0:0:0:
256,308,71874,1,2,0:0:0:0:
335,296,72021,6,0,L|268:305,1,64,2|2,0:3|0:0,0:0:0:0:
215,384,72313,2,0,L|152:376,1,64,0|0,0:0|0:0,0:0:0:0:
116,304,72606,2,0,L|52:295,1,64,2|0,0:3|0:0,0:0:0:0:
348,192,72899,6,0,L|411:183,1,64,0|0,0:0|0:0,0:0:0:0:
468,124,73192,6,0,L|472:92,1,32,2|2,0:3|0:0,0:0:0:0:
314,103,73484,2,0,L|318:71,2,32,0|2|2,0:0|0:0|0:3,0:0:0:0:
254,177,74070,6,0,P|190:173|154:105,1,143.999995605469,0|0,3:0|0:0,0:0:0:0:
160,96,74362,6,0,L|151:32,1,64,2|0,0:0|0:0,0:0:0:0:
0,36,74655,2,0,L|13:131,1,95.9999970703126,2|0,0:0|0:0,0:0:0:0:
28,216,74948,5,8,0:3:0:0:
45,217,75021,1,0,0:0:0:0:
61,218,75094,1,0,0:0:0:0:
76,220,75167,1,0,0:0:0:0:
92,224,75241,6,0,B|111:255|111:255|100:338,1,120.000004577637,4|0,1:0|0:0,0:0:0:0:
256,384,75533,5,2,0:0:0:0:
192,313,75679,2,0,L|208:194,1,120.000004577637,4|0,1:0|0:0,0:0:0:0:
308,176,75972,6,0,B|362:150|362:150|302:150,1,120.000004577637,2|4,0:0|1:0,0:0:0:0:
176,48,76265,5,0,0:0:0:0:
240,0,76411,2,0,B|221:31|221:31|232:114,1,120.000004577637,8|8,0:3|0:3,0:0:0:0:
92,44,76704,2,0,B|37:18|37:18|97:18,1,120.000004577637,8|4,0:3|0:3,0:0:0:0:
176,48,76996,5,4,0:3:0:0:
308,176,77143,1,4,0:3:0:0:
485,126,77289,1,8,0:3:0:0:
485,126,77582,6,0,P|406:109|388:8,1,180.000006866455,4|0,1:0|0:0,0:0:0:0:
392,8,77874,5,2,0:0:0:0:
296,80,78021,2,0,L|177:64,1,120.000004577637,4|0,1:0|0:0,0:0:0:0:
48,0,78313,6,0,B|3:39|3:39|60:23,2,120.000004577637,4|4|0,1:0|1:0|0:0,0:0:0:0:
177,64,78753,5,0,3:0:0:0:
100,96,78899,2,0,B|113:153|94:194|81:183|63:224|76:269,1,180.000006866455,2|0,0:0|0:0,0:0:0:0:
80,280,79192,2,0,P|144:284|184:336,1,120.000004577637,2|2,0:0|0:0,0:0:0:0:
256,384,79484,6,0,P|263:355|264:325,1,60.0000022888184,2|0,0:0|0:0,0:0:0:0:
308,252,79631,2,0,P|327:168|410:147,1,180.000006866455,8|0,0:3|0:0,0:0:0:0:
492,92,79923,6,0,L|498:44,1,48,4|0,1:0|0:0,0:0:0:0:
510,55,80216,6,0,L|505:86,1,32,2|0,0:1|0:0,0:0:0:0:
409,146,80362,2,0,L|440:151,1,32,4|0,1:0|0:0,0:0:0:0:
356,272,80509,6,0,L|325:267,1,32,2|0,0:1|0:0,0:0:0:0:
308,252,80655,2,0,L|277:247,1,32,2|0,0:3|0:0,0:0:0:0:
138,209,80801,6,0,B|122:213|122:213|116:188,2,40,4|0|0,1:0|3:0|3:0,0:0:0:0:
152,112,81094,6,0,B|202:105|202:105|209:150,3,95.9999970703126,0|2|2|2,1:0|0:0|0:3|0:0,0:0:0:0:
136,120,81679,6,0,P|53:98|34:14,1,180.000006866455,2|0,0:0|0:0,0:0:0:0:
44,0,81972,1,8,0:3:0:0:
104,296,82265,6,0,L|163:287,1,60.0000022888184,4|0,1:0|0:0,0:0:0:0:
252,328,82557,6,0,P|250:349|252:375,1,48,2|0,0:0|0:0,0:0:0:0:
256,384,82850,6,0,B|265:342|256:298|256:298|244:251|256:205,1,180.000006866455,2|0,0:0|0:0,0:0:0:0:
248,192,83143,1,2,0:0:0:0:
444,104,83435,5,0,1:0:0:0:
444,104,83728,1,0,0:0:0:0:
444,104,84021,1,0,0:0:0:0:
444,104,84313,1,0,0:0:0:0:
376,44,84606,6,0,P|373:26|376:2,3,42.6666666666667,4|0|0|0,3:2|3:0|3:0|3:0,0:0:0:0:
444,104,85094,2,0,P|461:102|485:104,3,42.6666666666667,0|0|0|0,1:0|3:0|3:0|3:0,0:0:0:0:
384,172,85484,6,0,P|381:212|385:267,1,85.3333333333333,8|0,0:0|0:0,0:0:0:0:
324,335,85777,6,0,P|302:332|281:334,3,42.6666666666667,4|0|0|0,3:2|3:0|3:0|3:0,0:0:0:0:
221,266,86265,2,0,P|199:268|178:265,3,42.6666666666667,0|0|0|0,1:0|3:0|3:0|3:0,0:0:0:0:
92,264,86655,6,0,P|95:216|92:172,1,85.3333333333333,8|0,0:0|0:0,0:0:0:0:
8,132,86948,6,0,P|5:110|8:89,3,42.6666666666667,4|0|0|0,3:2|3:0|3:0|3:0,0:0:0:0:
175,89,87435,2,0,P|178:110|176:132,3,42.6666666666667,0|0|0|0,1:0|3:0|3:0|1:0,0:0:0:0:
224,196,87826,6,0,P|303:179|321:84,1,160.000006103516,8|0,0:0|0:0,0:0:0:0:
360,20,88118,6,0,P|389:16|411:20,3,53.3333333333333,4|0|0|2,3:2|3:0|3:0|0:0,0:0:0:0:
512,152,88606,2,0,P|482:155|460:152,3,53.3333333333333,0|0|0|0,0:0|3:0|0:0|3:0,0:0:0:0:
376,160,88996,6,0,P|372:232|376:276,1,106.666666666667,8|0,0:3|0:0,0:0:0:0:
440,332,89289,6,0,P|443:361|440:383,2,53.3333333333333,4|8|8,1:2|0:1|0:1,0:0:0:0:
500,280,89582,1,8,0:0:0:0:
304,344,89777,5,0,0:0:0:0:
292,332,89874,2,0,P|288:302|292:280,2,53.3333333333333,8|8|8,1:0|0:1|0:1,0:0:0:0:
216,384,90167,5,8,0:0:0:0:
191,337,90264,1,8,0:0:0:0:
145,312,90362,1,8,0:0:0:0:
92,318,90459,1,0,0:0:0:0:
152,153,90655,5,0,0:0:0:0:
135,198,90753,1,8,0:0:0:0:
16,155,90948,5,8,0:1:0:0:
9,139,91045,2,0,P|5:109|9:87,2,53.3333333333333,8|0|0,1:0|3:0|3:0,0:0:0:0:
88,60,91338,5,8,0:0:0:0:
90,40,91435,5,0,3:0:0:0:
93,20,91533,5,0,3:0:0:0:
96,0,91631,5,4,1:2:0:0:
88,60,91923,6,0,L|143:67,1,48,2|0,0:0|0:0,0:0:0:0:
164,96,92216,6,0,L|266:81,1,96,8|0,0:3|0:0,0:0:0:0:
328,0,92509,6,0,B|350:36|350:36|337:135,1,143.999995605469,4|0,0:3|0:0,0:0:0:0:
380,204,92801,6,0,B|450:329|450:329|484:189,1,287.999991210938,8|8,0:3|0:3,0:0:0:0:
488,104,93387,6,0,B|464:62|464:62|453:108,1,95.9999970703126,2|0,0:3|3:0,0:0:0:0:
380,204,93679,2,0,B|355:219|355:219|289:210,1,95.9999970703126,8|2,0:3|0:0,0:0:0:0:
1,247,93972,6,0,L|120:264,1,120.000004577637,4|2,1:2|0:0,0:0:0:0:
290,348,94265,2,0,L|172:332,1,120.000004577637,8|2,0:0|0:0,0:0:0:0:
103,383,94557,5,0,1:0:0:0:
204,253,94704,1,2,0:0:0:0:
120,264,94850,2,0,B|101:232|101:232|112:149,1,120.000004577637,8|2,0:0|0:0,0:0:0:0:
168,64,95143,6,0,P|228:48|256:0,1,120.000004577637,0|2,1:0|0:0,0:0:0:0:
342,12,95435,2,0,P|358:68|409:97,1,120.000004577637,8|2,0:0|0:0,0:0:0:0:
504,112,95728,5,0,1:0:0:0:
504,112,95801,1,0,0:0:0:0:
504,112,95874,1,2,0:0:0:0:
444,172,96021,2,0,L|461:294,1,120.000004577637,8|2,0:0|0:0,0:0:0:0:
372,384,96313,6,0,B|389:361|389:361|380:298|380:298|358:282,1,120.000004577637,0|2,1:0|0:0,0:0:0:0:
240,136,96606,2,0,B|222:158|222:158|231:221|231:221|253:237,1,120.000004577637,8|2,0:0|0:0,0:0:0:0:
327,208,96899,5,0,1:0:0:0:
266,348,97045,1,2,0:0:0:0:
196,300,97192,2,0,L|77:316,1,120.000004577637,8|0,0:0|0:0,0:0:0:0:
0,172,97484,6,0,P|60:188|88:236,1,120.000004577637,0|2,1:0|0:0,0:0:0:0:
97,344,97777,2,0,P|140:300|196:299,1,120.000004577637,8|2,0:0|0:0,0:0:0:0:
272,356,98070,5,0,1:0:0:0:
272,356,98143,1,0,0:0:0:0:
272,356,98216,1,2,0:0:0:0:
327,208,98362,2,0,L|310:89,1,120.000004577637,8|2,0:0|0:0,0:0:0:0:
480,0,98655,6,0,P|449:49|392:63,1,120.000004577637,4|2,1:2|0:0,0:0:0:0:
211,44,98948,2,0,P|269:45|309:88,1,120.000004577637,8|2,0:0|0:0,0:0:0:0:
333,170,99240,5,0,1:0:0:0:
512,192,99387,1,2,0:0:0:0:
444,232,99533,2,0,B|425:264|425:264|436:347,1,120.000004577637,8|2,0:0|0:0,0:0:0:0:
272,384,99826,6,0,L|255:265,1,120.000004577637,0|2,1:0|0:0,0:0:0:0:
200,200,100118,2,0,P|141:198|101:155,1,120.000004577637,8|2,0:0|0:0,0:0:0:0:
24,120,100411,5,0,1:0:0:0:
24,120,100484,1,0,0:0:0:0:
24,120,100557,1,2,0:0:0:0:
177,120,100704,6,0,L|160:1,1,120.000004577637,8|2,0:0|0:0,0:0:0:0:
276,61,100996,6,0,B|316:105|316:105|257:96,1,120.000004577637,0|4,1:0|0:3,0:0:0:0:
177,120,101289,1,8,0:0:0:0:
200,200,101435,1,4,0:3:0:0:
142,259,101582,5,0,1:0:0:0:
119,339,101728,1,4,0:3:0:0:
39,316,101874,1,8,0:0:0:0:
62,236,102021,1,4,0:3:0:0:
128,352,102167,6,0,L|227:338,1,95.9999970703126,0|2,1:0|0:0,0:0:0:0:
240,316,102460,6,0,L|309:325,1,64,2|2,0:0|0:0,0:0:0:0:
316,332,102753,6,0,L|351:326,1,32,2|0,0:0|0:0,0:0:0:0:
424,384,103045,5,2,0:0:0:0:
426,372,103118,1,2,0:0:0:0:
428,360,103191,1,2,0:0:0:0:
430,348,103264,1,2,0:0:0:0:
431,336,103338,6,0,B|443:314|443:314|436:258,1,80,4|0,1:2|0:0,0:0:0:0:
452,184,103631,6,0,L|458:136,1,40,2|0,0:0|0:0,0:0:0:0:
473,69,104070,5,0,0:0:0:0:
368,0,104362,6,0,B|346:26|346:26|357:102|357:102|383:121,1,143.999995605469,2|0,0:3|0:0,0:0:0:0:
452,184,104655,1,8,0:3:0:0:
452,184,104728,1,8,0:3:0:0:
452,184,104801,1,8,0:3:0:0:
344,203,104948,6,0,P|278:182|260:116,1,143.999995605469,4|0,0:3|0:0,0:0:0:0:
180,80,105240,6,0,P|137:5|8:40,1,240.000009155274,4|2,0:3|0:0,0:0:0:0:
60,112,105679,6,0,L|182:94,1,120.000004577637,4|2,1:2|0:0,0:0:0:0:
104,204,105972,6,0,B|82:222|82:222|18:213|18:213|2:191,1,120.000004577637,0|2,1:0|0:0,0:0:0:0:
60,112,106265,5,0,1:0:0:0:
184,228,106411,1,2,0:0:0:0:
160,308,106557,6,0,L|278:291,1,120.000004577637,0|2,1:0|0:0,0:0:0:0:
348,352,106850,2,0,B|329:320|329:320|340:237,1,120.000004577637,0|2,1:0|0:0,0:0:0:0:
412,192,107143,5,0,1:0:0:0:
412,192,107216,1,0,0:0:0:0:
412,192,107289,1,2,0:0:0:0:
512,44,107435,6,0,P|453:42|413:-1,1,120.000004577637,0|2,1:0|0:0,0:0:0:0:
344,64,107728,2,0,L|225:80,1,120.000004577637,0|2,1:0|0:0,0:0:0:0:
152,32,108021,5,4,1:2:0:0:
0,88,108167,1,2,0:0:0:0:
72,132,108313,6,0,B|91:164|91:164|80:247,1,120.000004577637,8|2,0:0|0:0,0:0:0:0:
0,368,108606,6,0,P|59:366|99:323,1,120.000004577637,0|2,1:0|0:0,0:0:0:0:
160,268,108899,2,0,L|282:250,1,120.000004577637,8|2,0:0|0:0,0:0:0:0:
350,209,109118,5,0,0:0:0:0:
360,200,109192,2,0,B|362:175|362:175|339:171,3,47.9999985351563,0|0|2|2,1:0|0:0|0:0|0:0,0:0:0:0:
404,268,109484,6,0,B|423:300|423:300|412:383,1,120.000004577637,8|2,0:0|0:0,0:0:0:0:
286,364,109777,2,0,B|267:332|267:332|278:249,1,120.000004577637,0|2,1:0|0:0,0:0:0:0:
360,200,110070,6,0,L|343:81,1,120.000004577637,8|2,0:0|0:0,0:0:0:0:
244,22,110362,6,0,B|204:66|204:66|263:57,1,120.000004577637,0|4,1:0|0:3,0:0:0:0:
343,81,110655,1,8,0:0:0:0:
414,35,110801,1,4,0:3:0:0:
489,73,110948,5,0,1:0:0:0:
407,25,111094,1,4,0:3:0:0:
441,155,111240,5,8,0:0:0:0:
360,200,111387,1,4,0:3:0:0:
434,238,111533,6,0,L|442:301,1,64,4|2,0:3|0:0,0:0:0:0:
349,377,111826,6,0,B|338:360|338:360|344:316,1,64,2|8,0:3|0:3,0:0:0:0:
340,304,112118,1,4,0:3:0:0:
256,332,112265,6,0,P|227:325|197:324,1,60.0000022888184,4|0,0:3|0:0,0:0:0:0:
124,280,112412,2,0,P|40:261|19:178,1,180.000006866455,8|0,0:0|3:0,0:0:0:0:
28,164,112704,6,0,P|88:144|112:92,1,120.000004577637,4|2,1:0|0:0,0:0:0:0:
132,0,112996,2,0,P|183:29|204:84,1,120.000004577637,8|2,0:0|0:0,0:0:0:0:
215,177,113289,6,0,L|333:160,1,120.000004577637,0|2,1:0|0:0,0:0:0:0:
483,14,113582,5,8,0:0:0:0:
399,20,113729,1,2,0:0:0:0:
340,78,113875,5,0,1:0:0:0:
333,160,114021,1,2,0:0:0:0:
382,228,114168,5,8,0:0:0:0:
464,235,114313,1,2,0:0:0:0:
457,317,114460,1,0,1:0:0:0:
366,348,114606,5,2,0:0:0:0:
360,339,114679,1,0,0:0:0:0:
354,329,114753,2,0,L|235:345,1,120.000004577637,8|0,0:0|1:0,0:0:0:0:
140,384,115045,6,0,B|119:352|119:352|130:271,1,120.000004577637,0|2,1:0|0:0,0:0:0:0:
196,208,115338,2,0,L|180:89,1,120.000004577637,8|2,0:0|0:0,0:0:0:0:
16,0,115631,6,0,P|43:51|99:68,1,120.000004577637,0|2,1:0|0:0,0:0:0:0:
174,5,115923,5,8,0:0:0:0:
180,89,116070,1,2,0:0:0:0:
238,148,116216,5,0,1:0:0:0:
320,155,116362,1,2,0:0:0:0:
388,106,116509,5,8,0:0:0:0:
444,176,116655,1,2,0:0:0:0:
512,120,116801,1,0,1:0:0:0:
442,187,116948,1,0,1:0:0:0:
512,288,117094,6,0,P|514:258|511:228,1,60.0000022888184,8|0,0:0|0:0,0:0:0:0:
366,296,117240,5,0,3:0:0:0:
360,287,117313,1,0,3:0:0:0:
354,277,117387,6,0,P|294:297|270:349,1,120.000004577637,4|2,1:0|0:0,0:0:0:0:
189,334,117679,2,0,P|177:277|128:246,1,120.000004577637,8|2,0:0|0:0,0:0:0:0:
46,234,117972,2,0,L|28:107,1,120.000004577637,0|2,1:0|0:0,0:0:0:0:
180,180,118265,6,0,L|173:136,1,32,8|0,0:0|0:0,0:0:0:0:
184,132,118411,2,0,L|177:88,1,32,0|0,1:0|0:0,0:0:0:0:
204,12,118557,6,0,B|236:33|236:33|317:22,1,120.000004577637,0|2,1:0|0:0,0:0:0:0:
468,40,118850,2,0,P|408:60|384:112,1,120.000004577637,8|2,0:0|0:0,0:0:0:0:
298,176,119143,5,0,1:0:0:0:
304,196,119289,1,0,1:0:0:0:
310,216,119435,6,0,P|339:213|369:215,3,60.0000022888184,8|0|0|0,0:0|0:0|3:0|3:0,0:0:0:0:
436,264,119728,2,0,P|431:323|437:383,1,120.000004577637,0|0,1:0|1:0,0:0:0:0:
452,160,120021,6,0,P|481:157|511:159,4,60.0000022888184,8|0|0|0|0,0:0|3:0|3:0|3:0|1:0,0:0:0:0:
384,108,120460,1,0,1:0:0:0:
296,72,120606,5,8,0:0:0:0:
305,66,120679,1,0,3:0:0:0:
315,60,120753,2,0,L|307:0,1,60.0000022888184,0|0,3:0|0:0,0:0:0:0:
180,128,120899,6,0,B|120:108|120:108|102:162,1,120.000004577637,0|0,1:0|0:0,0:0:0:0:
39,364,121118,5,0,3:0:0:0:
55,380,121192,2,0,L|38:261,2,120.000004577637,8|0|0,0:0|1:0|0:0,0:0:0:0:
134,373,121557,6,0,B|149:378|149:378|154:363,1,32,0|0,1:0|0:0,0:0:0:0:
223,324,121777,6,0,L|214:260,1,64,0|0,1:0|0:0,0:0:0:0:
103,164,122070,6,0,B|117:207|117:207|164:191,1,95.9999970703126,2|2,0:3|0:0,0:0:0:0:
260,124,122362,6,0,P|261:145|260:171,1,48,2|0,0:3|0:0,0:0:0:0:
256,180,122655,6,0,B|246:138|256:94|256:94|267:47|256:1,1,180.000006866455,2|0,0:3|0:0,0:0:0:0:
248,12,122948,1,0,3:0:0:0:
356,108,123094,5,0,3:0:0:0:
370,100,123167,2,0,L|375:64,1,30.0000011444092,0|0,3:0|0:0,0:0:0:0:
383,108,123240,2,0,P|455:120|483:168,1,120.000004577637,4|2,1:0|0:0,0:0:0:0:
512,244,123533,2,0,P|440:256|412:304,1,120.000004577637,8|2,0:0|0:0,0:0:0:0:
432,372,123826,5,0,1:0:0:0:
415,291,123972,1,2,0:0:0:0:
328,360,124118,5,8,0:0:0:0:
311,279,124264,1,0,3:0:0:0:
305,270,124337,1,0,3:0:0:0:
299,260,124411,2,0,L|180:276,1,120.000004577637,0|2,1:0|0:0,0:0:0:0:
11,375,124704,6,0,P|69:371|108:328,1,120.000004577637,8|2,0:0|0:0,0:0:0:0:
98,239,124996,2,0,B|77:207|77:207|88:126,1,120.000004577637,0|2,1:0|0:0,0:0:0:0:
164,96,125289,1,8,0:0:0:0:
107,0,125435,5,2,0:1:0:0:
109,16,125508,1,2,0:1:0:0:
112,32,125581,1,0,1:0:0:0:
241,66,125728,1,0,1:0:0:0:
207,195,125874,5,8,0:0:0:0:
207,195,126021,1,0,1:0:0:0:
284,156,126167,5,0,3:0:0:0:
300,153,126240,1,0,3:0:0:0:
316,151,126313,1,0,3:0:0:0:
380,92,126460,5,8,0:0:0:0:
382,76,126533,1,0,3:0:0:0:
385,60,126606,1,0,3:0:0:0:
387,44,126679,1,0,3:0:0:0:
390,28,126753,6,0,L|407:154,1,120.000004577637,4|2,1:0|0:0,0:0:0:0:
508,128,127045,2,0,L|491:9,1,120.000004577637,8|2,0:0|0:0,0:0:0:0:
364,264,127338,6,0,L|347:390,1,120.000004577637,0|2,1:0|0:0,0:0:0:0:
246,364,127630,2,0,L|262:245,1,120.000004577637,8|0,0:0|3:0,0:0:0:0:
262,245,127850,1,0,3:0:0:0:
262,245,127923,1,0,1:0:0:0:
168,192,128070,5,2,0:0:0:0:
168,192,128143,1,0,3:0:0:0:
168,192,128216,2,0,B|163:156|163:156|163:147|163:147|160:138|160:138|154:97,2,96,8|0|0,0:0|1:0|0:0,0:0:0:0:
36,106,128582,5,0,1:0:0:0:
36,107,128655,1,0,0:0:0:0:
36,107,128728,1,0,0:0:0:0:
36,107,128801,2,0,B|41:71|41:71|41:62|41:62|44:53|44:53|50:12,1,96,8|2,0:0|0:0,0:0:0:0:
154,97,129094,6,0,L|158:65,3,32,0|8|4|8,1:0|0:1|0:3|0:1,0:0:0:0:
176,52,129387,2,0,L|180:20,3,32,8|8|4|8,0:0|0:1|0:3|0:1,0:0:0:0:
256,56,129679,6,0,L|259:29,6,16,0|8|8|8|4|8|8,1:0|0:1|0:1|0:1|0:3|0:1|0:1,0:0:0:0:
264,72,129972,6,0,L|365:58,1,95.9999970703126,8|4,0:0|0:3,0:0:0:0:
436,93,130265,6,0,B|475:119|475:119|428:128,1,95.9999970703126,0|2,1:0|0:0,0:0:0:0:
344,164,130557,2,0,B|315:201|315:201|363:193,1,95.9999970703126,2|2,0:3|0:0,0:0:0:0:
440,260,130850,6,0,L|432:315,1,47.9999985351563,2|0,0:0|0:0,0:0:0:0:
343,335,131143,6,0,L|363:190,1,143.999995605469,8|0,0:3|0:0,0:0:0:0:
344,164,131435,5,4,1:0:0:0:
256,192,131582,1,0,1:0:0:0:
168,164,131728,6,0,P|88:168|44:76,1,180.000006866455,8|0,0:0|0:0,0:0:0:0:
48,76,132021,6,0,L|40:25,1,47.9999985351563,0|2,1:0|0:0,0:0:0:0:
127,64,132313,2,0,L|119:13,1,47.9999985351563,8|2,0:0|0:0,0:0:0:0:
177,180,132606,6,0,L|184:129,1,47.9999985351563,0|2,1:0|0:0,0:0:0:0:
256,192,132900,2,0,L|263:141,1,47.9999985351563,8|0,0:0|0:0,0:0:0:0:
56,344,133192,6,0,L|49:293,1,47.9999985351563,0|0,1:0|3:0,0:0:0:0:
48,280,133411,1,0,3:0:0:0:
64,284,133484,2,0,L|70:331,1,47.9999985351563,8|0,0:0|1:0,0:0:0:0:
184,384,133777,5,0,1:0:0:0:
256,332,133923,1,0,1:0:0:0:
328,384,134070,5,8,0:0:0:0:
400,332,134216,1,0,3:0:0:0:
400,324,134289,1,0,3:0:0:0:
400,316,134362,2,0,L|404:284,2,23.9999992675781,0|0|0,1:0|1:0|3:0,0:0:0:0:
484,364,134655,6,0,L|497:268,1,95.9999970703126,8|0,0:0|0:0,0:0:0:0:
481,173,134948,6,0,B|449:163|449:163|440:192,1,63.9999980468751,0|0,1:0|0:0,0:0:0:0:
468,192,135143,1,0,1:0:0:0:
424,92,135240,6,0,L|427:68,8,15.9999995117188,8|0|0|0|0|0|0|0|0,0:0|0:0|0:0|0:0|0:0|0:0|0:0|0:0|0:0,0:0:0:0:
344,100,135533,6,0,L|352:36,2,63.9999980468751,0|0|0,1:0|1:0|1:0,0:0:0:0:
269,70,135826,5,8,0:0:0:0:
0,192,136118,6,0,L|35:186,1,32,4|0,1:2|0:0,0:0:0:0:
40,176,136265,2,0,L|75:170,1,32,0|0,1:0|0:0,0:0:0:0:
216,236,136411,6,0,L|180:230,1,32,8|0,0:0|0:0,0:0:0:0:
176,220,136558,2,0,L|140:214,1,32,0|0,3:0|3:0,0:0:0:0:
64,316,136704,6,0,L|99:310,1,32,4|0,1:2|0:0,0:0:0:0:
104,300,136851,2,0,L|139:294,1,32,0|0,1:0|0:0,0:0:0:0:
212,368,136996,6,0,L|206:332,2,32,8|0|0,0:0|3:0|1:0,0:0:0:0:
298,323,137289,6,0,L|302:354,2,32,4|0|0,1:2|3:0|1:0,0:0:0:0:
416,311,137582,6,0,L|448:316,1,32,8|0,0:0|0:0,0:0:0:0:
376,295,137728,2,0,L|408:300,1,32,0|0,3:0|3:0,0:0:0:0:
472,216,137874,6,0,L|440:220,1,32,4|0,1:2|0:0,0:0:0:0:
512,200,138021,2,0,L|480:204,1,32,0|0,1:0|0:0,0:0:0:0:
344,152,138167,6,0,L|375:156,3,32,8|0|0|0,0:0|1:0|3:0|3:0,0:0:0:0:
308,72,138460,6,0,L|284:75,3,16,0|0|0|0,1:0|3:0|3:0|3:0,0:0:0:0:
276,100,138753,6,0,L|252:103,3,16,8|0|0|0,0:0|3:0|3:0|3:0,0:0:0:0:
192,168,139045,2,0,L|172:153,3,16,0|0|0|0,1:0|3:0|3:0|3:0,0:0:0:0:
80,152,139338,2,0,L|76:128,3,16,8|0|0|0,0:0|3:0|3:0|3:0,0:0:0:0:
0,108,139631,6,0,B|59:3|59:3|87:120,1,240.000009155274,0|0,1:0|0:0,0:0:0:0:
345,136,140216,6,0,L|408:127,1,60.0000022888184,2|0,0:0|0:0,0:0:0:0:
405,138,140509,2,0,L|345:146,1,60.0000022888184,2|0,0:0|0:0,0:0:0:0:
256,192,140801,5,0,1:0:0:0:
