osu file format v14

[General]
AudioFilename: audio.mp3
AudioLeadIn: 0
PreviewTime: 93882
Countdown: 0
SampleSet: Normal
StackLeniency: 0.7
Mode: 1
LetterboxInBreaks: 0
WidescreenStoryboard: 1

[Editor]
Bookmarks: 140857
DistanceSpacing: 0.8
BeatDivisor: 3
GridSize: 8
TimelineZoom: 3.499999

[Metadata]
Title:SAIKYO STRONGER
TitleUnicode:最強STRONGER
Artist:REDALiCE vs. USAO
ArtistUnicode:REDALiCE vs. USAO
Creator:MMzz
Version:Oni
Source:Arcaea
Tags:HARDCORE TANO*C Chromoxx Arrival instrumental electronic video rhythm game
BeatmapID:2394331
BeatmapSetID:1145432

[Difficulty]
HPDrainRate:5
CircleSize:5
OverallDifficulty:5.5
ApproachRate:5
SliderMultiplier:1.4
SliderTickRate:1

[Events]
//Background and Video events
0,0,"bg.jpg",0,85
//Break Periods
//Storyboard Layer 0 (Background)
//Storyboard Layer 1 (Fail)
//Storyboard Layer 2 (Pass)
//Storyboard Layer 3 (Foreground)
//Storyboard Layer 4 (Overlay)
//Storyboard Sound Samples

[TimingPoints]
370,292.682926829268,4,1,0,100,1,0
94028,-100,4,1,0,100,0,1
103394,-100,4,1,0,100,0,0
105735,-100,4,1,0,100,0,1
122126,-100,4,1,0,100,0,0
123296,-100,4,1,0,100,0,1
131491,-100,4,1,0,100,0,0

[HitObjects]
159,174,370,5,12,0:0:0:0:
159,174,662,1,0,0:0:0:0:
159,174,809,1,8,0:0:0:0:
159,174,1101,1,0,0:0:0:0:
158,168,1248,1,8,0:0:0:0:
212,175,1687,1,8,0:0:0:0:
212,175,1833,1,8,0:0:0:0:
212,175,1979,1,8,0:0:0:0:
212,175,2126,1,0,0:0:0:0:
210,164,2711,1,8,0:0:0:0:
203,146,3004,1,0,0:0:0:0:
203,147,3150,1,8,0:0:0:0:
203,149,3443,1,0,0:0:0:0:
203,146,3589,1,8,0:0:0:0:
183,183,3882,1,0,0:0:0:0:
187,137,4174,1,0,0:0:0:0:
188,137,4467,1,8,0:0:0:0:
188,137,4613,1,0,0:0:0:0:
170,141,4760,1,8,0:0:0:0:
200,135,5052,1,8,0:0:0:0:
199,137,5345,1,0,0:0:0:0:
200,135,5491,1,8,0:0:0:0:
200,135,5784,1,0,0:0:0:0:
199,137,5930,1,8,0:0:0:0:
200,135,6369,1,8,0:0:0:0:
200,135,6516,1,8,0:0:0:0:
199,137,6662,1,8,0:0:0:0:
200,135,6809,1,0,0:0:0:0:
193,130,7101,1,8,0:0:0:0:
189,130,7394,1,8,0:0:0:0:
153,161,7687,1,0,0:0:0:0:
153,161,7833,1,8,0:0:0:0:
153,161,8126,1,0,0:0:0:0:
153,161,8272,1,8,0:0:0:0:
153,161,8565,1,4,0:0:0:0:
153,161,8857,1,8,0:0:0:0:
139,156,8930,1,8,0:0:0:0:
139,156,9004,1,0,0:0:0:0:
147,159,9150,1,8,0:0:0:0:
147,159,9296,1,0,0:0:0:0:
147,159,9443,1,8,0:0:0:0:
147,159,9589,1,8,0:0:0:0:
147,159,9735,1,4,0:0:0:0:
203,136,10028,1,0,0:0:0:0:
159,170,10321,1,0,0:0:0:0:
198,174,10613,1,0,0:0:0:0:
183,166,10760,1,8,0:0:0:0:
185,117,10833,1,8,0:0:0:0:
185,117,10906,1,0,0:0:0:0:
198,174,11199,1,0,0:0:0:0:
197,171,11491,1,0,0:0:0:0:
198,174,11784,1,0,0:0:0:0:
207,170,11930,1,8,0:0:0:0:
207,170,12004,1,8,0:0:0:0:
197,171,12077,1,0,0:0:0:0:
197,171,12223,1,0,0:0:0:0:
198,174,12369,1,8,0:0:0:0:
198,174,12516,1,0,0:0:0:0:
235,197,12662,1,0,0:0:0:0:
235,197,12735,1,0,0:0:0:0:
235,197,12809,1,0,0:0:0:0:
235,197,12882,1,0,0:0:0:0:
235,197,12955,1,8,0:0:0:0:
235,197,13028,1,8,0:0:0:0:
235,197,13101,1,8,0:0:0:0:
235,197,13174,1,8,0:0:0:0:
235,197,13248,1,0,0:0:0:0:
242,195,13833,1,8,0:0:0:0:
222,191,13979,1,0,0:0:0:0:
222,191,14126,1,8,0:0:0:0:
222,191,14272,1,8,0:0:0:0:
222,190,14345,1,8,0:0:0:0:
221,189,14418,1,0,0:0:0:0:
233,192,14565,5,8,0:0:0:0:
233,192,14711,1,0,0:0:0:0:
231,194,14857,1,8,0:0:0:0:
231,195,15004,1,0,0:0:0:0:
231,195,15150,1,8,0:0:0:0:
230,197,15296,1,0,0:0:0:0:
230,197,15443,1,8,0:0:0:0:
182,157,15516,1,8,0:0:0:0:
168,177,15589,1,0,0:0:0:0:
168,177,15735,1,8,0:0:0:0:
168,177,15882,1,0,0:0:0:0:
168,177,16028,1,8,0:0:0:0:
168,177,16174,1,0,0:0:0:0:
168,177,16321,1,8,0:0:0:0:
168,177,16467,1,0,0:0:0:0:
183,147,16540,1,0,0:0:0:0:
191,165,16613,1,8,0:0:0:0:
191,165,16687,1,8,0:0:0:0:
191,165,16760,1,0,0:0:0:0:
228,170,16906,1,8,0:0:0:0:
228,170,17052,1,0,0:0:0:0:
228,170,17199,1,8,0:0:0:0:
228,170,17345,1,0,0:0:0:0:
228,170,17491,1,8,0:0:0:0:
228,170,17638,1,0,0:0:0:0:
228,170,17784,1,8,0:0:0:0:
228,170,17857,1,8,0:0:0:0:
199,168,17930,1,0,0:0:0:0:
199,168,18077,1,0,0:0:0:0:
200,176,18369,1,8,0:0:0:0:
199,177,18516,1,0,0:0:0:0:
238,187,18662,1,0,0:0:0:0:
247,188,18735,1,0,0:0:0:0:
247,188,18809,1,8,0:0:0:0:
134,150,18882,1,8,0:0:0:0:
247,184,18955,1,0,0:0:0:0:
238,187,19101,1,4,0:0:0:0:
183,175,19248,1,0,0:0:0:0:
177,179,19394,1,8,0:0:0:0:
228,199,19540,1,0,0:0:0:0:
221,204,19613,1,0,0:0:0:0:
221,204,19687,1,0,0:0:0:0:
221,204,19833,1,0,0:0:0:0:
221,204,19979,1,8,0:0:0:0:
220,195,20126,1,8,0:0:0:0:
196,132,20199,1,8,0:0:0:0:
196,132,20272,1,0,0:0:0:0:
196,132,20418,1,0,0:0:0:0:
196,132,20565,1,8,0:0:0:0:
217,201,20711,1,0,0:0:0:0:
217,201,20784,1,8,0:0:0:0:
217,201,20857,1,0,0:0:0:0:
217,201,21004,1,0,0:0:0:0:
217,201,21077,1,0,0:0:0:0:
217,201,21150,1,8,0:0:0:0:
219,223,21443,1,0,0:0:0:0:
214,214,21662,1,0,0:0:0:0:
210,222,21735,1,8,0:0:0:0:
207,223,21882,1,8,0:0:0:0:
206,223,21955,1,0,0:0:0:0:
207,223,22028,1,8,0:0:0:0:
207,223,22174,1,8,0:0:0:0:
214,214,22321,1,0,0:0:0:0:
214,214,22394,1,0,0:0:0:0:
214,214,22467,1,8,0:0:0:0:
210,214,22613,1,0,0:0:0:0:
209,215,22687,1,0,0:0:0:0:
210,216,22760,1,0,0:0:0:0:
210,216,22906,1,12,0:0:0:0:
182,190,23199,1,0,0:0:0:0:
182,190,23418,1,0,0:0:0:0:
182,190,23491,1,8,0:0:0:0:
182,190,23638,1,8,0:0:0:0:
182,190,23784,1,4,0:0:0:0:
183,166,23930,1,0,0:0:0:0:
182,166,24077,1,8,0:0:0:0:
203,167,24223,1,0,0:0:0:0:
203,168,24296,1,0,0:0:0:0:
203,168,24369,1,0,0:0:0:0:
203,168,24516,1,0,0:0:0:0:
203,168,24662,1,8,0:0:0:0:
201,168,24809,1,8,0:0:0:0:
202,116,24882,1,8,0:0:0:0:
202,116,24955,1,0,0:0:0:0:
202,116,25101,1,0,0:0:0:0:
202,116,25248,1,8,0:0:0:0:
195,126,25394,1,0,0:0:0:0:
195,127,25467,1,8,0:0:0:0:
195,127,25540,1,0,0:0:0:0:
196,128,25687,1,0,0:0:0:0:
206,124,25760,1,0,0:0:0:0:
206,124,25833,1,8,0:0:0:0:
201,122,25979,1,8,0:0:0:0:
201,122,26052,1,8,0:0:0:0:
201,122,26126,1,0,0:0:0:0:
180,168,26418,1,0,0:0:0:0:
180,168,26491,1,8,0:0:0:0:
180,168,26565,1,8,0:0:0:0:
180,168,26711,1,8,0:0:0:0:
182,159,26857,1,0,0:0:0:0:
181,135,27004,1,8,0:0:0:0:
181,135,27077,1,0,0:0:0:0:
181,135,27150,1,8,0:0:0:0:
167,143,27296,1,0,0:0:0:0:
167,145,27443,1,8,0:0:0:0:
167,145,27589,1,0,0:0:0:0:
167,145,27735,1,8,0:0:0:0:
165,144,27882,1,8,0:0:0:0:
165,144,27955,1,8,0:0:0:0:
167,143,28028,1,0,0:0:0:0:
167,145,28174,1,12,0:0:0:0:
294,158,28467,1,4,0:0:0:0:
164,189,28760,1,8,0:0:0:0:
204,164,28906,1,0,0:0:0:0:
204,164,28979,1,0,0:0:0:0:
204,164,29052,1,0,0:0:0:0:
204,164,29199,1,0,0:0:0:0:
204,164,29345,1,8,0:0:0:0:
183,86,29491,1,0,0:0:0:0:
160,106,29565,1,8,0:0:0:0:
179,136,29638,1,0,0:0:0:0:
179,136,29784,1,0,0:0:0:0:
179,136,29930,1,8,0:0:0:0:
179,136,30077,1,8,0:0:0:0:
179,136,30150,1,8,0:0:0:0:
179,136,30223,1,8,0:0:0:0:
179,136,30369,1,0,0:0:0:0:
179,136,30516,1,8,0:0:0:0:
179,136,30662,1,8,0:0:0:0:
179,136,30735,1,8,0:0:0:0:
231,173,30809,1,0,0:0:0:0:
231,173,31028,1,0,0:0:0:0:
231,173,31248,1,0,0:0:0:0:
231,173,31467,1,0,0:0:0:0:
224,128,31687,1,8,0:0:0:0:
224,128,31760,1,8,0:0:0:0:
224,128,31833,1,8,0:0:0:0:
224,128,31906,1,8,0:0:0:0:
224,128,31979,1,0,0:0:0:0:
256,192,32126,12,0,32857,0:0:0:0:
170,169,33150,5,4,0:0:0:0:
170,169,33296,1,0,0:0:0:0:
170,169,33443,1,8,0:0:0:0:
170,169,33516,1,8,0:0:0:0:
170,169,33589,1,8,0:0:0:0:
170,169,33735,1,0,0:0:0:0:
170,169,33882,1,0,0:0:0:0:
161,168,34028,1,8,0:0:0:0:
184,130,34101,5,8,0:0:0:0:
184,130,34174,1,0,0:0:0:0:
184,130,34321,1,8,0:0:0:0:
185,116,34467,1,0,0:0:0:0:
185,116,34613,1,8,0:0:0:0:
185,116,34760,1,0,0:0:0:0:
185,116,34906,1,0,0:0:0:0:
185,116,34979,1,0,0:0:0:0:
185,116,35052,1,0,0:0:0:0:
185,116,35126,1,0,0:0:0:0:
185,116,35199,1,8,0:0:0:0:
164,203,35491,1,4,0:0:0:0:
189,186,35638,1,8,0:0:0:0:
189,186,35784,1,0,0:0:0:0:
189,186,35930,1,0,0:0:0:0:
189,186,36077,1,8,0:0:0:0:
163,137,36369,1,8,0:0:0:0:
162,142,36516,1,0,0:0:0:0:
160,150,36809,1,8,0:0:0:0:
160,150,36955,1,0,0:0:0:0:
160,150,37101,1,0,0:0:0:0:
160,150,37174,1,0,0:0:0:0:
160,150,37248,1,8,0:0:0:0:
142,156,37394,1,0,0:0:0:0:
139,160,37540,1,8,0:0:0:0:
139,160,37687,1,8,0:0:0:0:
149,155,37833,1,0,0:0:0:0:
148,155,37979,1,8,0:0:0:0:
148,155,38126,1,0,0:0:0:0:
148,155,38272,1,0,0:0:0:0:
148,155,38418,1,8,0:0:0:0:
138,172,38711,1,8,0:0:0:0:
138,172,38857,1,0,0:0:0:0:
157,192,39150,1,8,0:0:0:0:
157,192,39296,1,0,0:0:0:0:
107,157,39443,1,8,0:0:0:0:
203,126,39516,1,8,0:0:0:0:
114,157,39589,1,8,0:0:0:0:
114,157,39735,1,0,0:0:0:0:
114,157,39882,1,12,0:0:0:0:
124,135,40174,1,4,0:0:0:0:
154,133,40321,1,8,0:0:0:0:
154,133,40467,1,0,0:0:0:0:
154,133,40613,1,0,0:0:0:0:
154,133,40760,1,8,0:0:0:0:
154,133,41052,1,8,0:0:0:0:
154,133,41199,1,0,0:0:0:0:
154,133,41491,1,8,0:0:0:0:
148,76,41638,1,0,0:0:0:0:
148,76,41784,1,0,0:0:0:0:
148,76,41857,1,0,0:0:0:0:
148,76,41930,1,8,0:0:0:0:
170,84,42077,1,0,0:0:0:0:
170,80,42223,1,8,0:0:0:0:
170,80,42369,1,8,0:0:0:0:
167,67,42516,1,0,0:0:0:0:
167,67,42589,1,8,0:0:0:0:
167,67,42662,1,8,0:0:0:0:
167,67,42809,1,8,0:0:0:0:
170,80,42955,1,0,0:0:0:0:
170,80,43101,1,8,0:0:0:0:
170,80,43174,1,0,0:0:0:0:
171,77,43248,1,8,0:0:0:0:
169,75,43394,1,8,0:0:0:0:
256,192,43687,12,0,44565,0:0:0:0:
159,175,44857,5,4,0:0:0:0:
200,179,45443,1,0,0:0:0:0:
212,168,45638,1,8,0:0:0:0:
212,168,45735,1,8,0:0:0:0:
210,167,46028,1,0,0:0:0:0:
212,168,46321,1,0,0:0:0:0:
212,168,46516,1,8,0:0:0:0:
210,167,46613,1,0,0:0:0:0:
219,164,47199,1,12,0:0:0:0:
227,147,47491,1,0,0:0:0:0:
224,151,47638,1,0,0:0:0:0:
224,151,47784,1,8,0:0:0:0:
253,135,47930,1,0,0:0:0:0:
207,145,48077,1,8,0:0:0:0:
207,145,48150,1,8,0:0:0:0:
207,145,48223,1,8,0:0:0:0:
207,145,48369,1,0,0:0:0:0:
314,199,48662,1,0,0:0:0:0:
314,199,48809,1,0,0:0:0:0:
314,199,48955,1,8,0:0:0:0:
242,135,49101,1,0,0:0:0:0:
314,199,49248,1,8,0:0:0:0:
314,199,49321,1,8,0:0:0:0:
314,199,49394,1,8,0:0:0:0:
314,199,49467,1,8,0:0:0:0:
314,199,49540,1,0,0:0:0:0:
225,132,49833,1,0,0:0:0:0:
225,132,49979,1,0,0:0:0:0:
225,132,50126,1,8,0:0:0:0:
225,132,50272,1,0,0:0:0:0:
219,136,50418,1,8,0:0:0:0:
219,136,50491,1,8,0:0:0:0:
219,136,50565,1,8,0:0:0:0:
219,136,50711,1,0,0:0:0:0:
196,124,50857,1,8,0:0:0:0:
196,124,50930,1,0,0:0:0:0:
196,124,51004,1,8,0:0:0:0:
196,124,51150,1,8,0:0:0:0:
196,124,51296,1,0,0:0:0:0:
196,124,51443,1,0,0:0:0:0:
196,124,51589,1,8,0:0:0:0:
199,109,51882,1,4,0:0:0:0:
173,118,52174,1,8,0:0:0:0:
178,165,52321,1,0,0:0:0:0:
178,165,52394,1,0,0:0:0:0:
173,118,52467,1,0,0:0:0:0:
173,118,52613,1,0,0:0:0:0:
173,118,52760,1,8,0:0:0:0:
173,118,53052,1,0,0:0:0:0:
178,116,53199,1,0,0:0:0:0:
178,116,53345,1,8,0:0:0:0:
178,116,53491,1,0,0:0:0:0:
177,84,53638,1,0,0:0:0:0:
178,116,53711,1,8,0:0:0:0:
178,115,53784,1,0,0:0:0:0:
178,116,53930,1,8,0:0:0:0:
210,172,54223,1,0,0:0:0:0:
224,173,54443,1,0,0:0:0:0:
224,172,54516,1,8,0:0:0:0:
220,167,54662,1,0,0:0:0:0:
220,168,54882,1,0,0:0:0:0:
220,168,55101,1,8,0:0:0:0:
220,167,55174,1,8,0:0:0:0:
220,167,55248,1,8,0:0:0:0:
220,167,55321,1,8,0:0:0:0:
220,167,55394,1,0,0:0:0:0:
220,163,55540,1,8,0:0:0:0:
220,163,55687,1,0,0:0:0:0:
220,163,55833,1,8,0:0:0:0:
214,157,55979,1,0,0:0:0:0:
214,157,56126,1,0,0:0:0:0:
214,157,56199,1,0,0:0:0:0:
214,157,56272,1,8,0:0:0:0:
222,156,56565,1,4,0:0:0:0:
221,156,56857,1,8,0:0:0:0:
221,155,57004,1,0,0:0:0:0:
221,155,57077,1,0,0:0:0:0:
222,156,57150,1,0,0:0:0:0:
222,156,57296,1,0,0:0:0:0:
221,156,57443,1,8,0:0:0:0:
225,123,57589,1,0,0:0:0:0:
225,123,57662,1,0,0:0:0:0:
215,151,57735,1,8,0:0:0:0:
215,151,57882,1,0,0:0:0:0:
215,151,58028,1,8,0:0:0:0:
215,151,58174,1,0,0:0:0:0:
215,150,58248,1,8,0:0:0:0:
216,151,58321,1,0,0:0:0:0:
215,151,58467,1,0,0:0:0:0:
204,113,58613,1,8,0:0:0:0:
186,95,58760,1,0,0:0:0:0:
220,135,58906,1,0,0:0:0:0:
220,135,59199,1,8,0:0:0:0:
220,135,59345,1,0,0:0:0:0:
220,135,59418,1,0,0:0:0:0:
220,135,59491,1,0,0:0:0:0:
220,135,59638,1,0,0:0:0:0:
220,135,59784,1,8,0:0:0:0:
204,85,59930,1,0,0:0:0:0:
204,85,60004,1,0,0:0:0:0:
203,102,60077,1,8,0:0:0:0:
208,115,60223,1,0,0:0:0:0:
205,113,60369,1,8,0:0:0:0:
205,113,60516,1,8,0:0:0:0:
205,113,60662,1,4,0:0:0:0:
215,175,60955,1,8,0:0:0:0:
197,134,61028,1,8,0:0:0:0:
198,132,61101,1,8,0:0:0:0:
198,133,61174,1,8,0:0:0:0:
198,132,61248,1,0,0:0:0:0:
191,148,61394,1,0,0:0:0:0:
191,147,61540,1,8,0:0:0:0:
190,144,61687,1,8,0:0:0:0:
189,119,61833,1,0,0:0:0:0:
189,121,61979,1,8,0:0:0:0:
189,121,62052,1,8,0:0:0:0:
189,120,62126,1,0,0:0:0:0:
189,120,62272,1,8,0:0:0:0:
225,177,62418,1,0,0:0:0:0:
225,177,62565,1,8,0:0:0:0:
225,177,62638,1,8,0:0:0:0:
225,177,62711,1,0,0:0:0:0:
225,177,62857,1,8,0:0:0:0:
179,131,63004,1,0,0:0:0:0:
180,130,63077,1,0,0:0:0:0:
179,131,63150,1,8,0:0:0:0:
179,131,63296,1,8,0:0:0:0:
224,140,63589,1,0,0:0:0:0:
224,140,63735,1,0,0:0:0:0:
224,140,63809,1,0,0:0:0:0:
224,140,63882,1,8,0:0:0:0:
258,134,64028,1,0,0:0:0:0:
255,138,64101,1,0,0:0:0:0:
255,138,64174,1,8,0:0:0:0:
255,138,64248,1,8,0:0:0:0:
258,134,64321,1,0,0:0:0:0:
258,134,64467,1,8,0:0:0:0:
258,134,64540,1,8,0:0:0:0:
258,134,64613,1,8,0:0:0:0:
258,134,64687,1,8,0:0:0:0:
258,134,64760,1,0,0:0:0:0:
256,192,64906,12,0,65638,0:0:0:0:
231,163,65930,5,4,0:0:0:0:
212,174,66369,1,0,0:0:0:0:
212,174,66809,1,0,0:0:0:0:
219,171,67248,1,8,0:0:0:0:
219,171,67394,1,8,0:0:0:0:
219,171,67540,1,8,0:0:0:0:
219,171,67687,1,0,0:0:0:0:
219,171,68272,1,8,0:0:0:0:
219,171,68711,1,8,0:0:0:0:
219,171,69150,1,8,0:0:0:0:
219,171,69443,1,0,0:0:0:0:
219,171,69735,1,0,0:0:0:0:
219,171,70028,1,8,0:0:0:0:
162,154,70174,1,0,0:0:0:0:
219,171,70321,1,8,0:0:0:0:
198,157,70613,1,4,0:0:0:0:
198,157,70906,1,8,0:0:0:0:
198,157,71052,1,0,0:0:0:0:
198,157,71345,1,0,0:0:0:0:
198,157,71491,1,8,0:0:0:0:
190,145,71930,1,0,0:0:0:0:
190,145,72077,1,8,0:0:0:0:
190,145,72223,1,0,0:0:0:0:
190,145,72369,1,0,0:0:0:0:
190,145,72516,1,0,0:0:0:0:
190,145,72662,1,8,0:0:0:0:
185,127,72955,1,0,0:0:0:0:
185,127,73248,1,8,0:0:0:0:
185,127,73394,1,0,0:0:0:0:
185,127,73687,1,0,0:0:0:0:
185,127,73833,1,8,0:0:0:0:
125,152,74126,1,4,0:0:0:0:
170,145,74418,1,8,0:0:0:0:
198,143,74565,1,0,0:0:0:0:
198,143,74711,1,8,0:0:0:0:
198,143,74784,1,8,0:0:0:0:
198,143,74857,1,0,0:0:0:0:
198,143,75004,1,12,0:0:0:0:
185,129,75296,1,4,0:0:0:0:
185,129,75735,1,4,0:0:0:0:
185,129,76174,1,4,0:0:0:0:
202,133,76467,1,8,0:0:0:0:
202,133,76613,1,8,0:0:0:0:
207,128,76760,1,0,0:0:0:0:
207,128,76906,1,8,0:0:0:0:
206,127,77052,1,8,0:0:0:0:
206,127,77199,1,0,0:0:0:0:
205,127,77345,1,12,0:0:0:0:
150,168,77638,1,4,0:0:0:0:
159,166,78077,1,4,0:0:0:0:
159,166,78369,1,4,0:0:0:0:
159,166,78516,1,4,0:0:0:0:
207,183,78809,1,0,0:0:0:0:
207,183,78955,1,8,0:0:0:0:
207,183,79101,1,8,0:0:0:0:
207,183,79248,1,0,0:0:0:0:
207,183,79394,1,0,0:0:0:0:
207,183,79540,1,8,0:0:0:0:
207,183,79687,1,12,0:0:0:0:
207,183,79979,1,4,0:0:0:0:
207,183,80272,1,8,0:0:0:0:
207,183,80418,1,0,0:0:0:0:
207,183,80565,1,8,0:0:0:0:
207,183,80711,1,8,0:0:0:0:
278,136,80857,1,0,0:0:0:0:
278,136,80955,1,0,0:0:0:0:
278,136,81052,1,0,0:0:0:0:
278,136,81150,1,8,0:0:0:0:
278,136,81443,1,8,0:0:0:0:
266,126,81589,1,8,0:0:0:0:
266,126,81735,1,0,0:0:0:0:
226,154,81882,1,0,0:0:0:0:
267,126,82028,1,12,0:0:0:0:
166,148,82321,1,4,0:0:0:0:
166,148,82760,1,4,0:0:0:0:
166,148,83199,1,12,0:0:0:0:
148,135,83491,1,0,0:0:0:0:
221,125,83784,1,0,0:0:0:0:
221,125,84077,1,8,0:0:0:0:
221,125,84369,1,8,0:0:0:0:
198,168,84662,1,0,0:0:0:0:
198,168,84760,1,0,0:0:0:0:
198,168,84857,1,0,0:0:0:0:
198,168,84955,1,0,0:0:0:0:
187,160,85150,1,0,0:0:0:0:
187,160,85248,1,0,0:0:0:0:
187,160,85345,1,0,0:0:0:0:
187,160,85443,1,0,0:0:0:0:
187,160,85540,1,8,0:0:0:0:
187,160,85833,1,8,0:0:0:0:
187,160,85930,1,8,0:0:0:0:
187,160,86028,1,8,0:0:0:0:
187,160,86126,1,8,0:0:0:0:
187,160,86321,1,8,0:0:0:0:
187,160,86418,1,8,0:0:0:0:
187,160,86516,1,8,0:0:0:0:
187,160,86613,1,8,0:0:0:0:
187,160,86711,1,0,0:0:0:0:
185,152,87004,1,0,0:0:0:0:
185,152,87101,1,0,0:0:0:0:
185,152,87199,1,0,0:0:0:0:
185,152,87296,1,0,0:0:0:0:
171,136,87491,1,0,0:0:0:0:
185,152,87589,1,0,0:0:0:0:
185,152,87687,1,0,0:0:0:0:
185,152,87784,1,0,0:0:0:0:
185,152,87882,1,8,0:0:0:0:
157,165,88174,1,8,0:0:0:0:
157,165,88272,1,8,0:0:0:0:
157,165,88369,1,8,0:0:0:0:
124,149,88467,1,8,0:0:0:0:
124,149,88662,1,8,0:0:0:0:
124,149,88760,1,8,0:0:0:0:
124,149,88857,1,0,0:0:0:0:
124,149,88955,1,0,0:0:0:0:
124,149,89052,1,8,0:0:0:0:
238,173,89345,1,0,0:0:0:0:
175,168,89540,1,0,0:0:0:0:
238,173,89638,1,8,0:0:0:0:
232,173,89930,1,0,0:0:0:0:
232,173,90126,1,0,0:0:0:0:
232,173,90223,1,8,0:0:0:0:
224,168,90418,1,0,0:0:0:0:
224,168,90516,1,0,0:0:0:0:
210,142,90711,1,0,0:0:0:0:
210,142,90809,1,8,0:0:0:0:
210,142,91004,1,8,0:0:0:0:
210,142,91101,1,0,0:0:0:0:
210,142,91199,1,0,0:0:0:0:
210,142,91296,1,0,0:0:0:0:
210,142,91394,1,8,0:0:0:0:
210,142,91491,1,8,0:0:0:0:
210,142,91589,1,8,0:0:0:0:
210,142,91687,1,0,0:0:0:0:
256,192,91833,12,0,92565,0:0:0:0:
254,165,92857,5,0,0:0:0:0:
254,165,92930,1,0,0:0:0:0:
254,165,93004,1,0,0:0:0:0:
116,114,93077,1,0,0:0:0:0:
254,165,93150,1,8,0:0:0:0:
248,162,93296,1,0,0:0:0:0:
248,162,93369,1,0,0:0:0:0:
248,161,93443,1,8,0:0:0:0:
247,161,93589,1,0,0:0:0:0:
212,167,93735,5,12,0:0:0:0:
208,115,94028,1,4,0:0:0:0:
208,98,94174,5,0,0:0:0:0:
208,98,94321,1,8,0:0:0:0:
208,98,94467,1,0,0:0:0:0:
198,94,94760,1,0,0:0:0:0:
198,94,94906,1,8,0:0:0:0:
198,98,95052,1,0,0:0:0:0:
198,98,95126,1,0,0:0:0:0:
198,97,95199,1,0,0:0:0:0:
198,94,95345,1,0,0:0:0:0:
171,71,95491,1,8,0:0:0:0:
249,153,95638,1,0,0:0:0:0:
249,153,95784,1,0,0:0:0:0:
249,153,95857,1,8,0:0:0:0:
249,153,95930,1,0,0:0:0:0:
249,153,96077,1,8,0:0:0:0:
179,117,96223,1,8,0:0:0:0:
179,117,96296,1,8,0:0:0:0:
179,117,96369,1,0,0:0:0:0:
179,117,96516,1,0,0:0:0:0:
179,117,96662,1,8,0:0:0:0:
179,117,96809,1,8,0:0:0:0:
217,165,97101,1,0,0:0:0:0:
217,165,97248,1,8,0:0:0:0:
217,165,97394,1,0,0:0:0:0:
217,165,97467,1,0,0:0:0:0:
217,165,97540,1,0,0:0:0:0:
213,161,97687,1,0,0:0:0:0:
213,161,97833,1,8,0:0:0:0:
174,144,97979,1,8,0:0:0:0:
174,144,98126,1,0,0:0:0:0:
174,144,98199,1,0,0:0:0:0:
174,144,98272,1,8,0:0:0:0:
174,144,98418,1,8,0:0:0:0:
159,137,98711,1,4,0:0:0:0:
159,137,98857,1,0,0:0:0:0:
159,136,99004,1,8,0:0:0:0:
159,136,99150,1,0,0:0:0:0:
246,165,99443,1,0,0:0:0:0:
246,165,99589,1,8,0:0:0:0:
246,165,99735,1,0,0:0:0:0:
246,165,99809,1,0,0:0:0:0:
246,165,99882,1,0,0:0:0:0:
246,165,100028,1,0,0:0:0:0:
246,165,100174,1,8,0:0:0:0:
246,165,100321,1,0,0:0:0:0:
246,165,100467,1,0,0:0:0:0:
246,165,100540,1,8,0:0:0:0:
246,165,100613,1,0,0:0:0:0:
246,165,100760,1,8,0:0:0:0:
230,151,100906,1,8,0:0:0:0:
230,151,100979,1,8,0:0:0:0:
167,116,101052,5,0,0:0:0:0:
167,116,101199,1,8,0:0:0:0:
167,116,101345,1,8,0:0:0:0:
167,116,101491,1,0,0:0:0:0:
167,116,101565,1,8,0:0:0:0:
167,116,101638,1,8,0:0:0:0:
167,116,101784,1,8,0:0:0:0:
165,108,101930,1,0,0:0:0:0:
165,108,102004,1,0,0:0:0:0:
165,108,102077,1,8,0:0:0:0:
165,108,102150,1,8,0:0:0:0:
149,89,102223,1,0,0:0:0:0:
153,100,102369,1,0,0:0:0:0:
153,100,102516,1,8,0:0:0:0:
153,99,102662,1,0,0:0:0:0:
153,99,102809,1,8,0:0:0:0:
193,89,103101,1,8,0:0:0:0:
193,89,103174,1,8,0:0:0:0:
193,89,103248,1,8,0:0:0:0:
193,89,103321,1,8,0:0:0:0:
193,89,103394,1,0,0:0:0:0:
193,89,103540,1,0,0:0:0:0:
193,89,103687,1,8,0:0:0:0:
193,89,103833,1,0,0:0:0:0:
193,89,104126,1,0,0:0:0:0:
184,87,104418,1,8,0:0:0:0:
253,212,104565,1,0,0:0:0:0:
204,122,104711,1,8,0:0:0:0:
178,84,104784,1,8,0:0:0:0:
204,122,104857,1,8,0:0:0:0:
199,118,105004,1,0,0:0:0:0:
159,86,105077,5,0,0:0:0:0:
200,117,105150,1,8,0:0:0:0:
200,117,105296,1,0,0:0:0:0:
197,116,105443,1,8,0:0:0:0:
83,139,105516,1,8,0:0:0:0:
204,145,105589,1,0,0:0:0:0:
204,145,105662,1,0,0:0:0:0:
199,118,105735,1,0,0:0:0:0:
200,117,105882,1,8,0:0:0:0:
219,105,106028,1,0,0:0:0:0:
194,129,106174,1,8,0:0:0:0:
205,136,106248,1,8,0:0:0:0:
210,128,106321,1,0,0:0:0:0:
211,126,106467,1,8,0:0:0:0:
209,124,106613,1,0,0:0:0:0:
210,123,106760,1,8,0:0:0:0:
209,112,106833,1,8,0:0:0:0:
219,105,106906,1,0,0:0:0:0:
210,128,107052,1,8,0:0:0:0:
219,105,107199,1,0,0:0:0:0:
211,126,107345,1,8,0:0:0:0:
217,115,107418,1,8,0:0:0:0:
219,105,107491,1,0,0:0:0:0:
208,121,107638,1,8,0:0:0:0:
219,105,107784,1,0,0:0:0:0:
126,133,107857,1,0,0:0:0:0:
184,127,107930,1,8,0:0:0:0:
184,126,108004,1,8,0:0:0:0:
172,157,108077,1,0,0:0:0:0:
172,157,108223,1,0,0:0:0:0:
172,157,108369,1,8,0:0:0:0:
172,157,108516,1,0,0:0:0:0:
132,134,108809,1,0,0:0:0:0:
132,134,108955,1,8,0:0:0:0:
114,130,109101,1,0,0:0:0:0:
114,130,109248,1,0,0:0:0:0:
114,130,109321,1,8,0:0:0:0:
114,130,109394,1,0,0:0:0:0:
113,130,109467,1,0,0:0:0:0:
113,130,109540,1,8,0:0:0:0:
113,130,109687,1,8,0:0:0:0:
123,128,109979,1,0,0:0:0:0:
123,128,110126,1,8,0:0:0:0:
139,142,110272,1,8,0:0:0:0:
139,142,110345,1,8,0:0:0:0:
186,138,110418,1,0,0:0:0:0:
186,138,110565,1,8,0:0:0:0:
186,138,110711,1,8,0:0:0:0:
186,138,110857,1,0,0:0:0:0:
186,138,110930,1,8,0:0:0:0:
186,138,111004,1,8,0:0:0:0:
186,138,111150,1,8,0:0:0:0:
182,154,111296,1,0,0:0:0:0:
183,153,111369,1,0,0:0:0:0:
183,153,111443,1,8,0:0:0:0:
183,153,111516,1,8,0:0:0:0:
183,153,111589,1,0,0:0:0:0:
183,153,111735,1,0,0:0:0:0:
183,144,111882,1,8,0:0:0:0:
183,144,112028,1,0,0:0:0:0:
183,144,112174,1,0,0:0:0:0:
183,144,112321,1,8,0:0:0:0:
183,144,112467,1,12,0:0:0:0:
169,133,112760,1,4,0:0:0:0:
96,142,112906,1,0,0:0:0:0:
169,133,113052,1,8,0:0:0:0:
168,132,113199,1,0,0:0:0:0:
169,133,113491,1,0,0:0:0:0:
164,134,113638,1,8,0:0:0:0:
160,139,113784,1,0,0:0:0:0:
160,139,113857,1,0,0:0:0:0:
160,138,113930,1,0,0:0:0:0:
160,138,114077,1,0,0:0:0:0:
161,137,114223,1,8,0:0:0:0:
175,124,114369,1,0,0:0:0:0:
175,125,114443,1,8,0:0:0:0:
174,120,114516,1,0,0:0:0:0:
175,119,114662,1,0,0:0:0:0:
175,118,114735,1,0,0:0:0:0:
175,118,114809,1,8,0:0:0:0:
221,100,114955,1,8,0:0:0:0:
221,100,115028,1,8,0:0:0:0:
157,153,115101,1,0,0:0:0:0:
153,69,115248,1,0,0:0:0:0:
167,149,115394,1,8,0:0:0:0:
167,149,115540,1,0,0:0:0:0:
168,146,115833,1,0,0:0:0:0:
167,149,115979,1,8,0:0:0:0:
167,149,116126,1,0,0:0:0:0:
187,107,116199,1,0,0:0:0:0:
187,107,116272,1,0,0:0:0:0:
187,107,116418,1,0,0:0:0:0:
177,116,116565,1,8,0:0:0:0:
178,112,116711,1,0,0:0:0:0:
178,112,116784,1,8,0:0:0:0:
178,112,116857,1,0,0:0:0:0:
178,112,117004,1,0,0:0:0:0:
178,112,117150,1,8,0:0:0:0:
177,116,117296,1,8,0:0:0:0:
177,116,117369,1,8,0:0:0:0:
178,112,117443,1,0,0:0:0:0:
163,132,117589,1,0,0:0:0:0:
87,175,117735,1,8,0:0:0:0:
205,117,117882,1,0,0:0:0:0:
205,117,118174,1,0,0:0:0:0:
205,117,118321,1,8,0:0:0:0:
193,168,118467,1,0,0:0:0:0:
193,168,118540,1,0,0:0:0:0:
193,168,118613,1,0,0:0:0:0:
193,168,118760,1,0,0:0:0:0:
184,133,118906,1,8,0:0:0:0:
173,124,119052,1,0,0:0:0:0:
179,162,119199,1,0,0:0:0:0:
173,124,119272,1,8,0:0:0:0:
179,161,119345,1,0,0:0:0:0:
180,161,119491,1,8,0:0:0:0:
179,162,119638,1,8,0:0:0:0:
179,162,119711,1,8,0:0:0:0:
178,110,119784,5,0,0:0:0:0:
178,110,119930,1,0,0:0:0:0:
178,110,120077,1,8,0:0:0:0:
178,110,120150,1,8,0:0:0:0:
178,110,120223,1,8,0:0:0:0:
178,110,120296,1,8,0:0:0:0:
178,110,120369,1,0,0:0:0:0:
178,110,120516,1,0,0:0:0:0:
178,110,120662,1,8,0:0:0:0:
178,110,120735,1,8,0:0:0:0:
178,110,120809,1,0,0:0:0:0:
178,110,120955,1,0,0:0:0:0:
178,110,121174,1,0,0:0:0:0:
178,110,121248,1,8,0:0:0:0:
178,110,121394,1,0,0:0:0:0:
178,110,121613,1,0,0:0:0:0:
178,110,121833,1,0,0:0:0:0:
166,100,122126,1,8,0:0:0:0:
166,100,122272,1,0,0:0:0:0:
166,100,122418,1,8,0:0:0:0:
166,100,122565,1,8,0:0:0:0:
166,100,122711,1,0,0:0:0:0:
166,100,122857,1,0,0:0:0:0:
166,100,123004,1,12,0:0:0:0:
176,167,123296,1,4,0:0:0:0:
176,167,123443,1,0,0:0:0:0:
176,167,123589,1,8,0:0:0:0:
176,167,123735,1,8,0:0:0:0:
214,156,124028,1,0,0:0:0:0:
214,156,124174,1,8,0:0:0:0:
214,156,124321,1,8,0:0:0:0:
204,103,124394,1,8,0:0:0:0:
204,103,124467,1,0,0:0:0:0:
204,103,124613,1,0,0:0:0:0:
204,103,124760,1,8,0:0:0:0:
204,103,124906,1,0,0:0:0:0:
186,142,125199,1,0,0:0:0:0:
186,142,125345,1,8,0:0:0:0:
217,126,125491,1,0,0:0:0:0:
217,126,125565,1,0,0:0:0:0:
228,132,125638,1,0,0:0:0:0:
228,132,125784,1,0,0:0:0:0:
228,132,125930,1,8,0:0:0:0:
228,132,126077,1,0,0:0:0:0:
228,132,126223,1,8,0:0:0:0:
228,132,126296,1,8,0:0:0:0:
228,132,126369,1,0,0:0:0:0:
228,132,126516,1,8,0:0:0:0:
228,132,126589,1,8,0:0:0:0:
228,132,126662,1,8,0:0:0:0:
228,132,126735,1,8,0:0:0:0:
228,132,126809,1,0,0:0:0:0:
222,124,126955,1,0,0:0:0:0:
222,123,127101,1,8,0:0:0:0:
221,122,127248,1,0,0:0:0:0:
184,141,127540,1,0,0:0:0:0:
184,141,127687,1,8,0:0:0:0:
139,153,127833,1,8,0:0:0:0:
139,153,127906,1,8,0:0:0:0:
139,153,127979,1,0,0:0:0:0:
139,153,128199,1,0,0:0:0:0:
134,147,128272,1,8,0:0:0:0:
139,153,128418,1,0,0:0:0:0:
139,153,128638,1,0,0:0:0:0:
127,144,128857,1,8,0:0:0:0:
127,144,129004,1,0,0:0:0:0:
127,144,129077,1,0,0:0:0:0:
127,144,129150,1,0,0:0:0:0:
152,150,129296,1,0,0:0:0:0:
157,148,129443,1,8,0:0:0:0:
157,147,129589,1,0,0:0:0:0:
242,121,129735,1,8,0:0:0:0:
242,121,129809,1,8,0:0:0:0:
242,121,129882,1,0,0:0:0:0:
242,121,129955,1,0,0:0:0:0:
242,121,130028,1,8,0:0:0:0:
242,121,130101,1,8,0:0:0:0:
242,121,130174,1,8,0:0:0:0:
242,121,130248,1,8,0:0:0:0:
242,121,130321,1,0,0:0:0:0:
122,118,130613,1,8,0:0:0:0:
134,117,130906,1,0,0:0:0:0:
134,117,130979,1,0,0:0:0:0:
134,117,131052,1,0,0:0:0:0:
211,109,131199,1,12,0:0:0:0:
149,155,131491,1,4,0:0:0:0:
149,155,131638,1,0,0:0:0:0:
149,155,131784,1,8,0:0:0:0:
254,121,131930,1,0,0:0:0:0:
254,121,132077,1,0,0:0:0:0:
177,83,132369,1,8,0:0:0:0:
177,83,132662,1,0,0:0:0:0:
177,83,132809,1,0,0:0:0:0:
177,83,132955,1,8,0:0:0:0:
254,191,133248,1,0,0:0:0:0:
254,191,133394,1,0,0:0:0:0:
254,191,133467,1,0,0:0:0:0:
254,191,133540,1,8,0:0:0:0:
236,180,133687,1,0,0:0:0:0:
236,179,133833,1,0,0:0:0:0:
236,179,133979,1,0,0:0:0:0:
236,179,134126,1,8,0:0:0:0:
247,179,134272,1,8,0:0:0:0:
247,178,134345,1,8,0:0:0:0:
247,177,134418,1,0,0:0:0:0:
247,177,134491,1,0,0:0:0:0:
246,176,134565,1,0,0:0:0:0:
246,176,134711,1,8,0:0:0:0:
180,162,134857,1,0,0:0:0:0:
185,162,135004,1,4,0:0:0:0:
257,159,135199,1,0,0:0:0:0:
256,159,135296,1,8,0:0:0:0:
255,157,135491,1,0,0:0:0:0:
257,159,135589,1,0,0:0:0:0:
257,159,135687,1,0,0:0:0:0:
257,159,135784,1,0,0:0:0:0:
257,159,135882,1,8,0:0:0:0:
223,120,136174,1,0,0:0:0:0:
223,120,136321,1,8,0:0:0:0:
223,120,136467,1,8,0:0:0:0:
223,120,136613,1,0,0:0:0:0:
168,169,136687,1,0,0:0:0:0:
223,120,136760,1,8,0:0:0:0:
223,120,136906,1,8,0:0:0:0:
202,124,137052,1,8,0:0:0:0:
202,124,137126,1,8,0:0:0:0:
202,123,137199,1,0,0:0:0:0:
202,123,137345,1,0,0:0:0:0:
191,124,137418,1,0,0:0:0:0:
202,123,137491,1,8,0:0:0:0:
202,123,137638,1,8,0:0:0:0:
202,124,137784,1,0,0:0:0:0:
202,124,137857,1,0,0:0:0:0:
202,124,137930,1,8,0:0:0:0:
202,123,138077,1,8,0:0:0:0:
180,116,138223,5,8,0:0:0:0:
180,116,138296,1,8,0:0:0:0:
180,116,138369,1,0,0:0:0:0:
180,116,138516,1,8,0:0:0:0:
201,111,138662,1,0,0:0:0:0:
201,110,138735,1,0,0:0:0:0:
200,110,138809,1,8,0:0:0:0:
200,110,138955,1,0,0:0:0:0:
173,157,139028,1,0,0:0:0:0:
199,109,139101,1,8,0:0:0:0:
201,111,139248,1,0,0:0:0:0:
201,111,139321,1,0,0:0:0:0:
206,115,139394,5,8,0:0:0:0:
206,115,139467,1,8,0:0:0:0:
206,115,139540,1,8,0:0:0:0:
206,115,139613,1,8,0:0:0:0:
206,115,139687,1,0,0:0:0:0:
256,192,139833,12,0,140565,0:0:0:0:
217,156,140857,5,0,0:0:0:0:
