osu file format v14

[General]
AudioFilename: audio.mp3
AudioLeadIn: 0
PreviewTime: 93882
Countdown: 0
SampleSet: Normal
StackLeniency: 0.7
Mode: 1
LetterboxInBreaks: 0
WidescreenStoryboard: 0

[Editor]
Bookmarks: 140857
DistanceSpacing: 0.8
BeatDivisor: 4
GridSize: 8
TimelineZoom: 3.499999

[Metadata]
Title:SAIKYO STRONGER
TitleUnicode:最強STRONGER
Artist:REDALiCE vs. USAO
ArtistUnicode:REDALiCE vs. USAO
Creator:MMzz
Version:Inner Oni
Source:Arcaea
Tags:HARDCORE TANO*C Chromoxx Arrival instrumental electronic video rhythm game
BeatmapID:2391493
BeatmapSetID:1145432

[Difficulty]
HPDrainRate:6
CircleSize:5
OverallDifficulty:7
ApproachRate:5
SliderMultiplier:1.4
SliderTickRate:1

[Events]
//Background and Video events
0,0,"bg.jpg",0,85
//Break Periods
//Storyboard Layer 0 (Background)
//Storyboard Layer 1 (Fail)
//Storyboard Layer 2 (Pass)
//Storyboard Layer 3 (Foreground)
//Storyboard Layer 4 (Overlay)
//Storyboard Sound Samples

[TimingPoints]
370,292.682926829268,4,1,0,100,1,0
84711,-98.7010936081172,4,1,0,100,0,0
84809,-97.4354977005222,4,1,0,100,0,0
84906,-96.2028726177764,4,1,0,100,0,0
85101,-95.0001425002137,4,1,0,100,0,0
85199,-93.8271141594498,4,1,0,100,0,0
85296,-92.6827007739006,4,1,0,100,0,0
85394,-91.565867907079,4,1,0,100,0,0
85491,-90.4764489803304,4,1,0,100,0,0
85784,-89.4118488582107,4,1,0,100,0,0
85882,-88.3720108167341,4,1,0,100,0,0
85979,-87.3560808567884,4,1,0,100,0,0
86077,-86.3639896708668,4,1,0,100,0,0
86272,-85.3934503223603,4,1,0,100,0,0
86369,-84.4444819753253,4,1,0,100,0,0
86467,-83.5163733850021,4,1,0,100,0,0
86565,-82.6084442351697,4,1,0,100,0,0
86662,-81.7207112970711,4,1,0,100,0,0
86857,-80.8512014488535,4,1,0,100,0,0
86955,-80,4,1,0,100,0,0
87052,-79.1665347224421,4,1,0,100,0,0
87150,-78.3502569888429,4,1,0,100,0,0
87248,-77.6114306115005,4,1,0,100,0,0
87443,-76.767769819519,4,1,0,100,0,0
87540,-75.9999696000122,4,1,0,100,0,0
87638,-75.2473757477708,4,1,0,100,0,0
87735,-74.5095409467182,4,1,0,100,0,0
87833,-73.7865796968847,4,1,0,100,0,0
88028,-73.0769792899841,4,1,0,100,0,0
88126,-72.3808972336021,4,1,0,100,0,0
88223,-71.6979508725641,4,1,0,100,0,0
88321,-71.0282763568177,4,1,0,100,0,0
88418,-70.3705006861124,4,1,0,100,0,0
88516,-69.724796229283,4,1,0,100,0,0
88711,-69.0908337190905,4,1,0,100,0,0
88809,-68.4682957556503,4,1,0,100,0,0
88906,-67.8573367352478,4,1,0,100,0,0
89004,-67.2567323989131,4,1,0,100,0,0
89296,-66.6666666666667,4,1,0,100,0,0
91979,-100,4,1,0,100,0,0
94028,-100,4,1,0,100,0,1
103394,-100,4,1,0,100,0,0
105735,-100,4,1,0,100,0,1
122126,-100,4,1,0,100,0,0
123296,-100,4,1,0,100,0,1
131491,-100,4,1,0,100,0,0

[HitObjects]
178,145,370,5,12,0:0:0:0:
236,134,662,1,0,0:0:0:0:
243,132,809,1,8,0:0:0:0:
243,132,1101,1,0,0:0:0:0:
243,132,1248,1,8,0:0:0:0:
243,132,1687,1,8,0:0:0:0:
243,132,1833,1,8,0:0:0:0:
243,132,1979,1,0,0:0:0:0:
243,132,2126,1,8,0:0:0:0:
234,123,2272,1,8,0:0:0:0:
234,123,2418,1,0,0:0:0:0:
225,113,2711,1,8,0:0:0:0:
225,113,3004,1,0,0:0:0:0:
225,113,3150,1,8,0:0:0:0:
225,113,3443,1,0,0:0:0:0:
225,113,3589,1,8,0:0:0:0:
123,161,3882,1,0,0:0:0:0:
234,146,4174,1,0,0:0:0:0:
234,146,4467,1,8,0:0:0:0:
230,158,4613,1,0,0:0:0:0:
230,158,4760,1,8,0:0:0:0:
236,157,5052,1,8,0:0:0:0:
230,138,5345,1,0,0:0:0:0:
234,154,5491,1,8,0:0:0:0:
230,138,5784,1,0,0:0:0:0:
236,157,5930,1,8,0:0:0:0:
168,139,6369,1,8,0:0:0:0:
168,139,6516,1,8,0:0:0:0:
168,139,6662,1,0,0:0:0:0:
168,139,6809,1,8,0:0:0:0:
159,124,6955,1,8,0:0:0:0:
159,124,7101,1,0,0:0:0:0:
159,124,7394,1,8,0:0:0:0:
158,123,7687,1,0,0:0:0:0:
159,124,7833,1,8,0:0:0:0:
159,124,8126,1,0,0:0:0:0:
181,138,8272,1,8,0:0:0:0:
181,138,8345,1,8,0:0:0:0:
181,138,8418,1,8,0:0:0:0:
108,143,8565,5,4,0:0:0:0:
325,185,8711,1,0,0:0:0:0:
325,185,8784,1,0,0:0:0:0:
246,131,8857,1,8,0:0:0:0:
246,131,8906,1,8,0:0:0:0:
246,131,8955,1,8,0:0:0:0:
246,131,9004,1,0,0:0:0:0:
272,171,9150,1,8,0:0:0:0:
272,171,9296,1,0,0:0:0:0:
272,171,9443,1,8,0:0:0:0:
272,171,9589,1,8,0:0:0:0:
272,171,9735,1,4,0:0:0:0:
203,137,9882,1,8,0:0:0:0:
203,137,10028,1,0,0:0:0:0:
202,157,10174,1,8,0:0:0:0:
202,157,10321,1,0,0:0:0:0:
201,156,10467,1,8,0:0:0:0:
200,155,10613,1,0,0:0:0:0:
201,155,10760,1,8,0:0:0:0:
201,154,10833,1,8,0:0:0:0:
201,153,10906,1,0,0:0:0:0:
202,157,11052,1,8,0:0:0:0:
202,157,11199,1,0,0:0:0:0:
201,156,11345,1,8,0:0:0:0:
200,155,11491,1,0,0:0:0:0:
201,155,11638,1,8,0:0:0:0:
201,153,11784,1,0,0:0:0:0:
78,160,11857,1,0,0:0:0:0:
200,149,11930,1,8,0:0:0:0:
200,149,12004,1,8,0:0:0:0:
189,177,12077,1,0,0:0:0:0:
189,177,12223,1,0,0:0:0:0:
189,177,12369,1,8,0:0:0:0:
151,146,12516,1,0,0:0:0:0:
111,164,12662,1,0,0:0:0:0:
111,164,12735,1,0,0:0:0:0:
111,164,12809,1,0,0:0:0:0:
111,164,12882,1,0,0:0:0:0:
111,164,12955,1,8,0:0:0:0:
111,164,13028,1,8,0:0:0:0:
111,164,13101,1,8,0:0:0:0:
111,164,13174,1,8,0:0:0:0:
132,150,13248,1,0,0:0:0:0:
196,130,13394,1,8,0:0:0:0:
196,130,13540,1,0,0:0:0:0:
274,138,13613,1,8,0:0:0:0:
250,98,13687,1,0,0:0:0:0:
274,138,13760,1,0,0:0:0:0:
276,122,13833,1,8,0:0:0:0:
253,114,13882,1,8,0:0:0:0:
253,114,13930,1,8,0:0:0:0:
276,122,13979,1,0,0:0:0:0:
252,104,14126,1,8,0:0:0:0:
163,163,14272,1,8,0:0:0:0:
163,163,14345,1,8,0:0:0:0:
163,163,14418,1,4,0:0:0:0:
221,136,14565,1,8,0:0:0:0:
211,141,14711,1,0,0:0:0:0:
204,141,14857,1,8,0:0:0:0:
211,141,15004,1,0,0:0:0:0:
204,141,15150,1,8,0:0:0:0:
211,141,15296,1,0,0:0:0:0:
140,144,15369,1,0,0:0:0:0:
204,141,15443,1,8,0:0:0:0:
210,158,15516,1,8,0:0:0:0:
211,141,15589,1,0,0:0:0:0:
204,141,15735,1,8,0:0:0:0:
211,141,15882,1,0,0:0:0:0:
204,141,16028,1,8,0:0:0:0:
208,135,16174,1,0,0:0:0:0:
204,141,16321,1,8,0:0:0:0:
208,135,16467,1,8,0:0:0:0:
216,128,16540,1,0,0:0:0:0:
187,136,16613,1,8,0:0:0:0:
187,136,16687,1,8,0:0:0:0:
187,136,16760,1,0,0:0:0:0:
204,141,16906,1,8,0:0:0:0:
208,135,17052,1,0,0:0:0:0:
204,141,17199,1,8,0:0:0:0:
208,135,17345,1,0,0:0:0:0:
204,141,17491,1,8,0:0:0:0:
207,135,17638,1,0,0:0:0:0:
169,140,17711,1,0,0:0:0:0:
204,141,17784,1,8,0:0:0:0:
156,86,17857,1,8,0:0:0:0:
195,126,17930,1,0,0:0:0:0:
243,214,18077,1,0,0:0:0:0:
227,148,18369,1,8,0:0:0:0:
153,161,18516,1,0,0:0:0:0:
214,150,18662,1,0,0:0:0:0:
221,156,18735,1,0,0:0:0:0:
221,156,18809,1,8,0:0:0:0:
221,156,18882,1,8,0:0:0:0:
221,156,18955,1,0,0:0:0:0:
221,156,19028,1,8,0:0:0:0:
221,156,19101,1,4,0:0:0:0:
221,156,19248,1,0,0:0:0:0:
221,156,19394,1,8,0:0:0:0:
150,136,19540,1,0,0:0:0:0:
150,136,19613,1,0,0:0:0:0:
192,146,19687,1,0,0:0:0:0:
150,136,19833,1,0,0:0:0:0:
192,146,19979,1,8,0:0:0:0:
192,117,20126,1,8,0:0:0:0:
192,117,20199,1,8,0:0:0:0:
192,146,20272,1,0,0:0:0:0:
192,117,20418,1,0,0:0:0:0:
192,146,20565,1,8,0:0:0:0:
183,105,20711,1,0,0:0:0:0:
183,105,20784,1,8,0:0:0:0:
192,146,20857,1,0,0:0:0:0:
198,147,20930,1,0,0:0:0:0:
183,105,21004,1,8,0:0:0:0:
183,105,21077,1,0,0:0:0:0:
192,146,21150,1,8,0:0:0:0:
245,168,21443,5,0,0:0:0:0:
267,164,21662,1,0,0:0:0:0:
267,164,21735,1,8,0:0:0:0:
267,164,21882,1,8,0:0:0:0:
267,164,21955,1,8,0:0:0:0:
267,163,22028,1,8,0:0:0:0:
268,163,22101,1,0,0:0:0:0:
268,163,22174,1,8,0:0:0:0:
117,137,22321,1,0,0:0:0:0:
205,71,22394,1,0,0:0:0:0:
117,137,22467,1,8,0:0:0:0:
117,137,22540,1,8,0:0:0:0:
191,117,22613,1,0,0:0:0:0:
212,151,22662,1,0,0:0:0:0:
212,151,22711,1,0,0:0:0:0:
212,151,22760,1,8,0:0:0:0:
136,159,22906,1,12,0:0:0:0:
201,169,23199,1,4,0:0:0:0:
207,147,23418,1,0,0:0:0:0:
207,147,23491,1,8,0:0:0:0:
207,147,23638,1,8,0:0:0:0:
207,147,23784,1,4,0:0:0:0:
118,150,23930,1,0,0:0:0:0:
122,147,24077,1,8,0:0:0:0:
244,175,24223,1,0,0:0:0:0:
244,175,24296,1,0,0:0:0:0:
244,175,24369,1,0,0:0:0:0:
244,175,24516,1,0,0:0:0:0:
244,175,24662,1,8,0:0:0:0:
238,162,24809,1,8,0:0:0:0:
238,162,24882,1,8,0:0:0:0:
238,162,24955,1,0,0:0:0:0:
238,162,25101,1,0,0:0:0:0:
251,172,25248,1,8,0:0:0:0:
250,172,25394,1,0,0:0:0:0:
250,171,25467,1,8,0:0:0:0:
250,170,25540,1,0,0:0:0:0:
200,141,25613,1,0,0:0:0:0:
250,170,25687,1,8,0:0:0:0:
251,170,25760,1,0,0:0:0:0:
252,169,25833,1,8,0:0:0:0:
220,161,25979,1,8,0:0:0:0:
210,139,26052,1,8,0:0:0:0:
210,139,26126,1,0,0:0:0:0:
228,155,26418,1,0,0:0:0:0:
228,155,26491,1,8,0:0:0:0:
228,153,26565,1,8,0:0:0:0:
228,152,26638,1,0,0:0:0:0:
228,151,26711,1,8,0:0:0:0:
228,151,26857,1,0,0:0:0:0:
228,155,27004,1,8,0:0:0:0:
228,149,27077,1,8,0:0:0:0:
228,148,27150,1,8,0:0:0:0:
205,141,27296,1,0,0:0:0:0:
205,141,27443,1,8,0:0:0:0:
205,141,27589,1,0,0:0:0:0:
205,141,27735,1,8,0:0:0:0:
237,194,27882,1,8,0:0:0:0:
237,194,27955,1,8,0:0:0:0:
237,194,28028,1,0,0:0:0:0:
237,194,28101,1,0,0:0:0:0:
74,136,28174,1,12,0:0:0:0:
74,136,28467,1,4,0:0:0:0:
166,125,28760,1,8,0:0:0:0:
170,114,28906,1,0,0:0:0:0:
173,111,28979,1,0,0:0:0:0:
173,111,29052,1,0,0:0:0:0:
166,125,29199,1,0,0:0:0:0:
166,125,29345,1,8,0:0:0:0:
192,85,29491,1,8,0:0:0:0:
192,85,29565,1,8,0:0:0:0:
166,125,29638,1,0,0:0:0:0:
153,117,29784,1,0,0:0:0:0:
153,117,29857,1,0,0:0:0:0:
163,129,29930,1,8,0:0:0:0:
210,158,30077,1,0,0:0:0:0:
146,135,30223,1,0,0:0:0:0:
146,135,30296,1,8,0:0:0:0:
163,129,30369,1,0,0:0:0:0:
163,129,30516,1,8,0:0:0:0:
202,152,30662,1,8,0:0:0:0:
202,152,30735,1,8,0:0:0:0:
163,129,30809,1,0,0:0:0:0:
195,146,30955,1,0,0:0:0:0:
163,129,31028,1,8,0:0:0:0:
173,130,31174,1,0,0:0:0:0:
163,129,31248,1,0,0:0:0:0:
173,129,31394,1,0,0:0:0:0:
163,129,31467,1,8,0:0:0:0:
149,134,31540,1,0,0:0:0:0:
110,145,31613,1,0,0:0:0:0:
221,165,31687,1,8,0:0:0:0:
221,165,31760,1,8,0:0:0:0:
221,165,31833,1,8,0:0:0:0:
221,165,31906,1,8,0:0:0:0:
221,165,31979,1,4,0:0:0:0:
239,158,32126,1,8,0:0:0:0:
239,158,32272,1,0,0:0:0:0:
233,152,32418,1,0,0:0:0:0:
233,152,32565,1,8,0:0:0:0:
232,151,32711,1,0,0:0:0:0:
202,123,32784,1,0,0:0:0:0:
232,150,32857,1,8,0:0:0:0:
181,146,33150,1,4,0:0:0:0:
215,174,33296,1,0,0:0:0:0:
311,145,33443,1,8,0:0:0:0:
311,145,33491,1,8,0:0:0:0:
311,145,33540,1,8,0:0:0:0:
311,145,33589,1,8,0:0:0:0:
311,145,33735,1,0,0:0:0:0:
264,152,33882,1,0,0:0:0:0:
229,137,34028,1,8,0:0:0:0:
229,137,34077,1,8,0:0:0:0:
229,137,34126,1,8,0:0:0:0:
229,137,34174,1,0,0:0:0:0:
229,137,34321,1,8,0:0:0:0:
197,157,34467,1,0,0:0:0:0:
197,157,34613,1,8,0:0:0:0:
197,157,34760,1,0,0:0:0:0:
250,172,34906,5,0,0:0:0:0:
250,172,34979,1,0,0:0:0:0:
250,172,35052,1,0,0:0:0:0:
250,172,35126,1,0,0:0:0:0:
250,172,35199,1,12,0:0:0:0:
238,148,35491,1,4,0:0:0:0:
242,176,35638,1,8,0:0:0:0:
242,176,35711,1,8,0:0:0:0:
230,156,35784,1,0,0:0:0:0:
198,160,35930,1,0,0:0:0:0:
230,156,36077,1,8,0:0:0:0:
207,155,36369,1,8,0:0:0:0:
230,156,36516,1,0,0:0:0:0:
205,117,36589,1,0,0:0:0:0:
205,117,36662,1,0,0:0:0:0:
206,156,36809,1,8,0:0:0:0:
230,156,36955,1,0,0:0:0:0:
232,158,37028,1,8,0:0:0:0:
207,155,37101,1,0,0:0:0:0:
231,159,37174,1,0,0:0:0:0:
230,156,37248,1,8,0:0:0:0:
209,98,37394,1,8,0:0:0:0:
209,98,37467,1,8,0:0:0:0:
208,149,37540,1,0,0:0:0:0:
138,157,37613,1,0,0:0:0:0:
208,149,37687,1,8,0:0:0:0:
208,149,37833,1,0,0:0:0:0:
170,150,37979,1,8,0:0:0:0:
220,133,38052,1,8,0:0:0:0:
131,149,38126,1,0,0:0:0:0:
131,149,38272,1,0,0:0:0:0:
229,158,38418,1,8,0:0:0:0:
194,156,38711,1,8,0:0:0:0:
237,160,38857,1,0,0:0:0:0:
167,110,39004,1,8,0:0:0:0:
207,117,39077,1,8,0:0:0:0:
237,160,39150,1,0,0:0:0:0:
207,117,39223,1,8,0:0:0:0:
237,160,39296,1,0,0:0:0:0:
234,174,39443,1,8,0:0:0:0:
234,174,39516,1,0,0:0:0:0:
237,160,39589,1,8,0:0:0:0:
145,156,39662,1,8,0:0:0:0:
224,159,39735,1,0,0:0:0:0:
231,169,39882,5,12,0:0:0:0:
231,161,40174,1,4,0:0:0:0:
194,118,40321,1,8,0:0:0:0:
194,118,40394,1,8,0:0:0:0:
194,118,40467,1,0,0:0:0:0:
194,118,40613,1,0,0:0:0:0:
194,118,40760,1,8,0:0:0:0:
187,115,41052,1,8,0:0:0:0:
188,115,41199,1,0,0:0:0:0:
183,213,41272,1,0,0:0:0:0:
183,213,41345,1,0,0:0:0:0:
194,140,41491,1,8,0:0:0:0:
197,138,41638,1,0,0:0:0:0:
197,138,41711,1,8,0:0:0:0:
197,138,41784,1,8,0:0:0:0:
197,138,41857,1,0,0:0:0:0:
197,138,41930,1,8,0:0:0:0:
200,166,42077,1,8,0:0:0:0:
200,166,42150,1,0,0:0:0:0:
200,166,42223,1,0,0:0:0:0:
200,166,42296,1,0,0:0:0:0:
200,166,42369,1,8,0:0:0:0:
183,155,42516,1,0,0:0:0:0:
202,160,42589,1,8,0:0:0:0:
202,160,42662,1,8,0:0:0:0:
199,141,42809,1,8,0:0:0:0:
176,160,42955,1,0,0:0:0:0:
188,122,43101,5,8,0:0:0:0:
188,122,43174,1,0,0:0:0:0:
188,122,43248,1,8,0:0:0:0:
187,122,43394,1,12,0:0:0:0:
256,192,43687,12,0,44711,0:0:0:0:
200,159,44857,5,4,0:0:0:0:
200,159,45443,1,0,0:0:0:0:
200,159,45638,1,8,0:0:0:0:
200,159,45735,1,8,0:0:0:0:
194,159,46028,1,0,0:0:0:0:
185,155,46321,1,0,0:0:0:0:
185,155,46516,1,8,0:0:0:0:
128,173,46613,1,0,0:0:0:0:
140,145,47199,1,12,0:0:0:0:
164,151,47491,1,0,0:0:0:0:
164,151,47638,1,0,0:0:0:0:
216,162,47784,1,8,0:0:0:0:
166,139,47930,1,0,0:0:0:0:
213,156,48077,1,8,0:0:0:0:
204,119,48150,1,0,0:0:0:0:
212,155,48223,1,8,0:0:0:0:
212,155,48296,1,8,0:0:0:0:
212,155,48369,1,0,0:0:0:0:
192,130,48662,1,0,0:0:0:0:
192,130,48809,1,0,0:0:0:0:
192,130,48955,1,8,0:0:0:0:
199,105,49101,1,0,0:0:0:0:
258,172,49248,1,8,0:0:0:0:
258,172,49321,1,8,0:0:0:0:
258,172,49394,1,8,0:0:0:0:
258,172,49467,1,8,0:0:0:0:
258,172,49540,1,0,0:0:0:0:
211,110,49833,1,0,0:0:0:0:
204,106,49979,1,0,0:0:0:0:
187,120,50126,1,8,0:0:0:0:
202,106,50272,1,0,0:0:0:0:
200,119,50418,1,0,0:0:0:0:
200,118,50491,1,0,0:0:0:0:
200,118,50565,1,8,0:0:0:0:
200,118,50638,1,8,0:0:0:0:
229,147,50711,1,0,0:0:0:0:
229,147,50857,1,8,0:0:0:0:
229,147,50930,1,0,0:0:0:0:
229,147,51004,1,8,0:0:0:0:
229,147,51150,1,8,0:0:0:0:
201,132,51296,1,0,0:0:0:0:
201,132,51369,1,0,0:0:0:0:
201,132,51443,1,8,0:0:0:0:
201,132,51589,1,12,0:0:0:0:
191,125,51882,1,4,0:0:0:0:
157,155,52174,1,8,0:0:0:0:
183,125,52321,1,0,0:0:0:0:
183,125,52394,1,0,0:0:0:0:
183,125,52467,1,0,0:0:0:0:
184,123,52613,1,0,0:0:0:0:
157,155,52760,1,8,0:0:0:0:
163,132,53052,1,0,0:0:0:0:
164,131,53199,1,0,0:0:0:0:
164,129,53272,1,0,0:0:0:0:
157,155,53345,1,8,0:0:0:0:
163,132,53491,1,0,0:0:0:0:
163,132,53638,1,0,0:0:0:0:
163,132,53711,1,8,0:0:0:0:
163,126,53784,1,0,0:0:0:0:
157,155,53930,1,8,0:0:0:0:
190,150,54223,1,0,0:0:0:0:
211,146,54369,1,0,0:0:0:0:
211,146,54443,1,8,0:0:0:0:
193,124,54589,1,8,0:0:0:0:
193,124,54662,1,0,0:0:0:0:
175,127,54735,1,0,0:0:0:0:
158,172,54809,1,8,0:0:0:0:
158,172,54882,1,0,0:0:0:0:
119,156,55028,1,0,0:0:0:0:
179,169,55101,1,8,0:0:0:0:
179,169,55174,1,8,0:0:0:0:
179,169,55248,1,8,0:0:0:0:
179,169,55321,1,8,0:0:0:0:
179,169,55394,1,0,0:0:0:0:
157,150,55540,1,8,0:0:0:0:
157,150,55687,1,0,0:0:0:0:
157,150,55833,1,8,0:0:0:0:
157,150,55979,1,0,0:0:0:0:
154,165,56052,1,8,0:0:0:0:
157,150,56126,1,0,0:0:0:0:
108,162,56199,1,0,0:0:0:0:
146,159,56272,1,8,0:0:0:0:
168,169,56345,1,0,0:0:0:0:
165,158,56418,1,8,0:0:0:0:
165,158,56491,1,8,0:0:0:0:
183,184,56565,1,4,0:0:0:0:
199,124,56711,1,0,0:0:0:0:
187,115,56857,1,8,0:0:0:0:
181,126,57004,1,0,0:0:0:0:
181,126,57077,1,8,0:0:0:0:
181,125,57150,1,0,0:0:0:0:
182,124,57296,1,0,0:0:0:0:
187,115,57443,1,8,0:0:0:0:
181,126,57589,1,0,0:0:0:0:
181,126,57662,1,0,0:0:0:0:
181,126,57735,1,8,0:0:0:0:
181,126,57882,1,0,0:0:0:0:
187,115,58028,1,8,0:0:0:0:
185,138,58174,1,0,0:0:0:0:
184,134,58248,1,0,0:0:0:0:
185,138,58321,1,8,0:0:0:0:
185,138,58394,1,8,0:0:0:0:
185,138,58467,1,0,0:0:0:0:
187,115,58613,1,8,0:0:0:0:
209,182,58760,5,0,0:0:0:0:
209,182,58906,1,0,0:0:0:0:
242,148,59052,1,0,0:0:0:0:
187,115,59199,1,8,0:0:0:0:
208,98,59345,1,0,0:0:0:0:
208,98,59418,1,8,0:0:0:0:
208,98,59491,1,0,0:0:0:0:
208,98,59638,1,0,0:0:0:0:
187,115,59784,1,8,0:0:0:0:
208,98,59930,1,0,0:0:0:0:
208,98,60004,1,0,0:0:0:0:
208,98,60077,1,8,0:0:0:0:
208,98,60223,1,0,0:0:0:0:
187,115,60369,1,8,0:0:0:0:
200,166,60443,1,0,0:0:0:0:
180,109,60516,1,8,0:0:0:0:
183,100,60589,1,8,0:0:0:0:
200,166,60662,1,0,0:0:0:0:
214,168,60955,5,0,0:0:0:0:
214,168,61028,1,8,0:0:0:0:
214,168,61101,1,8,0:0:0:0:
214,168,61174,1,8,0:0:0:0:
214,168,61248,1,4,0:0:0:0:
195,172,61394,1,0,0:0:0:0:
195,172,61467,1,0,0:0:0:0:
212,161,61540,1,8,0:0:0:0:
227,132,61687,1,8,0:0:0:0:
227,132,61833,1,0,0:0:0:0:
222,130,61906,1,8,0:0:0:0:
227,132,61979,1,0,0:0:0:0:
212,161,62126,1,8,0:0:0:0:
212,119,62272,1,8,0:0:0:0:
191,139,62345,1,8,0:0:0:0:
212,119,62418,1,0,0:0:0:0:
212,118,62565,1,0,0:0:0:0:
212,118,62638,1,0,0:0:0:0:
212,161,62711,1,8,0:0:0:0:
151,160,62857,1,0,0:0:0:0:
165,156,63004,1,0,0:0:0:0:
147,146,63077,1,8,0:0:0:0:
165,156,63150,1,0,0:0:0:0:
165,155,63223,1,0,0:0:0:0:
212,161,63296,1,8,0:0:0:0:
164,154,63443,1,0,0:0:0:0:
240,138,63589,1,8,0:0:0:0:
240,138,63662,1,8,0:0:0:0:
240,138,63735,1,0,0:0:0:0:
240,138,63809,1,0,0:0:0:0:
240,138,63882,1,8,0:0:0:0:
240,138,63955,1,8,0:0:0:0:
240,138,64028,1,0,0:0:0:0:
240,138,64101,1,0,0:0:0:0:
240,138,64174,1,8,0:0:0:0:
240,138,64248,1,0,0:0:0:0:
240,138,64321,1,8,0:0:0:0:
240,138,64394,1,0,0:0:0:0:
240,138,64467,1,8,0:0:0:0:
240,138,64540,1,8,0:0:0:0:
240,138,64613,1,8,0:0:0:0:
240,138,64687,1,8,0:0:0:0:
219,185,64760,5,4,0:0:0:0:
207,115,64906,1,0,0:0:0:0:
237,158,65052,1,8,0:0:0:0:
179,112,65199,1,0,0:0:0:0:
230,164,65345,1,8,0:0:0:0:
230,164,65394,1,8,0:0:0:0:
230,163,65443,1,8,0:0:0:0:
230,163,65491,1,0,0:0:0:0:
230,163,65638,1,8,0:0:0:0:
228,163,65687,1,8,0:0:0:0:
228,162,65735,1,8,0:0:0:0:
228,162,65784,1,8,0:0:0:0:
194,90,65930,1,4,0:0:0:0:
253,170,66369,1,0,0:0:0:0:
253,170,66809,1,0,0:0:0:0:
221,163,67248,1,8,0:0:0:0:
221,163,67394,1,8,0:0:0:0:
221,163,67540,1,0,0:0:0:0:
221,163,67687,1,8,0:0:0:0:
221,163,67833,1,8,0:0:0:0:
221,163,67979,1,0,0:0:0:0:
251,166,68272,1,8,0:0:0:0:
251,166,68711,1,8,0:0:0:0:
251,166,69150,1,8,0:0:0:0:
217,159,69589,1,8,0:0:0:0:
257,152,69735,1,0,0:0:0:0:
251,149,69882,1,0,0:0:0:0:
251,149,70028,1,8,0:0:0:0:
252,149,70174,1,0,0:0:0:0:
257,152,70321,1,8,0:0:0:0:
251,166,70613,1,4,0:0:0:0:
230,152,70906,1,8,0:0:0:0:
251,166,71052,1,0,0:0:0:0:
186,122,71345,1,0,0:0:0:0:
251,166,71491,1,8,0:0:0:0:
246,181,71930,1,0,0:0:0:0:
246,181,72077,1,8,0:0:0:0:
246,181,72223,1,0,0:0:0:0:
246,181,72369,1,0,0:0:0:0:
246,181,72516,1,0,0:0:0:0:
246,181,72662,1,8,0:0:0:0:
182,124,72955,1,0,0:0:0:0:
230,172,73248,1,8,0:0:0:0:
230,172,73394,1,0,0:0:0:0:
230,172,73687,1,0,0:0:0:0:
230,172,73833,1,8,0:0:0:0:
261,202,74126,1,4,0:0:0:0:
144,136,74272,1,0,0:0:0:0:
144,136,74345,1,0,0:0:0:0:
202,149,74418,1,8,0:0:0:0:
202,149,74467,1,8,0:0:0:0:
202,149,74516,1,8,0:0:0:0:
202,149,74565,1,0,0:0:0:0:
284,183,74711,1,8,0:0:0:0:
284,183,74857,1,0,0:0:0:0:
284,183,75004,1,12,0:0:0:0:
221,148,75296,1,4,0:0:0:0:
221,148,75443,1,8,0:0:0:0:
221,148,75589,1,8,0:0:0:0:
205,163,75735,1,4,0:0:0:0:
216,149,76028,1,8,0:0:0:0:
205,163,76174,1,4,0:0:0:0:
252,162,76467,1,8,0:0:0:0:
252,162,76613,1,8,0:0:0:0:
154,117,76687,1,8,0:0:0:0:
252,162,76760,1,0,0:0:0:0:
252,162,76906,1,8,0:0:0:0:
252,162,77052,1,8,0:0:0:0:
252,162,77199,1,0,0:0:0:0:
252,162,77345,1,12,0:0:0:0:
226,147,77638,1,4,0:0:0:0:
226,147,77784,1,8,0:0:0:0:
226,147,77930,1,8,0:0:0:0:
226,147,78077,1,4,0:0:0:0:
220,136,78369,1,4,0:0:0:0:
220,136,78516,1,4,0:0:0:0:
248,143,78809,1,0,0:0:0:0:
248,143,78882,1,0,0:0:0:0:
248,143,78955,1,8,0:0:0:0:
248,143,79101,1,8,0:0:0:0:
232,130,79248,1,0,0:0:0:0:
232,130,79321,1,8,0:0:0:0:
232,130,79394,1,0,0:0:0:0:
232,130,79540,1,8,0:0:0:0:
232,130,79687,1,12,0:0:0:0:
179,155,79979,1,4,0:0:0:0:
179,155,80272,1,8,0:0:0:0:
179,155,80418,1,0,0:0:0:0:
157,171,80565,1,8,0:0:0:0:
157,171,80711,1,8,0:0:0:0:
179,155,80857,1,0,0:0:0:0:
232,141,80955,1,0,0:0:0:0:
232,141,81052,1,0,0:0:0:0:
232,141,81150,5,8,0:0:0:0:
255,173,81296,1,0,0:0:0:0:
255,173,81443,1,8,0:0:0:0:
255,173,81589,1,8,0:0:0:0:
220,118,81662,1,8,0:0:0:0:
255,173,81735,1,0,0:0:0:0:
255,173,81882,1,0,0:0:0:0:
255,173,82028,1,12,0:0:0:0:
213,161,82321,5,4,0:0:0:0:
210,135,82613,1,8,0:0:0:0:
213,161,82760,1,4,0:0:0:0:
210,135,83052,1,0,0:0:0:0:
213,161,83199,1,12,0:0:0:0:
210,135,83491,5,0,0:0:0:0:
210,135,83784,1,0,0:0:0:0:
210,135,84077,1,8,0:0:0:0:
210,135,84369,1,12,0:0:0:0:
264,159,84662,1,0,0:0:0:0:
264,159,84760,1,0,0:0:0:0:
264,159,84857,1,0,0:0:0:0:
264,159,84955,1,0,0:0:0:0:
257,148,85150,1,0,0:0:0:0:
255,147,85248,1,0,0:0:0:0:
255,146,85345,1,0,0:0:0:0:
255,146,85443,1,0,0:0:0:0:
143,108,85540,5,12,0:0:0:0:
238,135,85833,1,8,0:0:0:0:
238,135,85930,1,8,0:0:0:0:
238,135,86028,1,8,0:0:0:0:
238,135,86126,1,8,0:0:0:0:
238,135,86321,1,8,0:0:0:0:
238,135,86418,1,8,0:0:0:0:
238,135,86516,1,8,0:0:0:0:
238,135,86613,1,8,0:0:0:0:
213,118,86711,1,0,0:0:0:0:
213,118,86760,1,0,0:0:0:0:
213,118,86809,1,0,0:0:0:0:
209,141,86906,1,0,0:0:0:0:
209,141,87004,1,8,0:0:0:0:
233,145,87101,1,8,0:0:0:0:
233,145,87199,1,8,0:0:0:0:
233,144,87296,1,8,0:0:0:0:
200,122,87491,1,8,0:0:0:0:
200,122,87589,1,8,0:0:0:0:
200,122,87687,1,8,0:0:0:0:
200,122,87784,1,8,0:0:0:0:
210,139,87882,1,4,0:0:0:0:
191,115,88077,1,0,0:0:0:0:
190,122,88174,1,8,0:0:0:0:
202,134,88272,1,0,0:0:0:0:
202,134,88369,1,0,0:0:0:0:
202,134,88467,1,8,0:0:0:0:
206,120,88662,1,8,0:0:0:0:
197,122,88760,1,8,0:0:0:0:
197,122,88857,1,0,0:0:0:0:
197,122,88955,1,0,0:0:0:0:
204,134,89052,1,12,0:0:0:0:
209,159,89345,1,0,0:0:0:0:
209,159,89443,1,0,0:0:0:0:
209,159,89540,1,0,0:0:0:0:
209,159,89638,1,8,0:0:0:0:
184,144,89833,1,8,0:0:0:0:
180,136,89930,1,0,0:0:0:0:
180,136,90028,1,0,0:0:0:0:
180,135,90126,1,0,0:0:0:0:
180,135,90223,1,8,0:0:0:0:
244,190,90418,1,8,0:0:0:0:
244,190,90516,1,0,0:0:0:0:
231,165,90565,1,0,0:0:0:0:
231,165,90613,1,0,0:0:0:0:
231,165,90711,1,0,0:0:0:0:
238,186,90809,1,8,0:0:0:0:
277,238,90906,1,0,0:0:0:0:
159,163,91004,1,0,0:0:0:0:
327,266,91101,1,8,0:0:0:0:
327,266,91150,1,8,0:0:0:0:
327,266,91199,1,0,0:0:0:0:
327,266,91296,1,0,0:0:0:0:
238,186,91394,1,8,0:0:0:0:
238,186,91491,1,8,0:0:0:0:
238,186,91589,1,8,0:0:0:0:
201,132,91687,1,4,0:0:0:0:
131,109,91979,1,8,0:0:0:0:
144,174,92272,1,0,0:0:0:0:
144,174,92345,1,8,0:0:0:0:
144,174,92418,1,0,0:0:0:0:
144,174,92565,1,8,0:0:0:0:
237,172,92857,1,0,0:0:0:0:
238,179,92930,1,8,0:0:0:0:
238,179,93004,1,8,0:0:0:0:
238,178,93077,1,0,0:0:0:0:
238,177,93150,1,8,0:0:0:0:
229,171,93296,1,8,0:0:0:0:
229,171,93369,1,0,0:0:0:0:
220,184,93443,1,8,0:0:0:0:
220,184,93516,1,8,0:0:0:0:
219,180,93589,1,0,0:0:0:0:
219,179,93735,1,12,0:0:0:0:
276,167,94028,1,4,0:0:0:0:
222,154,94174,1,0,0:0:0:0:
222,154,94248,1,0,0:0:0:0:
222,154,94321,1,8,0:0:0:0:
222,154,94467,1,8,0:0:0:0:
222,154,94613,1,0,0:0:0:0:
220,175,94687,1,8,0:0:0:0:
191,118,94760,1,0,0:0:0:0:
191,118,94906,1,8,0:0:0:0:
194,160,95052,1,8,0:0:0:0:
194,160,95126,1,8,0:0:0:0:
226,139,95199,1,0,0:0:0:0:
226,139,95272,1,0,0:0:0:0:
146,163,95418,1,0,0:0:0:0:
226,139,95491,1,8,0:0:0:0:
225,125,95638,1,0,0:0:0:0:
225,125,95784,1,0,0:0:0:0:
194,127,95857,1,8,0:0:0:0:
226,125,95930,1,0,0:0:0:0:
194,127,96004,1,0,0:0:0:0:
226,125,96077,1,8,0:0:0:0:
158,147,96223,1,8,0:0:0:0:
158,147,96296,1,8,0:0:0:0:
239,132,96369,1,0,0:0:0:0:
239,132,96516,1,0,0:0:0:0:
210,79,96589,1,8,0:0:0:0:
239,131,96662,1,8,0:0:0:0:
238,131,96809,1,8,0:0:0:0:
231,129,96955,1,0,0:0:0:0:
209,89,97028,1,8,0:0:0:0:
231,129,97101,1,0,0:0:0:0:
231,129,97248,1,8,0:0:0:0:
187,130,97394,1,0,0:0:0:0:
199,109,97467,1,0,0:0:0:0:
187,130,97540,1,8,0:0:0:0:
199,108,97613,1,0,0:0:0:0:
187,130,97760,1,0,0:0:0:0:
187,130,97833,1,8,0:0:0:0:
187,130,97979,1,0,0:0:0:0:
187,130,98126,1,0,0:0:0:0:
127,136,98199,1,8,0:0:0:0:
187,130,98272,1,8,0:0:0:0:
167,121,98345,1,0,0:0:0:0:
212,112,98418,1,8,0:0:0:0:
187,130,98565,1,8,0:0:0:0:
187,130,98638,1,8,0:0:0:0:
199,89,98711,1,0,0:0:0:0:
199,89,98857,1,0,0:0:0:0:
152,131,98930,1,0,0:0:0:0:
192,113,99004,1,8,0:0:0:0:
192,113,99150,1,8,0:0:0:0:
192,112,99296,1,0,0:0:0:0:
200,83,99369,1,8,0:0:0:0:
190,118,99443,1,0,0:0:0:0:
190,118,99589,1,8,0:0:0:0:
189,118,99735,1,8,0:0:0:0:
200,83,99809,1,8,0:0:0:0:
189,118,99882,1,0,0:0:0:0:
189,118,99955,1,0,0:0:0:0:
120,139,100101,1,0,0:0:0:0:
190,118,100174,1,8,0:0:0:0:
190,118,100321,1,0,0:0:0:0:
189,118,100467,1,0,0:0:0:0:
191,85,100540,1,8,0:0:0:0:
189,118,100613,1,0,0:0:0:0:
191,86,100687,1,0,0:0:0:0:
189,118,100760,1,8,0:0:0:0:
166,80,100906,1,8,0:0:0:0:
166,80,100979,1,8,0:0:0:0:
266,163,101052,5,0,0:0:0:0:
209,148,101126,1,0,0:0:0:0:
192,125,101199,1,0,0:0:0:0:
190,111,101345,1,8,0:0:0:0:
178,112,101491,1,0,0:0:0:0:
178,112,101565,1,8,0:0:0:0:
179,111,101638,1,8,0:0:0:0:
179,110,101784,1,8,0:0:0:0:
168,108,101930,1,0,0:0:0:0:
168,108,102004,1,0,0:0:0:0:
168,108,102077,1,8,0:0:0:0:
169,108,102150,1,8,0:0:0:0:
168,108,102223,1,0,0:0:0:0:
124,177,102369,1,0,0:0:0:0:
132,180,102516,1,8,0:0:0:0:
132,180,102662,1,0,0:0:0:0:
133,181,102809,1,8,0:0:0:0:
166,137,103101,1,0,0:0:0:0:
166,137,103174,1,8,0:0:0:0:
166,137,103248,1,8,0:0:0:0:
166,137,103321,1,8,0:0:0:0:
166,137,103394,1,4,0:0:0:0:
212,135,103540,1,0,0:0:0:0:
212,135,103687,1,8,0:0:0:0:
212,135,103833,1,0,0:0:0:0:
219,113,104126,1,0,0:0:0:0:
217,111,104418,1,8,0:0:0:0:
199,115,104565,1,0,0:0:0:0:
199,115,104638,1,0,0:0:0:0:
199,115,104711,1,8,0:0:0:0:
180,191,104784,1,0,0:0:0:0:
199,114,104857,1,8,0:0:0:0:
204,181,105004,1,0,0:0:0:0:
204,181,105077,1,0,0:0:0:0:
204,181,105150,1,8,0:0:0:0:
243,141,105296,1,0,0:0:0:0:
230,175,105443,1,8,0:0:0:0:
189,144,105516,1,8,0:0:0:0:
230,175,105589,1,0,0:0:0:0:
237,130,105662,1,8,0:0:0:0:
237,130,105735,1,4,0:0:0:0:
167,169,105882,1,8,0:0:0:0:
181,151,105955,1,8,0:0:0:0:
167,169,106028,1,0,0:0:0:0:
167,169,106174,1,8,0:0:0:0:
167,169,106248,1,0,0:0:0:0:
167,169,106321,1,0,0:0:0:0:
167,169,106467,1,8,0:0:0:0:
167,169,106613,1,0,0:0:0:0:
167,169,106687,1,0,0:0:0:0:
167,169,106760,1,8,0:0:0:0:
167,169,106833,1,8,0:0:0:0:
167,169,106906,1,0,0:0:0:0:
222,196,107052,1,8,0:0:0:0:
202,129,107126,1,8,0:0:0:0:
222,196,107199,1,0,0:0:0:0:
222,196,107345,1,8,0:0:0:0:
222,196,107418,1,0,0:0:0:0:
222,196,107491,1,0,0:0:0:0:
222,196,107638,1,8,0:0:0:0:
173,154,107784,1,0,0:0:0:0:
173,154,107857,1,8,0:0:0:0:
173,112,107930,1,8,0:0:0:0:
174,86,108004,1,8,0:0:0:0:
174,86,108077,1,0,0:0:0:0:
116,163,108223,1,0,0:0:0:0:
124,165,108296,1,0,0:0:0:0:
125,165,108369,1,8,0:0:0:0:
125,164,108516,1,8,0:0:0:0:
125,164,108662,1,0,0:0:0:0:
125,164,108735,1,8,0:0:0:0:
125,164,108809,1,0,0:0:0:0:
125,164,108955,1,8,0:0:0:0:
124,165,109101,1,8,0:0:0:0:
121,142,109174,1,8,0:0:0:0:
229,149,109248,1,0,0:0:0:0:
233,146,109321,1,8,0:0:0:0:
233,146,109394,1,8,0:0:0:0:
233,146,109467,1,0,0:0:0:0:
233,146,109540,1,8,0:0:0:0:
209,157,109687,1,8,0:0:0:0:
300,145,109833,1,0,0:0:0:0:
216,77,109906,1,8,0:0:0:0:
216,77,109979,1,0,0:0:0:0:
216,77,110052,1,0,0:0:0:0:
216,77,110126,1,8,0:0:0:0:
211,88,110272,1,8,0:0:0:0:
211,88,110345,1,8,0:0:0:0:
211,88,110418,1,0,0:0:0:0:
196,81,110491,1,0,0:0:0:0:
210,87,110565,1,0,0:0:0:0:
210,87,110711,1,8,0:0:0:0:
197,78,110857,1,0,0:0:0:0:
197,78,110930,1,8,0:0:0:0:
197,78,111004,1,8,0:0:0:0:
197,78,111150,1,8,0:0:0:0:
188,75,111296,1,0,0:0:0:0:
189,75,111369,1,0,0:0:0:0:
189,75,111443,1,8,0:0:0:0:
199,167,111589,1,0,0:0:0:0:
199,167,111735,1,0,0:0:0:0:
199,167,111882,1,8,0:0:0:0:
199,167,112028,1,0,0:0:0:0:
149,151,112101,1,0,0:0:0:0:
199,167,112174,1,0,0:0:0:0:
224,110,112321,1,8,0:0:0:0:
224,110,112467,1,12,0:0:0:0:
221,142,112760,1,4,0:0:0:0:
198,124,112906,1,0,0:0:0:0:
198,124,112979,1,0,0:0:0:0:
202,137,113052,1,8,0:0:0:0:
218,132,113199,1,8,0:0:0:0:
190,107,113345,1,0,0:0:0:0:
190,107,113418,1,8,0:0:0:0:
190,107,113491,1,0,0:0:0:0:
193,170,113638,1,8,0:0:0:0:
187,131,113784,1,8,0:0:0:0:
187,131,113857,1,8,0:0:0:0:
187,131,113930,1,0,0:0:0:0:
187,131,114004,1,8,0:0:0:0:
187,131,114077,1,0,0:0:0:0:
187,131,114150,1,0,0:0:0:0:
188,151,114223,1,8,0:0:0:0:
185,122,114369,1,0,0:0:0:0:
185,122,114443,1,0,0:0:0:0:
185,122,114516,1,0,0:0:0:0:
185,121,114589,1,8,0:0:0:0:
185,121,114662,1,0,0:0:0:0:
185,121,114735,1,0,0:0:0:0:
188,151,114809,1,8,0:0:0:0:
190,47,114955,1,8,0:0:0:0:
190,47,115028,1,8,0:0:0:0:
188,151,115101,1,0,0:0:0:0:
200,165,115248,1,0,0:0:0:0:
200,165,115321,1,8,0:0:0:0:
188,151,115394,1,8,0:0:0:0:
194,136,115540,1,8,0:0:0:0:
188,151,115687,1,0,0:0:0:0:
188,151,115760,1,8,0:0:0:0:
188,151,115833,1,0,0:0:0:0:
188,151,115979,1,8,0:0:0:0:
239,157,116126,1,0,0:0:0:0:
239,157,116199,1,8,0:0:0:0:
239,157,116272,1,8,0:0:0:0:
239,157,116345,1,0,0:0:0:0:
239,157,116418,1,8,0:0:0:0:
188,151,116565,1,8,0:0:0:0:
173,146,116638,1,8,0:0:0:0:
224,123,116711,1,0,0:0:0:0:
224,123,116784,1,8,0:0:0:0:
188,151,116857,1,0,0:0:0:0:
188,151,117004,1,8,0:0:0:0:
224,123,117077,1,8,0:0:0:0:
188,151,117150,1,0,0:0:0:0:
218,120,117223,1,0,0:0:0:0:
180,167,117296,1,8,0:0:0:0:
180,167,117369,1,8,0:0:0:0:
188,151,117443,1,0,0:0:0:0:
186,158,117589,1,0,0:0:0:0:
186,158,117662,1,0,0:0:0:0:
180,167,117735,1,8,0:0:0:0:
196,133,117882,1,8,0:0:0:0:
192,160,118028,1,0,0:0:0:0:
192,160,118101,1,8,0:0:0:0:
192,160,118174,1,0,0:0:0:0:
180,167,118321,1,8,0:0:0:0:
180,167,118467,1,8,0:0:0:0:
196,133,118540,1,8,0:0:0:0:
180,167,118613,1,0,0:0:0:0:
166,150,118687,1,0,0:0:0:0:
171,159,118760,1,8,0:0:0:0:
172,160,118833,1,0,0:0:0:0:
172,160,118906,1,8,0:0:0:0:
173,157,119052,1,8,0:0:0:0:
180,167,119199,1,0,0:0:0:0:
209,137,119272,1,8,0:0:0:0:
180,167,119345,1,0,0:0:0:0:
180,167,119491,1,8,0:0:0:0:
179,130,119565,1,0,0:0:0:0:
209,137,119638,1,8,0:0:0:0:
180,167,119711,1,8,0:0:0:0:
189,192,119784,5,0,0:0:0:0:
189,192,119930,1,0,0:0:0:0:
179,185,120077,1,8,0:0:0:0:
179,185,120150,1,8,0:0:0:0:
179,185,120223,1,8,0:0:0:0:
179,184,120296,1,8,0:0:0:0:
179,184,120369,1,0,0:0:0:0:
187,137,120516,1,0,0:0:0:0:
187,137,120662,1,8,0:0:0:0:
187,137,120735,1,8,0:0:0:0:
187,137,120809,1,0,0:0:0:0:
171,119,120955,1,0,0:0:0:0:
170,118,121174,1,0,0:0:0:0:
170,118,121248,1,8,0:0:0:0:
170,118,121394,1,0,0:0:0:0:
134,115,121540,1,0,0:0:0:0:
163,115,121613,1,8,0:0:0:0:
163,116,121687,1,0,0:0:0:0:
164,104,121833,1,12,0:0:0:0:
164,104,122126,1,4,0:0:0:0:
157,101,122272,1,0,0:0:0:0:
157,101,122418,1,8,0:0:0:0:
157,101,122565,1,0,0:0:0:0:
174,146,122638,1,0,0:0:0:0:
157,101,122711,1,8,0:0:0:0:
158,101,122857,1,0,0:0:0:0:
157,101,123004,1,12,0:0:0:0:
157,101,123296,1,4,0:0:0:0:
201,104,123443,1,0,0:0:0:0:
201,104,123516,1,0,0:0:0:0:
201,104,123589,1,8,0:0:0:0:
201,104,123735,1,8,0:0:0:0:
196,103,123882,1,0,0:0:0:0:
196,103,123955,1,8,0:0:0:0:
196,103,124028,1,0,0:0:0:0:
208,76,124101,1,0,0:0:0:0:
191,102,124174,1,8,0:0:0:0:
191,102,124321,1,8,0:0:0:0:
191,102,124394,1,8,0:0:0:0:
191,101,124467,1,0,0:0:0:0:
228,179,124613,1,0,0:0:0:0:
228,179,124687,1,8,0:0:0:0:
228,179,124760,1,8,0:0:0:0:
228,179,124906,1,8,0:0:0:0:
228,179,125052,1,0,0:0:0:0:
228,179,125126,1,8,0:0:0:0:
228,179,125199,1,8,0:0:0:0:
192,50,125272,1,0,0:0:0:0:
228,179,125345,1,8,0:0:0:0:
228,179,125491,1,8,0:0:0:0:
228,179,125565,1,8,0:0:0:0:
255,190,125638,1,0,0:0:0:0:
255,190,125784,1,0,0:0:0:0:
184,88,125857,1,0,0:0:0:0:
255,190,125930,1,8,0:0:0:0:
174,120,126077,1,0,0:0:0:0:
174,120,126223,1,0,0:0:0:0:
156,75,126296,1,8,0:0:0:0:
156,75,126369,1,0,0:0:0:0:
165,77,126443,1,0,0:0:0:0:
165,77,126516,1,8,0:0:0:0:
165,77,126589,1,8,0:0:0:0:
165,77,126662,1,8,0:0:0:0:
165,77,126735,1,8,0:0:0:0:
165,77,126809,1,0,0:0:0:0:
227,117,126955,1,0,0:0:0:0:
227,117,127028,1,0,0:0:0:0:
227,117,127101,1,8,0:0:0:0:
227,117,127248,1,8,0:0:0:0:
212,97,127394,1,0,0:0:0:0:
212,97,127467,1,8,0:0:0:0:
212,97,127540,1,0,0:0:0:0:
212,98,127613,1,0,0:0:0:0:
212,98,127687,1,8,0:0:0:0:
188,77,127833,1,8,0:0:0:0:
188,77,127906,1,8,0:0:0:0:
188,77,127979,1,0,0:0:0:0:
276,187,128052,1,0,0:0:0:0:
276,187,128126,1,8,0:0:0:0:
188,77,128199,1,0,0:0:0:0:
188,77,128272,1,8,0:0:0:0:
182,71,128418,1,0,0:0:0:0:
262,144,128491,1,0,0:0:0:0:
182,71,128638,1,8,0:0:0:0:
181,71,128711,1,0,0:0:0:0:
208,125,128857,1,8,0:0:0:0:
208,125,128930,1,8,0:0:0:0:
208,125,129004,1,8,0:0:0:0:
273,175,129150,5,0,0:0:0:0:
273,175,129223,1,8,0:0:0:0:
273,175,129296,1,0,0:0:0:0:
273,175,129369,1,0,0:0:0:0:
273,175,129443,1,8,0:0:0:0:
273,175,129516,1,8,0:0:0:0:
273,175,129589,1,0,0:0:0:0:
273,175,129662,1,0,0:0:0:0:
273,175,129735,1,8,0:0:0:0:
198,151,129784,1,8,0:0:0:0:
198,151,129833,1,8,0:0:0:0:
198,151,129882,1,8,0:0:0:0:
267,170,129955,1,0,0:0:0:0:
217,104,130028,1,8,0:0:0:0:
217,104,130077,1,8,0:0:0:0:
217,104,130126,1,8,0:0:0:0:
264,170,130174,1,0,0:0:0:0:
279,159,130248,1,8,0:0:0:0:
205,170,130321,5,4,0:0:0:0:
205,170,130467,1,0,0:0:0:0:
205,170,130613,1,8,0:0:0:0:
205,170,130760,1,8,0:0:0:0:
205,170,130833,1,0,0:0:0:0:
205,170,130906,1,8,0:0:0:0:
205,170,130979,1,8,0:0:0:0:
205,170,131052,1,0,0:0:0:0:
205,170,131199,1,12,0:0:0:0:
201,150,131491,1,4,0:0:0:0:
201,150,131638,1,0,0:0:0:0:
201,149,131784,1,8,0:0:0:0:
196,141,131930,1,0,0:0:0:0:
196,140,132004,1,0,0:0:0:0:
196,139,132077,1,0,0:0:0:0:
196,139,132223,5,0,0:0:0:0:
196,139,132369,1,8,0:0:0:0:
196,139,132516,1,0,0:0:0:0:
196,139,132589,1,0,0:0:0:0:
196,141,132662,1,8,0:0:0:0:
196,140,132809,1,0,0:0:0:0:
196,139,132955,1,8,0:0:0:0:
123,151,133028,1,8,0:0:0:0:
197,93,133101,1,0,0:0:0:0:
123,151,133174,1,0,0:0:0:0:
196,139,133248,1,8,0:0:0:0:
184,161,133394,5,8,0:0:0:0:
184,161,133467,1,0,0:0:0:0:
184,161,133540,1,8,0:0:0:0:
192,158,133687,1,8,0:0:0:0:
192,158,133833,1,0,0:0:0:0:
212,135,133979,1,0,0:0:0:0:
212,135,134126,1,8,0:0:0:0:
224,159,134272,1,0,0:0:0:0:
224,159,134345,1,0,0:0:0:0:
224,159,134418,1,0,0:0:0:0:
224,159,134491,1,8,0:0:0:0:
224,159,134565,1,0,0:0:0:0:
224,159,134711,1,8,0:0:0:0:
206,150,134857,1,0,0:0:0:0:
212,135,135004,5,4,0:0:0:0:
160,161,135199,1,0,0:0:0:0:
173,161,135296,1,8,0:0:0:0:
166,156,135491,1,0,0:0:0:0:
166,156,135589,1,8,0:0:0:0:
166,156,135687,1,0,0:0:0:0:
166,156,135784,1,0,0:0:0:0:
166,156,135882,1,12,0:0:0:0:
156,155,136174,1,4,0:0:0:0:
240,171,136321,1,8,0:0:0:0:
146,144,136394,1,0,0:0:0:0:
240,171,136467,1,8,0:0:0:0:
143,146,136613,1,0,0:0:0:0:
143,146,136687,1,0,0:0:0:0:
143,146,136760,1,8,0:0:0:0:
201,124,136906,1,8,0:0:0:0:
258,153,137052,1,0,0:0:0:0:
258,153,137126,1,0,0:0:0:0:
258,153,137199,1,8,0:0:0:0:
154,136,137272,1,8,0:0:0:0:
244,144,137345,1,0,0:0:0:0:
244,144,137418,1,0,0:0:0:0:
244,144,137491,1,8,0:0:0:0:
263,130,137638,1,8,0:0:0:0:
239,136,137784,1,0,0:0:0:0:
239,136,137857,1,0,0:0:0:0:
239,136,137930,1,8,0:0:0:0:
241,136,138077,1,8,0:0:0:0:
221,131,138223,1,0,0:0:0:0:
220,80,138296,1,0,0:0:0:0:
220,80,138369,1,8,0:0:0:0:
207,92,138443,1,0,0:0:0:0:
203,120,138516,1,8,0:0:0:0:
203,120,138589,1,8,0:0:0:0:
203,120,138662,1,0,0:0:0:0:
202,119,138735,1,0,0:0:0:0:
202,119,138809,1,8,0:0:0:0:
202,119,138882,1,8,0:0:0:0:
202,119,138955,1,0,0:0:0:0:
202,119,139028,1,0,0:0:0:0:
202,119,139101,1,8,0:0:0:0:
201,118,139174,1,0,0:0:0:0:
201,118,139248,1,0,0:0:0:0:
203,120,139321,1,0,0:0:0:0:
139,160,139394,1,8,0:0:0:0:
205,119,139467,1,8,0:0:0:0:
205,119,139540,1,8,0:0:0:0:
205,119,139613,1,8,0:0:0:0:
205,119,139687,1,4,0:0:0:0:
168,160,139833,1,8,0:0:0:0:
168,160,139979,1,8,0:0:0:0:
168,160,140272,1,8,0:0:0:0:
168,160,140418,1,0,0:0:0:0:
212,182,140491,1,0,0:0:0:0:
168,160,140565,1,0,0:0:0:0:
168,160,140711,1,8,0:0:0:0:
205,179,140857,5,4,0:0:0:0:
