osu file format v14

[General]
AudioFilename: beatmap-637163971046029418-strshl.mp3
AudioLeadIn: 0
PreviewTime: 74960
Countdown: 0
SampleSet: Soft
StackLeniency: 0.7
Mode: 2
LetterboxInBreaks: 0
WidescreenStoryboard: 1

[Editor]
Bookmarks: 84692
DistanceSpacing: 0.8
BeatDivisor: 4
GridSize: 32
TimelineZoom: 3.499999

[Metadata]
Title:SAIKYO STRONGER
TitleUnicode:最強STRONGER
Artist:REDALiCE vs. USAO
ArtistUnicode:REDALiCE vs. USAO
Creator:Jemzuu
Version:SALAD
Source:Arcaea
Tags:ajamez -momox zyzyx rocma alienflybot HARDCORE TANO*C DORO*C Collaboration Memory Archive video game electronic instrumental saikyou
BeatmapID:2312678
BeatmapSetID:1105820

[Difficulty]
HPDrainRate:4
CircleSize:3
OverallDifficulty:7
ApproachRate:7
SliderMultiplier:1.4
SliderTickRate:1

[Events]
//Background and Video events
0,0,"948030.jpg",0,0
//Break Periods
2,66130,67372
//Storyboard Layer 0 (Background)
//Storyboard Layer 1 (Fail)
//Storyboard Layer 2 (Pass)
//Storyboard Layer 3 (Foreground)
//Storyboard Layer 4 (Overlay)
//Storyboard Sound Samples

[TimingPoints]
370,292.682926829268,4,2,2,40,1,0
370,-100,4,2,2,40,0,0
3882,-100,4,2,2,40,0,0
5052,-100,4,2,2,40,0,0
7101,-100,4,2,2,40,0,0
8272,-100,4,2,2,40,0,0
8565,-100,4,2,2,80,0,0
8857,-100,4,2,2,60,0,0
9150,-100,4,2,2,40,0,0
9735,-100,4,1,2,50,0,0
10906,-100,4,1,2,60,0,0
11491,-100,4,1,2,70,0,0
11784,-100,4,1,2,70,0,0
12077,-100,4,1,2,60,0,0
13248,-100,4,2,2,40,0,0
13833,-100,4,2,2,40,0,0
14126,-100,4,1,2,60,0,0
14418,-100,4,1,2,50,0,0
17930,-100,4,1,2,60,0,0
18077,-100,4,1,2,60,0,0
18516,-100,4,1,2,60,0,0
18662,-100,4,1,2,60,0,0
18809,-100,4,1,2,90,0,0
19101,-100,4,1,2,80,0,0
19394,-100,4,1,2,80,0,0
19979,-100,4,1,2,80,0,0
20272,-100,4,1,2,80,0,0
20565,-100,4,1,2,80,0,0
20857,-100,4,1,2,80,0,0
21150,-100,4,1,2,80,0,0
21443,-100,4,1,2,60,0,0
21589,-100,4,1,2,60,0,0
22613,-100,4,1,2,60,0,0
22906,-100,4,1,2,60,0,0
23199,-100,4,1,2,60,0,0
23784,-100,4,1,2,80,0,0
24077,-100,4,1,2,80,0,0
24662,-100,4,1,2,80,0,0
24955,-100,4,1,2,80,0,0
25248,-100,4,1,2,80,0,0
25540,-100,4,1,2,80,0,0
26126,-100,4,1,2,80,0,0
26418,-100,4,1,2,80,0,0
26711,-100,4,3,5,80,0,0
26857,-100,4,1,2,80,0,0
27296,-100,4,1,2,80,0,0
27589,-100,4,1,2,70,0,0
27882,-100,4,1,2,60,0,0
28174,-100,4,1,2,70,0,0
28467,-100,4,1,2,70,0,0
28760,-100,4,1,2,70,0,0
29345,-100,4,1,2,70,0,0
29638,-100,4,1,2,70,0,0
30223,-100,4,1,2,70,0,0
30516,-100,4,1,2,70,0,0
30809,-100,4,1,2,70,0,0
31979,-100,4,1,2,60,0,0
32857,-100,4,1,2,60,0,0
33150,-100,4,1,2,60,0,0
33443,-100,4,1,2,60,0,0
33735,-100,4,1,2,60,0,0
34028,-100,4,1,2,60,0,0
34321,-100,4,1,2,60,0,0
34906,-100,4,1,2,80,0,0
35199,-100,4,1,2,80,0,0
35491,-100,4,1,2,60,0,0
35784,-100,4,1,2,60,0,0
36077,-100,4,1,2,60,0,0
36369,-100,4,1,2,60,0,0
36516,-100,4,1,2,60,0,0
36662,-100,4,1,2,60,0,0
36955,-100,4,1,2,60,0,0
37248,-100,4,1,2,60,0,0
37540,-100,4,1,2,60,0,0
37833,-100,4,1,2,60,0,0
38126,-100,4,1,2,60,0,0
38418,-100,4,1,2,60,0,0
39004,-100,4,1,2,60,0,0
39296,-100,4,1,2,60,0,0
39589,-100,4,1,2,60,0,0
39882,-100,4,1,2,80,0,0
40028,-100,4,1,2,60,0,0
40174,-100,4,1,2,60,0,0
40467,-100,4,1,2,60,0,0
40760,-100,4,1,2,60,0,0
41052,-100,4,1,2,60,0,0
41199,-100,4,1,2,60,0,0
41491,-100,4,1,2,60,0,0
41638,-100,4,1,2,60,0,0
41930,-100,4,1,2,60,0,0
42516,-100,4,1,2,60,0,0
43394,-100,4,1,2,60,0,0
43687,-100,4,1,2,60,0,0
44857,-100,4,1,2,60,0,0
45589,-100,4,1,2,60,0,0
46028,-100,4,1,2,60,0,0
46613,-100,4,1,2,60,0,0
47199,-100,4,1,2,60,0,0
47784,-100,4,1,2,60,0,0
48369,-100,4,1,2,60,0,0
48955,-100,4,1,2,60,0,0
49833,-100,4,1,2,60,0,0
50126,-100,4,1,2,60,0,0
50711,-100,4,1,2,60,0,0
51296,-100,4,1,2,60,0,0
51589,-100,4,1,2,60,0,0
51882,-100,4,1,2,60,0,0
52321,-100,4,1,2,60,0,0
52760,-100,4,1,2,60,0,0
53052,-100,4,1,2,60,0,0
53784,-100,4,1,2,60,0,0
53930,-100,4,1,2,60,0,0
54223,-100,4,1,2,60,0,0
55394,-100,4,1,2,60,0,0
55687,-100,4,1,2,60,0,0
55979,-100,4,1,2,60,0,0
56565,-100,4,1,2,60,0,0
58613,-100,4,1,2,60,0,0
58906,-100,4,1,2,60,0,0
59199,-100,4,1,2,60,0,0
59491,-100,4,1,2,60,0,0
60077,-100,4,1,2,60,0,0
60662,-100,4,1,2,60,0,0
61248,-100,4,1,2,60,0,0
63296,-100,4,1,2,60,0,0
63589,-100,4,1,2,60,0,0
64028,-100,4,1,2,60,0,0
64467,-100,4,1,2,60,0,0
64760,-100,4,1,2,60,0,0
65784,-100,4,1,2,60,0,0
65930,-100,4,2,2,40,0,0
69443,-100,4,2,2,40,0,0
70613,-100,4,1,2,40,0,0
70906,-100,4,3,5,60,0,0
70924,-100,4,1,2,40,0,0
71491,-100,4,3,6,60,0,0
71509,-100,4,1,2,40,0,0
72077,-100,4,3,5,60,0,0
72095,-100,4,1,2,40,0,0
72662,-100,4,3,6,60,0,0
72680,-100,4,1,2,60,0,0
73248,-100,4,3,5,60,0,0
73266,-100,4,1,2,40,0,0
73833,-100,4,3,6,60,0,0
73851,-100,4,1,2,40,0,0
74126,-100,4,1,2,40,0,0
74418,-100,4,1,2,40,0,0
74711,-100,4,1,2,40,0,0
75004,-100,4,1,2,60,0,0
75296,-100,4,1,2,60,0,0
76467,-100,4,1,2,60,0,0
77638,-100,4,1,2,60,0,0
78955,-100,4,1,2,60,0,0
79540,-100,4,1,2,60,0,0
79687,-100,4,1,2,60,0,0
79979,-100,4,1,2,60,0,0
81735,-100,4,1,2,60,0,0
82028,-100,4,1,2,60,0,0
82321,-100,4,1,2,60,0,0
82613,-100,4,1,2,60,0,0
82906,-100,4,1,2,60,0,0
83491,-100,4,1,2,60,0,0
83784,-100,4,1,2,45,0,0
84077,-100,4,1,2,30,0,0
84369,-100,4,1,2,30,0,0
84370,-100,4,3,5,80,0,0
85540,-100,4,3,3,60,0,0
85833,-100,4,3,3,70,0,0
86711,-100,4,3,3,70,0,0
87004,-100,4,3,3,80,0,0
87882,-100,4,3,3,80,0,0
88174,-100,4,3,3,80,0,0
88467,-100,4,3,3,90,0,0
88760,-100,4,3,3,90,0,0
89052,-100,4,3,3,90,0,0
89345,-100,4,3,3,90,0,0
90516,-100,4,3,3,80,0,0
90809,-100,4,3,3,70,0,0
91101,-100,4,3,3,60,0,0
91394,-100,4,3,3,50,0,0
91687,-100,4,1,2,40,0,0
91979,-100,4,1,2,40,0,0
92857,-100,4,1,2,50,0,0
93150,-100,4,1,2,60,0,0
93443,-100,4,1,2,70,0,0
93735,-100,4,1,2,70,0,0
94028,-100,4,1,2,80,0,0
102809,-100,4,1,2,80,0,0
103394,-100,4,1,2,60,0,0
104418,-100,4,1,2,60,0,0
105004,-100,4,1,2,60,0,0
105735,-100,4,1,2,60,0,0
111589,-100,4,1,2,60,0,0
112174,-100,4,1,2,60,0,0
112760,-100,4,1,10,90,0,1
112906,-100,4,1,2,90,0,1
116857,-100,4,1,2,90,0,1
117443,-100,4,1,2,90,0,1
121833,-100,4,1,2,90,0,1
122126,-100,4,1,2,60,0,0
122748,-100,4,1,2,60,0,0
123004,-100,4,3,5,60,0,0
123296,-100,4,1,2,90,0,1
129735,-100,4,1,2,90,0,1
130321,-100,4,1,2,90,0,1
131199,-100,4,1,2,90,0,1
131491,-100,4,1,2,60,0,0
131784,-100,4,1,2,60,0,0
132077,-100,4,1,2,60,0,0
132369,-100,4,1,2,60,0,0
132662,-100,4,1,2,60,0,0
132955,-100,4,1,2,60,0,0
133248,-100,4,1,2,60,0,0
134711,-100,4,1,2,60,0,0
135004,-100,4,1,2,60,0,0
135150,-100,4,3,3,60,0,0
135296,-100,4,3,3,60,0,0
135589,-100,4,3,3,60,0,0
135882,-100,4,3,3,60,0,0
136174,-100,4,1,2,60,0,0
139687,-100,4,1,2,50,0,0
140272,-90.9090909090909,4,1,2,50,0,0
140565,-100,4,1,6,50,0,0
140638,-100,4,1,2,50,0,0
140857,-100,4,3,5,70,0,0
141150,-100,4,3,5,20,0,0

[Colours]
Combo1 : 192,192,192
Combo2 : 255,113,113
Combo3 : 191,0,0

[HitObjects]
65,341,370,6,0,L|79:188,1,140,12|2,0:0|0:0,0:0:0:0:
149,185,809,1,2,0:0:0:0:
294,179,1101,2,0,L|306:106,1,70,2|2,0:0|0:0,0:0:0:0:
85,62,1687,1,8,0:0:0:0:
57,123,1833,1,2,0:0:0:0:
88,184,1979,1,2,0:0:0:0:
154,198,2126,2,0,L|317:201,1,140,2|2,0:0|0:0,0:0:0:0:
461,362,2711,6,0,L|441:215,1,140,2|2,0:0|0:0,0:0:0:0:
365,198,3150,1,2,0:0:0:0:
210,174,3443,2,0,L|200:91,1,70,2|2,0:0|0:0,0:0:0:0:
365,35,3882,2,0,L|217:29,1,140,2|2,0:0|0:0,0:0:0:0:
384,155,4467,2,0,L|475:167,2,70,2|2|8,0:0|0:0|0:0,0:0:0:0:
226,218,5052,5,2,0:0:0:0:
292,216,5198,1,0,0:0:0:0:
327,273,5344,1,2,0:0:0:0:
296,332,5491,1,2,0:0:0:0:
151,371,5784,2,0,L|51:378,1,70,2|2,0:0|0:0,0:0:0:0:
301,230,6369,6,0,L|374:240,2,70,8|2|2,0:0|0:0|0:0,0:0:0:0:
225,244,6809,2,0,P|202:192|255:113,1,140,2|2,0:0|0:0,0:0:0:0:
397,40,7394,2,0,L|250:30,1,140,2|2,0:0|0:0,0:0:0:0:
186,28,7833,1,2,0:0:0:0:
265,129,7979,2,0,L|364:140,2,70,2|2|2,0:0|0:0|0:0,0:0:0:0:
20,267,8565,6,0,L|165:273,1,140,2|2,0:0|0:0,0:0:0:0:
305,297,9150,1,2,0:0:0:0:
341,240,9296,1,0,0:0:0:0:
317,177,9442,1,2,0:0:0:0:
252,160,9589,1,0,0:0:0:0:
415,125,9735,6,0,L|429:278,1,140,2|8,0:0|0:0,0:0:0:0:
350,319,10174,2,0,L|261:338,1,70,0|0,0:0|0:0,0:0:0:0:
113,373,10613,2,0,L|96:293,1,70,8|0,0:0|0:0,0:0:0:0:
175,257,10906,2,0,L|328:226,1,140,8|8,0:0|0:0,0:0:0:0:
166,136,11491,2,0,L|17:122,1,140,8|8,0:0|0:0,0:0:0:0:
292,55,12077,6,0,P|325:126|263:174,1,140,2|8,0:0|0:0,0:0:0:0:
203,190,12516,2,0,P|156:207|165:298,1,140,8|4,0:0|0:0,0:0:0:0:
229,327,12955,2,0,L|326:344,1,70,8|8,0:0|0:0,0:0:0:0:
467,358,13248,6,0,L|491:210,3,140,8|2|8|4,0:0|0:0|0:0|0:0,0:0:0:0:
421,183,14272,1,0,0:0:0:0:
256,190,14418,6,0,L|226:344,1,140,4|2,0:0|0:0,0:0:0:0:
63,366,15004,2,0,L|39:210,1,140,4|2,0:0|0:0,0:0:0:0:
193,209,15589,2,0,L|217:54,1,140,4|2,0:0|0:0,0:0:0:0:
373,64,16174,2,0,L|400:217,1,140,4|2,0:0|0:0,0:0:0:0:
322,234,16613,1,4,0:0:0:0:
244,280,16760,6,0,L|393:294,1,140,4|2,0:0|0:0,0:0:0:0:
231,376,17345,2,0,L|72:386,1,140,4|2,0:0|0:0,0:0:0:0:
350,351,17930,1,4,0:0:0:0:
423,358,18077,2,0,P|441:304|359:255,1,140,0|4,0:0|0:0,0:0:0:0:
321,234,18515,5,0,0:0:0:0:
296,172,18661,1,4,0:0:0:0:
332,115,18808,1,2,0:3:0:0:
399,110,18954,1,0,0:0:0:0:
235,67,19101,6,0,L|152:46,2,70,4|0|8,0:3|0:0|0:0,0:0:0:0:
308,91,19540,2,0,P|310:146|233:197,1,140,4|4,0:0|0:0,0:0:0:0:
170,204,19979,1,8,0:0:0:0:
14,338,20272,2,0,P|81:364|168:362,1,140,4|8,0:0|0:3,0:0:0:0:
304,339,20857,2,0,L|317:258,2,70,4|4|8,0:0|0:0|0:0,0:0:0:0:
472,342,21443,6,0,P|472:283|382:232,1,140,2|2,0:0|0:0,0:0:0:0:
254,143,21882,2,0,L|156:163,2,70,2|4|4,0:0|0:0|0:0,0:0:0:0:
330,62,22321,2,0,L|245:53,1,70,2|2,0:0|0:0,0:0:0:0:
92,130,22613,6,0,L|50:285,2,140,4|2|4,0:0|0:0|0:0,0:0:0:0:
228,262,23491,2,0,L|309:266,1,70,4|0,0:0|0:0,0:0:0:0:
465,344,23784,5,4,0:3:0:0:
493,282,23930,1,0,0:0:0:0:
461,223,24076,1,8,0:0:0:0:
394,214,24223,2,0,L|234:178,1,140,4|4,0:0|0:0,0:0:0:0:
330,138,24662,1,8,0:0:0:0:
177,89,24955,6,0,L|39:38,2,140,4|8|4,0:0|0:3|0:0,0:0:0:0:
251,110,25687,1,4,0:0:0:0:
181,179,25833,2,0,L|93:192,1,70,8|0,0:0|0:0,0:0:0:0:
269,310,26126,6,0,P|337:331|423:317,1,140,2|8,0:0|0:0,0:0:0:0:
477,279,26565,1,8,0:0:0:0:
400,251,26711,1,4,0:3:0:0:
248,160,27004,2,0,L|154:145,1,70,0|0,0:0|0:0,0:0:0:0:
252,109,27296,6,0,L|399:90,1,140,2|2,0:0|0:0,0:0:0:0:
319,68,27735,1,0,0:0:0:0:
469,39,28028,2,0,L|483:111,1,70,0|2,0:0|0:3,0:0:0:0:
214,180,28467,6,0,P|177:211|221:288,1,140,4|8,0:0|0:0,0:0:0:0:
274,322,28906,1,0,0:0:0:0:
349,329,29052,1,0,0:0:0:0:
103,368,29345,6,0,P|43:343|49:258,1,140,8|0,0:0|0:0,0:0:0:0:
105,233,29784,1,4,0:0:0:0:
177,214,29930,1,8,0:0:0:0:
106,182,30077,1,0,0:0:0:0:
35,171,30223,1,0,0:0:0:0:
166,87,30516,2,0,L|243:68,1,70,8|8,0:0|0:0,0:0:0:0:
396,107,30809,6,0,L|411:225,1,105,8|8,0:0|0:0,0:0:0:0:
277,237,31248,2,0,L|262:355,1,105,8|8,0:0|0:0,0:0:0:0:
372,377,31687,2,0,L|452:375,1,70,8|8,0:0|0:0,0:0:0:0:
280,359,31979,5,2,0:0:0:0:
177,273,32271,1,0,0:0:0:0:
205,143,32564,1,0,0:0:0:0:
334,108,32857,1,2,0:0:0:0:
64,67,33150,6,0,L|48:229,1,140,4|8,0:0|0:0,0:0:0:0:
121,249,33589,1,0,0:0:0:0:
201,268,33735,1,0,0:0:0:0:
39,344,34028,1,2,0:0:0:0:
301,367,34321,6,0,L|321:218,1,140,8|8,0:0|0:0,0:0:0:0:
460,198,34906,2,0,L|444:115,1,70,4|0,0:0|0:0,0:0:0:0:
272,95,35199,1,8,0:0:0:0:
385,282,35491,6,0,L|234:314,1,140,0|8,0:0|0:0,0:0:0:0:
75,33,36077,1,2,0:0:0:0:
202,78,36369,1,8,0:0:0:0:
252,204,36662,1,0,0:0:0:0:
189,325,36955,1,8,0:0:0:0:
57,356,37248,2,0,P|91:297|172:258,1,140,2|8,0:0|0:0,0:0:0:0:
220,255,37687,1,0,0:0:0:0:
383,271,37833,6,0,L|409:108,1,140,0|8,0:0|0:0,0:0:0:0:
242,130,38418,2,0,L|220:-24,1,140,2|8,0:0|0:0,0:0:0:0:
397,309,39004,2,0,L|232:329,1,140,4|8,0:0|0:0,0:0:0:0:
185,351,39443,1,0,0:0:0:0:
22,233,39589,2,0,P|23:165|70:80,1,140,8|2,0:0|0:3,0:0:0:0:
316,30,40174,6,0,L|174:78,2,140,4|8|2,0:0|0:0|0:0,0:0:0:0:
382,135,40906,1,0,0:0:0:0:
315,218,41052,1,8,0:0:0:0:
473,250,41345,2,0,L|484:402,1,140,2|8,0:0|0:0,0:0:0:0:
406,380,41784,1,8,0:0:0:0:
323,374,41930,1,2,0:0:0:0:
485,126,42223,1,8,0:0:0:0:
214,96,42516,6,0,L|198:262,1,140,2|4,0:0|0:0,0:0:0:0:
272,251,42955,1,2,0:0:0:0:
194,300,43101,2,0,L|110:317,2,70,8|8|2,0:0|0:0|0:0,0:0:0:0:
470,356,43687,6,0,P|411:310|337:305,1,140,4|0,0:0|0:0,0:0:0:0:
26,97,44857,6,0,L|319:70,1,280,4|4,0:3|0:0,0:0:0:0:
311,236,45735,1,0,0:0:0:0:
49,340,46028,2,0,L|42:190,1,140,4|4,0:0|0:0,0:0:0:0:
206,126,46613,2,0,L|52:118,1,140,2|0,0:0|0:0,0:0:0:0:
349,80,47199,6,0,P|368:139|301:204,1,140,4|8,0:0|0:0,0:0:0:0:
249,232,47638,1,0,0:0:0:0:
327,273,47784,1,2,0:0:0:0:
471,303,48077,1,8,0:0:0:0:
219,372,48369,6,0,L|61:344,1,140,2|8,0:0|0:0,0:0:0:0:
246,280,48955,2,0,L|265:124,1,140,8|8,0:0|0:0,0:0:0:0:
188,109,49394,1,0,0:0:0:0:
27,109,49540,6,0,L|57:256,1,140,4|8,0:0|0:0,0:0:0:0:
126,275,49979,1,0,0:0:0:0:
204,282,50126,1,4,0:0:0:0:
55,373,50418,2,0,L|146:378,1,70,8|0,0:0|0:0,0:0:0:0:
290,337,50711,5,4,0:0:0:0:
439,195,51004,2,0,L|350:193,1,70,8|0,0:0|0:0,0:0:0:0:
226,102,51443,2,0,L|131:97,1,70,0|8,0:0|0:0,0:0:0:0:
427,36,51882,6,0,P|442:92|369:155,1,140,0|8,0:0|0:0,0:0:0:0:
316,178,52321,2,0,L|305:253,1,70,0|0,0:0|0:0,0:0:0:0:
459,331,52760,1,8,0:0:0:0:
208,366,53052,6,0,L|58:349,1,140,0|8,0:0|0:0,0:0:0:0:
133,331,53491,1,4,0:0:0:0:
159,268,53637,1,8,0:0:0:0:
125,210,53784,1,0,0:0:0:0:
58,201,53930,1,8,0:0:0:0:
312,213,54223,6,0,L|328:98,1,105,4|4,0:0|0:0,0:0:0:0:
202,100,54662,2,0,L|178:218,1,105,4|4,0:0|0:0,0:0:0:0:
68,300,55101,2,0,L|138:320,1,70,8|4,0:0|0:0,0:0:0:0:
302,365,55394,6,0,L|444:324,1,140,8|8,0:0|0:0,0:0:0:0:
275,234,55979,1,8,0:0:0:0:
205,224,56125,1,4,0:0:0:0:
136,215,56271,1,8,0:0:0:0:
416,237,56565,6,0,P|474:197|455:106,1,140,4|8,0:0|0:0,0:0:0:0:
404,96,57004,1,0,0:0:0:0:
330,86,57150,1,2,0:0:0:0:
478,24,57443,1,8,0:0:0:0:
222,144,57735,6,0,P|186:200|219:285,1,140,2|8,0:0|0:0,0:0:0:0:
280,313,58174,1,4,0:0:0:0:
206,347,58321,1,8,0:0:0:0:
58,343,58613,2,0,L|145:335,1,70,8|0,0:0|0:0,0:0:0:0:
210,336,58906,6,0,P|265:320|283:221,1,140,4|8,0:0|0:0,0:0:0:0:
211,221,59345,2,0,L|122:227,1,70,0|2,0:0|0:0,0:0:0:0:
297,97,59784,1,8,0:0:0:0:
41,267,60077,2,0,P|51:330|140:350,1,140,2|8,0:0|0:0,0:0:0:0:
190,360,60516,1,0,0:0:0:0:
352,349,60662,5,2,0:0:0:0:
348,262,60955,2,0,L|263:245,1,70,2|2,0:0|0:0,0:0:0:0:
448,243,61248,5,4,0:3:0:0:
479,182,61394,1,0,0:0:0:0:
451,120,61540,1,8,0:0:0:0:
386,103,61687,1,4,0:0:0:0:
223,87,61979,2,0,L|137:105,2,70,4|8|0,0:0|0:0|0:0,0:0:0:0:
483,261,62565,6,0,L|410:306,1,70,0|8,0:0|0:0,0:0:0:0:
350,328,62857,2,0,P|307:306|319:200,1,140,4|0,0:0|0:0,0:0:0:0:
376,195,63296,1,8,0:0:0:0:
118,371,63589,6,0,P|61:361|35:268,1,140,8|8,0:0|0:0,0:0:0:0:
116,269,64028,2,0,P|173:259|199:166,1,140,4|4,0:0|0:0,0:0:0:0:
131,136,64467,1,8,0:0:0:0:
50,118,64613,1,4,0:0:0:0:
221,55,64760,6,0,L|365:89,2,140,2|8|0,0:3|0:0|0:0,0:0:0:0:
146,54,65491,1,4,0:0:0:0:
225,57,65638,1,8,0:0:0:0:
489,255,65930,5,8,0:0:0:0:
256,192,68272,12,0,70321,0:0:0:0:
314,261,70613,6,0,L|334:106,1,140,2|4,0:0|0:0,0:0:0:0:
262,104,71052,1,2,0:0:0:0:
61,123,71491,2,0,P|42:177|150:266,1,210,4|2,0:0|0:0,0:0:0:0:
210,266,72077,1,4,0:0:0:0:
63,344,72369,1,2,0:0:0:0:
212,371,72662,1,4,0:0:0:0:
363,380,72955,6,0,L|377:220,1,140,2|4,0:0|0:0,0:0:0:0:
205,210,73540,2,0,L|178:57,1,140,2|4,0:0|0:0,0:0:0:0:
451,41,74126,6,0,P|419:86|318:109,1,140,2|2,0:0|0:0,0:0:0:0:
178,220,74711,1,2,0:0:0:0:
225,269,74857,1,4,0:0:0:0:
293,277,75003,1,8,0:0:0:0:
30,344,75296,6,0,L|36:188,1,140,8|8,0:0|0:0,0:0:0:0:
110,164,75735,1,8,0:0:0:0:
266,142,76028,2,0,L|353:150,2,70,0|8|8,0:0|0:0|0:0,0:0:0:0:
410,325,76613,2,0,L|501:328,1,70,0|2,0:0|0:0,0:0:0:0:
405,372,76906,2,0,P|326:374|250:335,1,140,2|2,0:0|0:0,0:0:0:0:
344,316,77345,1,2,0:0:0:0:
85,344,77638,6,0,P|39:318|53:226,1,140,8|8,0:0|0:0,0:0:0:0:
117,211,78077,1,8,0:0:0:0:
254,113,78369,2,0,L|170:109,2,70,0|8|8,0:0|0:0|0:0,0:0:0:0:
410,166,78955,1,0,0:0:0:0:
343,175,79101,1,2,0:0:0:0:
312,235,79247,1,2,0:0:0:0:
343,295,79394,1,4,0:0:0:0:
485,337,79687,1,8,0:0:0:0:
225,365,79979,6,0,L|75:341,1,140,2|2,0:0|0:0,0:0:0:0:
154,310,80418,1,2,0:0:0:0:
228,295,80565,2,0,L|234:224,1,70,4|4,0:0|0:0,0:0:0:0:
73,209,80857,6,0,P|34:190|64:108,1,140,2|2,0:0|0:0,0:0:0:0:
121,84,81296,1,4,0:0:0:0:
190,79,81443,1,2,0:0:0:0:
117,46,81589,1,4,0:0:0:0:
41,48,81735,2,0,L|197:71,1,140,8|4,0:0|0:0,0:0:0:0:
451,127,82321,6,0,P|456:184|373:234,1,140,8|8,0:0|0:0,0:0:0:0:
323,283,82760,1,0,0:0:0:0:
244,297,82906,1,8,0:0:0:0:
409,368,83199,1,4,0:0:0:0:
150,359,83491,5,4,0:3:0:0:
36,348,83784,1,4,0:3:0:0:
36,348,84077,1,4,0:3:0:0:
36,348,84369,1,2,0:0:0:0:
302,266,84662,6,0,P|264:218|163:200,1,140,4|8,0:0|0:0,0:0:0:0:
304,121,85150,1,8,0:0:0:0:
357,105,85248,2,0,L|515:124,1,140,2|8,0:0|0:0,0:0:0:0:
239,217,85833,6,0,L|224:367,1,140,2|8,0:0|0:0,0:0:0:0:
110,352,86321,1,8,0:0:0:0:
62,324,86418,2,0,L|224:291,1,140,2|8,0:0|0:0,0:0:0:0:
462,140,87004,6,0,P|427:94|336:69,1,140,2|8,0:0|0:0,0:0:0:0:
243,82,87491,1,8,0:0:0:0:
294,150,87589,2,0,L|449:160,1,140,2|8,0:0|0:0,0:0:0:0:
155,349,88174,6,0,L|142:196,1,140,2|8,0:0|0:0,0:0:0:0:
257,169,88662,1,8,0:0:0:0:
314,174,88760,2,0,L|331:33,1,140,2|12,0:0|0:0,0:0:0:0:
61,332,89345,6,0,L|215:268,2,140,2|8|0,0:0|0:0|0:0,0:0:0:0:
189,364,90223,2,0,L|274:370,1,70,8|0,0:0|0:0,0:0:0:0:
336,366,90516,5,2,0:0:0:0:
209,317,90808,1,8,0:0:0:0:
165,189,91101,1,0,0:0:0:0:
237,74,91394,1,8,0:0:0:0:
499,52,91686,5,2,0:0:0:0:
475,327,92272,2,0,L|316:344,1,140,8|8,0:0|0:0,0:0:0:0:
65,184,92857,2,0,L|369:167,1,280,8|8,0:0|0:0,0:0:0:0:
349,56,93735,1,8,0:0:0:0:
70,114,94028,5,4,0:3:0:0:
42,176,94174,1,0,0:0:0:0:
70,238,94320,1,8,0:0:0:0:
135,258,94467,1,4,0:0:0:0:
281,345,94760,2,0,L|189:369,2,70,4|8|0,0:0|0:0|0:0,0:0:0:0:
433,270,95345,2,0,L|345:257,1,70,0|8,0:0|0:0,0:0:0:0:
288,225,95638,2,0,P|266:176|328:109,1,140,4|4,0:0|0:0,0:0:0:0:
392,109,96077,1,8,0:0:0:0:
126,44,96369,6,0,L|48:28,2,70,4|0|8,0:3|0:0|0:0,0:0:0:0:
208,57,96809,2,0,P|217:118|146:175,1,140,4|4,0:0|0:0,0:0:0:0:
91,190,97248,1,8,0:0:0:0:
167,172,97394,1,8,0:0:0:0:
317,343,97687,2,0,L|225:326,1,70,0|8,0:0|0:3,0:0:0:0:
86,370,97979,2,0,P|55:360|50:258,1,140,0|4,0:0|0:0,0:0:0:0:
116,243,98418,1,8,0:0:0:0:
381,234,98711,5,4,0:3:0:0:
413,174,98857,1,0,0:0:0:0:
387,112,99003,1,8,0:0:0:0:
322,95,99150,1,4,0:0:0:0:
474,38,99443,2,0,L|494:116,2,70,4|8|4,0:0|0:0|0:0,0:0:0:0:
305,321,100028,2,0,L|389:333,1,70,4|8,0:0|0:0,0:0:0:0:
450,340,100321,2,0,P|470:286|406:210,1,140,0|4,0:0|0:0,0:0:0:0:
358,209,100760,1,8,0:0:0:0:
95,151,101052,6,0,L|12:140,1,70,8|4,0:0|0:0,0:0:0:0:
99,86,101345,2,0,P|194:98|242:122,1,140,8|8,0:0|0:0,0:0:0:0:
160,158,101784,1,4,0:0:0:0:
230,197,101930,1,8,0:0:0:0:
301,218,102077,1,8,0:0:0:0:
130,284,102223,6,0,L|43:159,3,140,8|8|2|2,0:0|0:0|0:0|0:0,0:0:0:0:
124,136,103248,1,2,0:0:0:0:
303,124,103394,5,4,0:3:0:0:
474,129,103833,2,0,P|493:200|444:276,1,140,0|0,0:0|0:0,0:0:0:0:
205,349,104418,6,0,L|354:363,1,140,2|2,0:0|0:0,0:0:0:0:
419,331,104857,1,2,0:0:0:0:
336,290,105004,2,0,L|186:271,1,140,2|2,0:0|0:0,0:0:0:0:
120,214,105443,1,2,0:0:0:0:
392,123,105735,6,0,L|475:107,2,70,4|0|8,0:3|0:0|0:0,0:0:0:0:
317,139,106174,2,0,L|299:300,1,140,4|4,0:0|0:0,0:0:0:0:
373,326,106613,1,8,0:0:0:0:
448,338,106760,1,0,0:0:0:0:
290,368,107052,2,0,L|211:336,1,70,0|8,0:0|0:0,0:0:0:0:
308,312,107345,2,0,L|451:229,2,140,8|0|4,0:0|0:0|0:0,0:0:0:0:
140,347,108077,5,8,0:0:0:0:
74,332,108223,1,0,0:0:0:0:
45,271,108369,1,8,0:0:0:0:
78,211,108516,1,8,0:0:0:0:
233,157,108809,2,0,L|320:146,1,70,4|0,0:0|0:0,0:0:0:0:
45,69,109248,5,8,0:0:0:0:
111,84,109394,1,2,0:0:0:0:
145,143,109540,1,8,0:0:0:0:
125,207,109687,2,0,P|50:246|48:316,1,140,0|0,0:0|0:0,0:0:0:0:
119,325,110126,1,8,0:0:0:0:
390,171,110418,6,0,L|473:160,2,70,8|0|8,0:0|0:0|0:0,0:0:0:0:
224,160,111004,1,0,0:0:0:0:
158,176,111150,1,2,0:0:0:0:
135,239,111296,1,8,0:0:0:0:
174,294,111443,1,0,0:0:0:0:
348,344,111589,6,0,L|462:250,3,140,2|2|2|8,0:0|0:0|0:0|0:0,0:0:0:0:
380,219,112613,1,8,0:0:0:0:
212,253,112760,5,6,0:0:0:0:
169,201,112906,1,0,0:0:0:0:
191,137,113052,1,8,0:0:0:0:
257,124,113199,1,0,0:0:0:0:
106,80,113491,2,0,L|33:47,2,70,4|8|2,0:0|0:0|0:0,0:0:0:0:
259,230,114077,6,0,L|179:261,1,70,0|8,0:0|0:0,0:0:0:0:
117,289,114369,2,0,P|97:228|140:148,1,140,0|4,0:0|0:0,0:0:0:0:
197,132,114809,1,10,0:0:0:0:
274,118,114955,1,2,0:0:0:0:
445,203,115101,6,0,L|467:282,1,70,4|0,0:3|0:0,0:0:0:0:
384,293,115394,2,0,L|363:392,1,70,8|4,0:0|0:0,0:0:0:0:
219,368,115833,2,0,L|143:358,2,70,4|8|2,0:0|0:0|0:0,0:0:0:0:
381,357,116418,1,2,0:0:0:0:
404,293,116564,1,8,0:0:0:0:
373,233,116710,1,10,0:0:0:0:
307,216,116857,1,4,0:0:0:0:
451,136,117150,2,0,L|379:122,1,70,8|2,0:0|0:0,0:0:0:0:
215,64,117443,6,0,L|137:42,2,70,4|0|8,0:3|0:0|0:0,0:0:0:0:
292,108,117882,2,0,L|139:138,1,140,4|4,0:0|0:0,0:0:0:0:
234,168,118321,2,0,L|248:248,1,70,8|8,0:0|0:0,0:0:0:0:
75,355,118613,6,0,P|35:318|79:238,1,140,4|8,0:3|0:0,0:0:0:0:
150,206,119052,2,0,L|296:188,1,140,4|4,0:0|0:0,0:0:0:0:
213,145,119491,1,8,0:0:0:0:
288,189,119638,1,8,0:0:0:0:
452,185,119784,6,0,L|474:337,1,140,4|8,0:3|0:0,0:0:0:0:
430,268,120223,1,8,0:0:0:0:
368,237,120369,1,4,0:3:0:0:
298,239,120516,1,0,0:0:0:0:
40,88,120809,2,0,L|186:78,1,140,8|0,0:0|0:0,0:0:0:0:
255,27,121248,2,0,L|174:23,1,70,8|8,0:0|0:0,0:0:0:0:
68,101,121613,2,0,L|55:231,1,105,8|2,0:0|0:0,0:0:0:0:
328,311,122126,5,4,0:3:0:0:
494,133,123004,2,0,L|403:137,1,70,4|0,0:3|0:0,0:0:0:0:
249,166,123296,6,0,L|227:320,1,140,4|8,0:3|0:0,0:0:0:0:
303,337,123735,1,0,0:0:0:0:
155,361,124028,1,0,0:0:0:0:
85,365,124174,1,8,0:0:0:0:
15,370,124320,1,8,0:0:0:0:
176,299,124467,5,4,0:3:0:0:
242,284,124613,1,0,0:0:0:0:
273,224,124759,1,8,0:0:0:0:
246,162,124906,1,4,0:0:0:0:
94,82,125199,2,0,L|-1:66,2,70,4|8|8,0:0|0:0|0:0,0:0:0:0:
353,46,125784,5,4,0:0:0:0:
287,60,125930,1,8,0:0:0:0:
259,121,126076,1,8,0:0:0:0:
292,180,126223,1,4,0:0:0:0:
442,279,126516,2,0,L|365:285,1,70,8|8,0:0|0:0,0:0:0:0:
201,366,126809,6,0,L|116:341,2,70,4|0|8,0:3|0:0|0:0,0:0:0:0:
277,364,127248,2,0,P|308:306|259:241,1,140,4|4,0:0|0:0,0:0:0:0:
199,227,127687,1,8,0:0:0:0:
32,258,127833,2,0,L|45:89,1,140,8|4,0:0|0:0,0:0:0:0:
119,88,128272,1,8,0:0:0:0:
290,44,128418,5,8,0:0:0:0:
398,124,128638,1,8,0:0:0:0:
288,202,128857,2,0,L|210:215,1,70,8|4,0:0|0:0,0:0:0:0:
389,333,129150,6,0,L|506:229,1,140,4|8,0:3|0:0,0:0:0:0:
421,210,129589,1,4,0:3:0:0:
333,214,129735,1,2,0:0:0:0:
398,197,129881,1,8,0:0:0:0:
427,136,130027,1,8,0:0:0:0:
398,75,130174,1,8,0:0:0:0:
228,44,130321,6,0,L|92:-6,2,140,8|8|8,0:0|0:0|0:0,0:0:0:0:
398,75,131199,1,2,0:3:0:0:
132,215,131491,5,4,0:0:0:0:
66,227,131637,1,0,0:0:0:0:
39,289,131783,1,8,0:0:0:0:
192,348,132077,2,0,L|332:285,1,140,2|8,0:0|0:0,0:0:0:0:
163,209,132662,6,0,L|13:179,1,140,0|8,0:0|0:0,0:0:0:0:
180,147,133248,1,2,0:0:0:0:
186,77,133394,1,4,0:0:0:0:
193,7,133540,1,8,0:0:0:0:
454,73,133833,6,0,L|304:101,1,140,4|8,0:0|0:0,0:0:0:0:
474,179,134418,1,2,0:0:0:0:
475,248,134564,1,0,0:0:0:0:
477,318,134710,1,8,0:0:0:0:
211,367,135004,6,0,P|257:321|336:306,1,140,8|8,0:0|0:0,0:0:0:0:
475,276,135589,1,8,0:0:0:0:
443,242,135686,1,0,0:0:0:0:
401,222,135784,1,0,0:0:0:0:
355,220,135881,1,4,0:0:0:0:
84,337,136174,6,0,P|38:304|68:221,1,140,8|4,0:0|0:0,0:0:0:0:
125,190,136613,1,8,0:0:0:0:
206,189,136760,2,0,L|226:109,1,70,8|4,0:0|0:0,0:0:0:0:
134,104,137052,2,0,L|121:36,1,70,4|8,0:0|0:0,0:0:0:0:
297,23,137345,6,0,P|345:20|401:105,1,140,8|4,0:0|0:0,0:0:0:0:
328,130,137784,1,8,0:0:0:0:
254,185,137930,2,0,L|347:203,1,70,8|4,0:0|0:0,0:0:0:0:
401,254,138223,2,0,L|331:273,1,70,4|8,0:0|0:0,0:0:0:0:
155,357,138516,6,0,L|131:259,1,70,8|0,0:0|0:0,0:0:0:0:
227,273,138809,2,0,L|246:189,1,70,8|8,0:0|0:0,0:0:0:0:
154,176,139101,1,8,0:0:0:0:
110,125,139247,1,0,0:0:0:0:
128,60,139393,1,8,0:0:0:0:
192,41,139540,1,8,0:0:0:0:
377,47,139687,6,0,L|490:142,1,140,2|0,0:0|0:0,0:0:0:0:
303,232,140272,2,0,L|457:258,1,154.000004699707,4|0,0:0|0:0,0:0:0:0:
177,349,140857,1,4,0:0:0:0:
