osu file format v14

[General]
AudioFilename: audio.mp3
AudioLeadIn: 0
PreviewTime: 99016
Countdown: 0
SampleSet: Soft
StackLeniency: 0.7
Mode: 3
LetterboxInBreaks: 0
SpecialStyle: 0
WidescreenStoryboard: 1

[Editor]
Bookmarks: 9920,80720
DistanceSpacing: 2.8
BeatDivisor: 6
GridSize: 16
TimelineZoom: 2.2

[Metadata]
Title:BUCHiGiRE Berserker
TitleUnicode:BUCHiGiRE Berserker
Artist:REDALiCE vs. MASAKI
ArtistUnicode:REDALiCE vs. MASAKI
Creator:[Andre]
Version:Hard
Source:グルーヴコースター 4 スターライトロード
Tags:天下一音ゲ祭 Tenkaichi otogesai GROOVE COASTER 4 STARLIGHT ROAD arcaea wacca hardcore tano*c ORIGINAL SOUNDTRACK オリジナルサウンドトラック 2020 ZTTL-9091 taito video game instrumental electronic rhythm game arcade famoss
BeatmapID:2742777
BeatmapSetID:1324149

[Difficulty]
HPDrainRate:7.5
CircleSize:4
OverallDifficulty:7.5
ApproachRate:5
SliderMultiplier:1.4
SliderTickRate:1

[Events]
//Background and Video events
0,0,"bg.jpg",0,0
//Break Periods
//Storyboard Layer 0 (Background)
//Storyboard Layer 1 (Fail)
//Storyboard Layer 2 (Pass)
//Storyboard Layer 3 (Foreground)
//Storyboard Layer 4 (Overlay)
//Storyboard Sound Samples
Sample,12620,0,"electronic32.wav",70
Sample,12920,0,"electronic32.wav",70
Sample,12920,0,"electronic02.wav",70
Sample,22595,0,"Kick 6.wav",50
Sample,22745,0,"Kick 6.wav",50
Sample,22895,0,"Kick 6.wav",50
Sample,23045,0,"Kick 6.wav",50
Sample,24470,0,"cymbal00.wav",70
Sample,34445,0,"Kick 6.wav",50
Sample,35320,0,"Kick 6.wav",50
Sample,35370,0,"Kick 6.wav",50
Sample,35620,0,"Kick 6.wav",50
Sample,35670,0,"Kick 6.wav",50
Sample,35920,0,"Kick 6.wav",50
Sample,35970,0,"Kick 6.wav",50
Sample,36220,0,"Kick 6.wav",50
Sample,36270,0,"Kick 6.wav",50
Sample,36845,0,"Kick 6.wav",50
Sample,37145,0,"Kick 6.wav",50
Sample,37445,0,"Kick 6.wav",50
Sample,37970,0,"Kick 6.wav",50
Sample,38045,0,"Kick 6.wav",50
Sample,38645,0,"Kick 6.wav",50
Sample,38945,0,"Kick 6.wav",50
Sample,39245,0,"Kick 6.wav",50
Sample,39545,0,"Kick 6.wav",50
Sample,39845,0,"Kick 6.wav",50
Sample,40145,0,"Kick 6.wav",50
Sample,40445,0,"Kick 6.wav",50
Sample,40745,0,"Kick 6.wav",50
Sample,40820,0,"h_Fill4_007_Reverb.wav",70
Sample,41045,0,"Kick 6.wav",50
Sample,41270,0,"cymbal00.wav",70
Sample,41870,0,"cymbal00.wav",70
Sample,42395,0,"VEC3 Snares 018.wav",50
Sample,42470,0,"cymbal00.wav",70
Sample,42520,0,"Tritone Kick #8.wav",50
Sample,42570,0,"Tritone Kick #8.wav",50
Sample,42670,0,"VEC3 Snares 018.wav",50
Sample,42720,0,"VEC3 Snares 018.wav",50
Sample,43107,0,"Tritone Kick #8.wav",50
Sample,43145,0,"Tritone Kick #8.wav",50
Sample,43182,0,"Tritone Kick #8.wav",50
Sample,43220,0,"h_Fill4_007_Reverb.wav",70
Sample,43370,0,"VEC3 Snares 018.wav",50
Sample,43670,0,"Kick 6.wav",50
Sample,43745,0,"Kick 6.wav",50
Sample,44045,0,"Kick 6.wav",50
Sample,44345,0,"Kick 6.wav",50
Sample,44645,0,"Kick 6.wav",50
Sample,44920,0,"Kick 6.wav",50
Sample,44970,0,"Kick 6.wav",50
Sample,45220,0,"Kick 6.wav",50
Sample,45270,0,"Kick 6.wav",50
Sample,45520,0,"Kick 6.wav",50
Sample,45570,0,"Kick 6.wav",50
Sample,45770,0,"Kick 6.wav",50
Sample,46145,0,"Kick 6.wav",50
Sample,46445,0,"Kick 6.wav",50
Sample,46745,0,"Kick 6.wav",50
Sample,47045,0,"Kick 6.wav",50
Sample,47570,0,"Kick 6.wav",50
Sample,47645,0,"Kick 6.wav",50
Sample,47945,0,"Kick 6.wav",50
Sample,48245,0,"Kick 6.wav",50
Sample,48470,0,"Kick 6.wav",50
Sample,48545,0,"Kick 6.wav",50
Sample,48845,0,"Kick 6.wav",50
Sample,49145,0,"Kick 6.wav",50
Sample,49445,0,"Kick 6.wav",50
Sample,49745,0,"Kick 6.wav",50
Sample,50045,0,"Kick 6.wav",50
Sample,50345,0,"Kick 6.wav",50
Sample,50795,0,"VEC3 Snares 018.wav",50
Sample,51395,0,"VEC3 Snares 018.wav",50
Sample,51470,0,"cymbal00.wav",70
Sample,51920,0,"VEC3 Snares 018.wav",50
Sample,51995,0,"VEC3 Snares 018.wav",50
Sample,52070,0,"cymbal00.wav",70
Sample,52220,0,"VEC3 Snares 018.wav",50
Sample,52270,0,"VEC3 Snares 018.wav",50
Sample,52320,0,"VEC3 Snares 018.wav",50
Sample,52707,0,"Tritone Kick #8.wav",50
Sample,52782,0,"Tritone Kick #8.wav",50
Sample,52970,0,"Tritone Kick #8.wav",50
Sample,52970,0,"VEC3 Snares 018.wav",50
Sample,53570,0,"LR_Drum Rpd x2.wav",70
Sample,53645,0,"LR_Drum Rpd x2.wav",70
Sample,53720,0,"LR_Drum Rpd x2.wav",70
Sample,53795,0,"LR_Drum Rpd x2.wav",70
Sample,54170,0,"LR_Drum Rpd x2.wav",70
Sample,54395,0,"LR_Drum Rpd x2.wav",70
Sample,54620,0,"LR_Drum Rpd x2.wav",70
Sample,55370,0,"LR_Drum Rpd x2.wav",70
Sample,55445,0,"LR_Drum Rpd x2.wav",70
Sample,55970,0,"LR_Drum Rpd x2.wav",70
Sample,56195,0,"LR_Drum Rpd x2.wav",70
Sample,63670,0,"LR_Drum Rpd x2.wav",70
Sample,63720,0,"LR_Drum Rpd x2.wav",70
Sample,65607,0,"Kick 6.wav",50
Sample,66070,0,"LR_Drum Rpd x2.wav",70
Sample,66120,0,"LR_Drum Rpd x2.wav",70
Sample,68270,0,"electronic32.wav",70
Sample,68470,0,"LR_Drum Rpd x2.wav",70
Sample,68520,0,"LR_Drum Rpd x2.wav",70
Sample,69620,0,"electronic32.wav",70
Sample,69620,0,"LR_Drum Rpd x2.wav",70
Sample,72245,0,"LR4_SnareBPDT.wav",50
Sample,73445,0,"LR4_SnareBPDT.wav",50
Sample,108545,0,"electronic32.wav",70
Sample,109970,0,"LR_Drum Rpd x2.wav",70
Sample,110045,0,"LR_Drum Rpd x2.wav",70
Sample,110120,0,"LR_Drum Rpd x2.wav",70
Sample,110195,0,"LR_Drum Rpd x2.wav",70
Sample,110570,0,"LR_Drum Rpd x2.wav",70
Sample,110795,0,"LR_Drum Rpd x2.wav",70
Sample,111020,0,"LR_Drum Rpd x2.wav",70
Sample,111770,0,"LR_Drum Rpd x2.wav",70
Sample,111845,0,"LR_Drum Rpd x2.wav",70
Sample,112370,0,"LR_Drum Rpd x2.wav",70
Sample,112595,0,"LR_Drum Rpd x2.wav",70
Sample,113120,0,"cymbal00.wav",70
Sample,114770,0,"LR_Drum Rpd x2.wav",70
Sample,114845,0,"LR_Drum Rpd x2.wav",70
Sample,114920,0,"LR_Drum Rpd x2.wav",70
Sample,114995,0,"LR_Drum Rpd x2.wav",70
Sample,115370,0,"LR_Drum Rpd x2.wav",70
Sample,115595,0,"LR_Drum Rpd x2.wav",70
Sample,115820,0,"LR_Drum Rpd x2.wav",70
Sample,116570,0,"LR_Drum Rpd x2.wav",70
Sample,116645,0,"LR_Drum Rpd x2.wav",70
Sample,117170,0,"LR_Drum Rpd x2.wav",70
Sample,117395,0,"LR_Drum Rpd x2.wav",70
Sample,117920,0,"Kick 6.wav",50
Sample,118220,0,"Kick 6.wav",50
Sample,118520,0,"Kick 6.wav",50
Sample,118720,0,"Kick 6.wav",50
Sample,118770,0,"Kick 6.wav",50
Sample,118820,0,"Kick 6.wav",50
Sample,120020,0,"h_Fill4_007_Reverb.wav",70
Sample,120245,0,"Kick 6.wav",50
Sample,120520,0,"Kick 6.wav",50
Sample,120570,0,"Kick 6.wav",50
Sample,120820,0,"Kick 6.wav",50
Sample,120870,0,"Kick 6.wav",50
Sample,121120,0,"Kick 6.wav",50
Sample,121170,0,"Kick 6.wav",50
Sample,121420,0,"Kick 6.wav",50
Sample,121470,0,"Kick 6.wav",50
Sample,123845,0,"Kick 6.wav",50
Sample,124145,0,"Kick 6.wav",50
Sample,124445,0,"Kick 6.wav",50
Sample,124745,0,"Kick 6.wav",50
Sample,125045,0,"Kick 6.wav",50
Sample,125345,0,"Kick 6.wav",50
Sample,125645,0,"Kick 6.wav",50
Sample,125945,0,"Kick 6.wav",50
Sample,126245,0,"Kick 6.wav",50
Sample,126920,0,"VEC3 Snares 018.wav",50
Sample,127595,0,"VEC3 Snares 018.wav",50
Sample,127670,0,"cymbal00.wav",70
Sample,127720,0,"Tritone Kick #8.wav",50
Sample,127770,0,"Tritone Kick #8.wav",50
Sample,127870,0,"VEC3 Snares 018.wav",50
Sample,127920,0,"VEC3 Snares 018.wav",50
Sample,128307,0,"Tritone Kick #8.wav",50
Sample,128345,0,"Tritone Kick #8.wav",50
Sample,128382,0,"Tritone Kick #8.wav",50
Sample,128420,0,"Tritone Kick #8.wav",50
Sample,128420,0,"h_Fill4_007_Reverb.wav",70
Sample,129245,0,"Kick 6.wav",50
Sample,129545,0,"Kick 6.wav",50
Sample,129770,0,"Kick 6.wav",50
Sample,129845,0,"Kick 6.wav",50
Sample,130120,0,"Kick 6.wav",50
Sample,130170,0,"Kick 6.wav",50
Sample,130370,0,"Kick 6.wav",50
Sample,130420,0,"Kick 6.wav",50
Sample,130470,0,"Kick 6.wav",50
Sample,130720,0,"Kick 6.wav",50
Sample,130770,0,"Kick 6.wav",50
Sample,130820,0,"h_Fill4_007_Reverb.wav",70
Sample,131320,0,"LR_Drum Rpd x2.wav",70
Sample,132420,0,"Kick 6.wav",50
Sample,132520,0,"Kick 6.wav",50
Sample,132720,0,"Kick 6.wav",50
Sample,132820,0,"Kick 6.wav",50
Sample,133445,0,"Kick 6.wav",50
Sample,133745,0,"Kick 6.wav",50
Sample,134045,0,"Kick 6.wav",50
Sample,134645,0,"Kick 6.wav",50
Sample,135170,0,"Kick 6.wav",50
Sample,135245,0,"Kick 6.wav",50
Sample,135545,0,"Kick 6.wav",50
Sample,135995,0,"VEC3 Snares 018.wav",50
Sample,136070,0,"cymbal00.wav",70
Sample,136595,0,"VEC3 Snares 018.wav",50
Sample,137195,0,"VEC3 Snares 018.wav",50
Sample,137270,0,"cymbal00.wav",70
Sample,137470,0,"VEC3 Snares 018.wav",50
Sample,137520,0,"VEC3 Snares 018.wav",50
Sample,137907,0,"Tritone Kick #8.wav",50
Sample,137982,0,"Tritone Kick #8.wav",50
Sample,138170,0,"VEC3 Snares 018.wav",50
Sample,138770,0,"LR_Drum Rpd x2.wav",70
Sample,138845,0,"LR_Drum Rpd x2.wav",70
Sample,138920,0,"LR_Drum Rpd x2.wav",70
Sample,138995,0,"LR_Drum Rpd x2.wav",70
Sample,139370,0,"LR_Drum Rpd x2.wav",70
Sample,139595,0,"LR_Drum Rpd x2.wav",70
Sample,139820,0,"LR_Drum Rpd x2.wav",70
Sample,140570,0,"LR_Drum Rpd x2.wav",70
Sample,140645,0,"LR_Drum Rpd x2.wav",70
Sample,141170,0,"LR_Drum Rpd x2.wav",70
Sample,141395,0,"LR_Drum Rpd x2.wav",70

[TimingPoints]
320,300,4,2,1,50,1,0
99920,-100,4,2,1,50,0,1
109520,-100,4,2,1,50,0,0
119120,-100,4,2,1,50,0,1
143120,-100,4,2,1,50,0,0

[HitObjects]
64,192,320,5,4,0:0:0:0:
448,192,320,1,0,0:0:0:70:Drumstart_041.wav
320,192,470,1,0,0:0:0:0:
192,192,620,1,0,0:0:0:70:Drumstart_040.wav
64,192,770,1,0,0:0:0:0:
448,192,770,1,0,0:0:0:0:
192,192,920,1,0,0:0:0:70:Drumstart_041.wav
320,192,1070,1,0,0:0:0:50:vexst__emn-snare-3.wav
64,192,1220,128,0,1820:0:0:0:0:
192,192,1220,1,0,0:0:0:0:
448,192,1370,1,0,0:0:0:0:
320,192,1520,1,0,0:0:0:70:Drumstart_041.wav
192,192,1670,1,0,0:0:0:70:Drumstart_041.wav
448,192,1820,1,0,0:0:0:70:Drumstart_040.wav
192,192,1970,1,0,0:0:0:70:Drumstart_041.wav
320,192,2120,1,0,0:0:0:50:vexst__emn-snare-3.wav
64,192,2270,1,0,0:0:0:70:Drumstart_040.wav
320,192,2420,1,0,0:0:0:0:
448,192,2570,1,0,0:0:0:0:
64,192,2720,1,0,0:0:0:70:Drumstart_041.wav
320,192,2720,1,0,0:0:0:0:
192,192,2870,1,0,0:0:0:0:
320,192,3020,1,0,0:0:0:70:Drumstart_040.wav
64,192,3170,1,0,0:0:0:0:
448,192,3170,1,0,0:0:0:0:
320,192,3320,1,0,0:0:0:70:Drumstart_041.wav
192,192,3470,1,0,0:0:0:50:vexst__emn-snare-3.wav
320,192,3620,1,0,0:0:0:0:
448,192,3620,128,0,4220:0:0:0:0:
64,192,3770,1,0,0:0:0:0:
192,192,3920,1,0,0:0:0:50:vexst__emn-snare-3.wav
64,192,4070,1,0,0:0:0:70:Drumstart_041.wav
320,192,4220,1,0,0:0:0:70:Drumstart_041.wav
192,192,4370,1,0,0:0:0:70:Drumstart_040.wav
448,192,4520,1,0,0:0:0:50:vexst__emn-snare-3.wav
64,192,4670,1,0,0:0:0:70:Drumstart_040.wav
320,192,4820,1,0,0:0:0:0:
192,192,4970,1,0,0:0:0:0:
64,192,5120,1,0,0:0:0:70:Drumstart_041.wav
320,192,5120,1,0,0:0:0:0:
448,192,5270,1,0,0:0:0:0:
64,192,5420,1,0,0:0:0:70:Drumstart_040.wav
192,192,5570,1,0,0:0:0:0:
448,192,5570,1,0,0:0:0:0:
320,192,5720,1,0,0:0:0:70:Drumstart_041.wav
192,192,5870,1,0,0:0:0:50:vexst__emn-snare-3.wav
64,192,6020,128,0,6620:0:0:0:0:
448,192,6020,1,0,0:0:0:0:
320,192,6170,1,0,0:0:0:0:
448,192,6320,1,0,0:0:0:70:Drumstart_041.wav
192,192,6470,1,0,0:0:0:70:Drumstart_041.wav
320,192,6620,1,0,0:0:0:70:Drumstart_040.wav
192,192,6770,1,0,0:0:0:70:Drumstart_041.wav
64,192,6920,1,0,0:0:0:50:vexst__emn-snare-3.wav
320,192,7070,1,0,0:0:0:70:Drumstart_040.wav
192,192,7220,1,0,0:0:0:0:
448,192,7370,1,0,0:0:0:0:
64,192,7520,1,0,0:0:0:70:Drumstart_041.wav
320,192,7520,1,0,0:0:0:0:
192,192,7670,1,0,0:0:0:0:
320,192,7820,1,0,0:0:0:70:Drumstart_040.wav
192,192,7970,1,0,0:0:0:0:
448,192,7970,1,0,0:0:0:0:
64,192,8120,1,0,0:0:0:70:Drumstart_041.wav
320,192,8270,1,0,0:0:0:50:vexst__emn-snare-3.wav
192,192,8420,1,0,0:0:0:0:
448,192,8420,128,0,9320:0:0:0:0:
64,192,8570,1,0,0:0:0:0:
320,192,8720,1,0,0:0:0:50:vexst__emn-snare-3.wav
192,192,8870,1,0,0:0:0:70:Drumstart_041.wav
64,192,9020,1,0,0:0:0:70:Drumstart_041.wav
320,192,9170,1,0,0:0:0:70:Drumstart_040.wav
64,192,9320,128,0,9770:0:0:0:50:vexst__emn-snare-3.wav
192,192,9320,1,0,0:0:0:0:
320,192,9470,1,0,0:0:0:70:Drumstart_040.wav
448,192,9620,1,0,0:0:0:0:
320,192,9770,1,0,0:0:0:0:
64,192,9920,1,2,0:0:0:0:
192,192,9920,1,4,0:0:0:0:
448,192,9920,1,0,0:0:0:0:
320,192,10070,1,0,0:0:0:0:
192,192,10220,1,0,0:0:0:70:electronic32.wav
448,192,10220,1,0,0:0:0:0:
64,192,10370,1,0,0:0:0:0:
320,192,10520,1,0,0:0:0:70:electronic32.wav
448,192,10520,1,0,0:0:0:0:
192,192,10670,1,0,0:0:0:0:
64,192,10820,1,0,0:0:0:70:electronic32.wav
320,192,10820,1,0,0:0:0:0:
448,192,10970,1,0,0:0:0:0:
64,192,11120,1,0,0:0:0:70:electronic32.wav
192,192,11120,1,0,0:0:0:0:
320,192,11270,1,0,0:0:0:0:
64,192,11420,1,0,0:0:0:70:electronic32.wav
448,192,11420,1,0,0:0:0:0:
192,192,11570,1,0,0:0:0:0:
64,192,11720,1,0,0:0:0:70:electronic32.wav
320,192,11720,1,0,0:0:0:0:
192,192,11870,1,0,0:0:0:0:
320,192,12020,1,0,0:0:0:70:electronic32.wav
448,192,12020,1,0,0:0:0:0:
64,192,12170,1,2,0:0:0:0:
192,192,12170,1,0,0:0:0:0:
64,192,12320,1,2,0:0:0:0:
448,192,12320,1,0,0:0:0:0:
192,192,12395,1,0,0:0:0:0:
320,192,12470,1,0,0:0:0:70:electronic32.wav
448,192,12545,1,0,0:0:0:70:electronic32.wav
320,192,12695,1,0,0:0:0:0:
192,192,12770,1,0,0:0:0:70:electronic32.wav
64,192,12845,1,0,0:0:0:70:electronic32.wav
192,192,12995,1,0,0:0:0:70:electronic02.wav
320,192,13070,1,0,0:0:0:70:electronic02.wav
448,192,13145,1,0,0:0:0:0:
320,192,13295,1,0,0:0:0:0:
192,192,13370,1,0,0:0:0:0:
320,192,13445,1,0,0:0:0:0:
64,192,13520,1,0,0:0:0:70:LS-HK Distorted Kick 51.wav
192,192,13520,1,0,0:0:0:0:
448,192,13520,1,0,0:0:0:0:
448,192,13820,128,0,13970:0:0:0:0:
64,192,13970,128,0,14120:0:0:0:0:
320,192,14120,128,0,14270:0:0:0:70:h_Fill4_007_Reverb.wav
448,192,14120,1,0,0:0:0:0:
192,192,14270,128,0,14420:0:0:0:0:
64,192,14420,1,0,0:0:0:70:LS-HK Distorted Kick 81.wav
320,192,14420,1,0,0:0:0:0:
64,192,14720,1,2,0:0:0:0:
192,192,14720,1,0,0:0:0:70:cymbal00.wav
448,192,14720,1,0,0:0:0:0:
320,192,15020,1,2,0:0:0:0:
448,192,15020,1,4,0:0:0:0:
192,192,15170,1,0,0:0:0:0:
64,192,15320,1,2,0:0:0:0:
320,192,15320,1,0,0:0:0:0:
448,192,15470,1,0,0:0:0:0:
64,192,15620,1,2,0:0:0:0:
192,192,15620,1,0,0:0:0:0:
320,192,15770,1,0,0:0:0:0:
192,192,15920,1,2,0:0:0:0:
448,192,15920,1,0,0:0:0:0:
320,192,16070,1,0,0:0:0:0:
64,192,16220,1,2,0:0:0:0:
448,192,16220,1,0,0:0:0:0:
192,192,16370,1,0,0:0:0:0:
320,192,16520,1,2,0:0:0:0:
448,192,16520,1,0,0:0:0:0:
192,192,16670,1,0,0:0:0:0:
64,192,16820,1,2,0:0:0:0:
448,192,16820,1,0,0:0:0:0:
192,192,16895,1,0,0:0:0:0:
320,192,16970,1,0,0:0:0:0:
192,192,17045,1,0,0:0:0:0:
64,192,17120,1,2,0:0:0:0:
448,192,17120,1,0,0:0:0:0:
64,192,17420,1,2,0:0:0:0:
320,192,17420,1,0,0:0:0:0:
192,192,17570,1,0,0:0:0:0:
320,192,17720,1,2,0:0:0:0:
448,192,17720,1,0,0:0:0:0:
64,192,17870,1,0,0:0:0:0:
192,192,18020,1,2,0:0:0:0:
320,192,18020,1,0,0:0:0:0:
448,192,18170,1,0,0:0:0:0:
64,192,18320,1,2,0:0:0:0:
192,192,18320,1,0,0:0:0:0:
320,192,18470,1,0,0:0:0:0:
192,192,18620,1,2,0:0:0:0:
448,192,18620,1,0,0:0:0:0:
64,192,18770,1,0,0:0:0:0:
320,192,18920,1,2,0:0:0:0:
448,192,18920,1,0,0:0:0:0:
192,192,19070,1,0,0:0:0:0:
64,192,19220,1,0,0:0:0:70:h_Fill4_007_Reverb.wav
448,192,19220,1,0,0:0:0:0:
320,192,19295,1,0,0:0:0:0:
192,192,19370,1,0,0:0:0:0:
64,192,19445,1,0,0:0:0:0:
320,192,19520,1,2,0:0:0:0:
448,192,19520,1,4,0:0:0:0:
320,192,19820,1,2,0:0:0:0:
448,192,19820,1,0,0:0:0:0:
192,192,19895,1,0,0:0:0:0:
64,192,19970,1,0,0:0:0:0:
192,192,20120,1,2,0:0:0:0:
448,192,20120,1,0,0:0:0:0:
320,192,20270,1,0,0:0:0:0:
64,192,20420,1,2,0:0:0:0:
192,192,20420,1,0,0:0:0:0:
320,192,20495,1,0,0:0:0:0:
448,192,20570,1,0,0:0:0:0:
64,192,20645,1,0,0:0:0:0:
192,192,20720,1,2,0:0:0:0:
448,192,20720,1,0,0:0:0:0:
320,192,20795,1,0,0:0:0:0:
192,192,20870,1,0,0:0:0:0:
64,192,20945,1,0,0:0:0:0:
320,192,21020,1,2,0:0:0:0:
448,192,21020,1,0,0:0:0:0:
192,192,21095,1,0,0:0:0:0:
64,192,21170,1,0,0:0:0:0:
448,192,21245,1,0,0:0:0:0:
192,192,21320,1,2,0:0:0:0:
320,192,21320,1,0,0:0:0:0:
64,192,21395,1,0,0:0:0:0:
448,192,21470,1,0,0:0:0:0:
320,192,21545,1,0,0:0:0:0:
64,192,21620,1,2,0:0:0:0:
192,192,21620,1,0,0:0:0:0:
448,192,21695,1,0,0:0:0:50:Kick 6.wav
320,192,21770,1,0,0:0:0:50:Kick 6.wav
192,192,21845,1,0,0:0:0:50:Kick 6.wav
64,192,21920,1,2,0:0:0:0:
448,192,21995,1,0,0:0:0:0:
64,192,22145,1,0,0:0:0:0:
448,192,22220,1,2,0:0:0:0:
64,192,22370,1,0,0:0:0:0:
448,192,22445,1,0,0:0:0:0:
64,192,22520,128,2,22670:0:0:0:0:
192,192,22520,1,0,0:0:0:0:
320,192,22670,128,0,22820:0:0:0:50:Kick 6.wav
64,192,22820,1,2,0:0:0:0:
448,192,22820,128,0,22970:0:0:0:0:
192,192,22970,128,0,23120:0:0:0:50:Kick 6.wav
64,192,23120,1,2,0:0:0:0:
320,192,23195,1,0,0:0:0:0:
192,192,23270,1,0,0:0:0:0:
64,192,23345,1,0,0:0:0:0:
448,192,23420,1,0,0:0:0:0:
320,192,23495,1,0,0:0:0:0:
192,192,23570,1,0,0:0:0:0:
64,192,23720,128,0,24020:0:0:0:70:h_Fill4_007_Reverb.wav
448,192,23720,1,0,0:0:0:0:
320,192,24020,1,0,0:0:0:0:
448,192,24020,1,0,0:0:0:0:
64,192,24320,1,2,0:0:0:0:
448,192,24320,1,0,0:0:0:70:cymbal00.wav
320,192,24470,1,2,0:0:0:0:
64,192,24620,1,2,0:0:0:0:
192,192,24620,1,4,0:0:0:0:
448,192,24620,1,0,0:0:0:0:
320,192,24770,1,0,0:0:0:0:
192,192,24920,1,2,0:0:0:0:
448,192,24920,1,0,0:0:0:0:
64,192,25070,1,0,0:0:0:0:
320,192,25220,1,2,0:0:0:0:
448,192,25220,1,0,0:0:0:0:
192,192,25370,1,0,0:0:0:0:
64,192,25520,1,2,0:0:0:0:
320,192,25520,1,0,0:0:0:0:
448,192,25670,1,0,0:0:0:0:
192,192,25820,1,2,0:0:0:0:
320,192,25820,1,0,0:0:0:0:
64,192,25970,1,0,0:0:0:0:
192,192,26120,1,2,0:0:0:0:
448,192,26120,1,0,0:0:0:0:
320,192,26270,1,0,0:0:0:0:
64,192,26420,1,2,0:0:0:0:
448,192,26420,1,0,0:0:0:0:
320,192,26495,1,0,0:0:0:0:
192,192,26570,1,0,0:0:0:0:
320,192,26645,1,0,0:0:0:0:
64,192,26720,1,2,0:0:0:0:
448,192,26720,1,0,0:0:0:0:
64,192,27020,1,2,0:0:0:0:
192,192,27020,1,0,0:0:0:0:
320,192,27170,1,0,0:0:0:0:
64,192,27320,1,2,0:0:0:0:
448,192,27320,1,0,0:0:0:0:
192,192,27470,1,0,0:0:0:0:
320,192,27620,1,2,0:0:0:0:
448,192,27620,1,0,0:0:0:0:
192,192,27770,1,0,0:0:0:0:
64,192,27920,1,2,0:0:0:0:
320,192,27920,1,0,0:0:0:0:
448,192,28070,1,2,0:0:0:0:
320,192,28145,1,2,0:0:0:0:
64,192,28220,1,2,0:0:0:0:
192,192,28220,1,0,0:0:0:0:
320,192,28370,1,2,0:0:0:0:
448,192,28370,1,0,0:0:0:0:
64,192,28520,1,2,0:0:0:0:
192,192,28520,1,0,0:0:0:0:
64,192,28820,1,0,0:0:0:70:h_Fill4_007_Reverb.wav
448,192,28820,1,0,0:0:0:0:
192,192,28895,1,0,0:0:0:0:
320,192,28970,1,0,0:0:0:0:
448,192,29045,1,0,0:0:0:0:
64,192,29120,1,2,0:0:0:0:
192,192,29120,1,4,0:0:0:0:
64,192,29420,1,2,0:0:0:0:
192,192,29420,1,0,0:0:0:0:
320,192,29495,1,0,0:0:0:0:
448,192,29570,1,0,0:0:0:0:
64,192,29720,1,2,0:0:0:0:
320,192,29720,1,0,0:0:0:0:
192,192,29870,1,0,0:0:0:0:
320,192,30020,1,2,0:0:0:0:
448,192,30020,1,0,0:0:0:0:
192,192,30095,1,0,0:0:0:0:
64,192,30170,1,0,0:0:0:0:
448,192,30245,1,0,0:0:0:0:
64,192,30320,1,2,0:0:0:0:
320,192,30320,1,0,0:0:0:0:
192,192,30395,1,0,0:0:0:0:
448,192,30470,1,0,0:0:0:0:
320,192,30545,1,0,0:0:0:0:
64,192,30620,1,2,0:0:0:0:
192,192,30620,1,0,0:0:0:0:
320,192,30695,1,0,0:0:0:0:
448,192,30770,1,0,0:0:0:0:
64,192,30845,1,0,0:0:0:0:
192,192,30920,1,2,0:0:0:0:
320,192,30920,1,0,0:0:0:0:
448,192,30995,1,0,0:0:0:0:
64,192,31070,1,0,0:0:0:0:
192,192,31145,1,0,0:0:0:0:
320,192,31220,1,2,0:0:0:0:
448,192,31220,1,0,0:0:0:0:
320,192,31520,1,2,0:0:0:0:
448,192,31520,1,0,0:0:0:0:
64,192,31745,1,2,0:0:0:0:
192,192,31745,1,0,0:0:0:0:
320,192,31970,1,2,0:0:0:0:
448,192,31970,1,0,0:0:0:0:
64,192,32195,1,2,0:0:0:0:
192,192,32195,1,0,0:0:0:0:
320,192,32420,1,2,0:0:0:0:
448,192,32420,1,0,0:0:0:0:
64,192,32570,1,2,0:0:0:0:
192,192,32570,1,0,0:0:0:0:
448,192,32720,1,0,0:0:0:0:
64,192,33020,128,0,33170:0:0:0:0:
448,192,33170,128,0,33320:0:0:0:0:
64,192,33320,1,0,0:0:0:70:h_Fill4_007_Reverb.wav
192,192,33320,128,0,33470:0:0:0:0:
320,192,33470,128,0,33620:0:0:0:0:
64,192,33620,1,0,0:0:0:0:
448,192,33620,1,0,0:0:0:0:
64,192,33920,128,2,34070:0:0:0:0:
192,192,33920,1,4,0:0:0:0:
448,192,34070,1,0,0:0:0:50:Kick 6.wav
320,192,34145,1,0,0:0:0:50:Kick 6.wav
64,192,34220,1,2,0:0:0:0:
192,192,34220,1,0,0:0:0:70:h_Fill4_007_Reverb.wav
320,192,34295,1,0,0:0:0:0:
448,192,34370,128,0,34520:0:0:0:50:Kick 6.wav
64,192,34520,1,2,0:0:0:0:
192,192,34595,1,0,0:0:0:0:
320,192,34670,1,0,0:0:0:50:Kick 6.wav
448,192,34745,1,0,0:0:0:50:Kick 6.wav
64,192,34820,1,2,0:0:0:0:
192,192,34820,128,0,34970:0:0:0:70:h_Fill4_007_Reverb.wav
320,192,34970,1,0,0:0:0:50:Kick 6.wav
192,192,35045,1,0,0:0:0:50:Kick 6.wav
64,192,35120,128,2,35270:0:0:0:0:
448,192,35120,1,0,0:0:0:0:
192,192,35270,1,0,0:0:0:50:Kick 6.wav
320,192,35345,1,0,0:0:0:0:
64,192,35420,1,2,0:0:0:0:
448,192,35420,128,0,35570:0:0:0:70:h_Fill4_007_Reverb.wav
192,192,35570,1,0,0:0:0:50:Kick 6.wav
320,192,35645,1,0,0:0:0:0:
64,192,35720,128,2,35870:0:0:0:0:
192,192,35720,1,0,0:0:0:0:
320,192,35870,1,0,0:0:0:50:Kick 6.wav
192,192,35945,1,0,0:0:0:0:
320,192,36020,1,2,0:0:0:0:
448,192,36020,128,0,36170:0:0:0:70:h_Fill4_007_Reverb.wav
64,192,36170,128,0,36320:0:0:0:50:Kick 6.wav
320,192,36320,1,4,0:0:0:0:
448,192,36320,1,2,0:0:0:0:
192,192,36470,1,0,0:0:0:50:Kick 6.wav
320,192,36545,1,0,0:0:0:50:Kick 6.wav
64,192,36620,128,2,36770:0:0:0:0:
448,192,36620,1,0,0:0:0:70:h_Fill4_007_Reverb.wav
448,192,36770,128,0,36920:0:0:0:50:Kick 6.wav
192,192,36920,128,2,37070:0:0:0:0:
320,192,36920,1,0,0:0:0:0:
448,192,37070,128,0,37220:0:0:0:50:Kick 6.wav
64,192,37220,1,2,0:0:0:0:
320,192,37220,128,0,37370:0:0:0:70:h_Fill4_007_Reverb.wav
192,192,37370,128,0,37520:0:0:0:50:Kick 6.wav
320,192,37520,1,2,0:0:0:0:
448,192,37520,1,4,0:0:0:0:
64,192,37620,1,0,0:0:0:50:Kick 6.wav
320,192,37720,1,0,0:0:0:50:Kick 6.wav
64,192,37820,1,6,0:0:0:0:
192,192,37820,1,0,0:0:0:70:h_Fill4_007_Reverb.wav
448,192,37920,1,0,0:0:0:0:
192,192,38020,1,0,0:0:0:0:
320,192,38120,1,2,0:0:0:0:
448,192,38120,128,0,38270:0:0:0:0:
192,192,38270,1,0,0:0:0:50:Kick 6.wav
320,192,38345,1,0,0:0:0:50:Kick 6.wav
64,192,38420,128,2,38570:0:0:0:0:
448,192,38420,1,0,0:0:0:70:h_Fill4_007_Reverb.wav
320,192,38570,128,0,38720:0:0:0:50:Kick 6.wav
192,192,38720,1,4,0:0:0:0:
448,192,38720,1,2,0:0:0:0:
64,192,38870,128,0,39020:0:0:0:50:Kick 6.wav
320,192,39020,1,2,0:0:0:0:
448,192,39020,128,0,39170:0:0:0:70:h_Fill4_007_Reverb.wav
192,192,39170,128,0,39320:0:0:0:50:Kick 6.wav
320,192,39320,128,2,39470:0:0:0:0:
448,192,39320,1,0,0:0:0:0:
192,192,39470,128,0,39620:0:0:0:50:Kick 6.wav
64,192,39620,128,2,39770:0:0:0:0:
320,192,39620,1,0,0:0:0:70:h_Fill4_007_Reverb.wav
448,192,39770,128,0,39920:0:0:0:50:Kick 6.wav
192,192,39920,1,2,0:0:0:0:
320,192,39920,128,0,40070:0:0:0:0:
64,192,40070,128,0,40220:0:0:0:50:Kick 6.wav
192,192,40220,128,2,40370:0:0:0:0:
320,192,40220,1,0,0:0:0:70:h_Fill4_007_Reverb.wav
448,192,40370,128,0,40520:0:0:0:50:Kick 6.wav
64,192,40520,1,2,0:0:0:0:
320,192,40520,128,0,40670:0:0:0:0:
192,192,40670,128,0,40820:0:0:0:50:Kick 6.wav
448,192,40820,1,2,0:0:0:0:
64,192,40970,1,0,0:0:0:50:Kick 6.wav
320,192,41120,1,0,0:0:0:50:VEC3 Snares 018.wav
448,192,41120,1,0,0:0:0:0:
192,192,41195,1,0,0:0:0:50:VEC3 Snares 018.wav
64,192,41270,1,2,0:0:0:0:
192,192,41420,1,4,0:0:0:0:
448,192,41420,1,2,0:0:0:0:
320,192,41570,1,6,0:0:0:0:
64,192,41720,1,0,0:0:0:50:VEC3 Snares 018.wav
192,192,41720,1,0,0:0:0:0:
320,192,41795,1,0,0:0:0:50:VEC3 Snares 018.wav
448,192,41870,1,2,0:0:0:0:
64,192,42020,1,4,0:0:0:0:
320,192,42020,1,2,0:0:0:0:
192,192,42170,1,6,0:0:0:0:
64,192,42320,1,0,0:0:0:50:VEC3 Snares 018.wav
448,192,42320,1,0,0:0:0:0:
192,192,42470,1,0,0:0:0:50:Tritone Kick #8.wav
320,192,42545,1,0,0:0:0:0:
64,192,42620,1,0,0:0:0:50:VEC3 Snares 018.wav
448,192,42620,1,0,0:0:0:0:
64,192,42770,1,0,0:0:0:50:Tritone Kick #8.wav
192,192,42770,1,0,0:0:0:0:
320,192,42920,1,0,0:0:0:50:Tritone Kick #8.wav
192,192,42995,1,0,0:0:0:50:Tritone Kick #8.wav
64,192,43070,1,0,0:0:0:50:Tritone Kick #8.wav
448,192,43070,128,0,43370:0:0:0:0:
64,192,43220,128,0,43370:0:0:0:50:Tritone Kick #8.wav
320,192,43370,1,0,0:0:0:50:Tritone Kick #8.wav
64,192,43520,128,4,43820:0:0:0:0:
192,192,43520,1,2,0:0:0:0:
192,192,43820,128,2,43970:0:0:0:0:
320,192,43820,1,0,0:0:0:70:h_Fill4_007_Reverb.wav
448,192,43970,128,0,44120:0:0:0:50:Kick 6.wav
64,192,44120,1,2,0:0:0:0:
320,192,44120,1,0,0:0:0:0:
192,192,44195,1,0,0:0:0:0:
320,192,44270,1,0,0:0:0:50:Kick 6.wav
192,192,44420,1,2,0:0:0:0:
448,192,44420,1,0,0:0:0:70:h_Fill4_007_Reverb.wav
320,192,44495,1,0,0:0:0:0:
192,192,44570,1,0,0:0:0:50:Kick 6.wav
64,192,44720,1,2,0:0:0:0:
448,192,44720,1,0,0:0:0:0:
192,192,44795,1,0,0:0:0:0:
320,192,44870,1,0,0:0:0:50:Kick 6.wav
64,192,45020,1,2,0:0:0:0:
448,192,45020,1,0,0:0:0:70:h_Fill4_007_Reverb.wav
320,192,45095,1,0,0:0:0:0:
192,192,45170,1,0,0:0:0:50:Kick 6.wav
320,192,45320,1,2,0:0:0:0:
448,192,45320,1,0,0:0:0:0:
192,192,45395,1,0,0:0:0:0:
64,192,45470,128,0,45620:0:0:0:50:Kick 6.wav
320,192,45620,1,2,0:0:0:0:
448,192,45620,128,0,45920:0:0:0:70:h_Fill4_007_Reverb.wav
64,192,45920,128,2,46070:0:0:0:0:
192,192,45920,1,4,0:0:0:0:
320,192,46070,1,0,0:0:0:50:Kick 6.wav
64,192,46220,1,2,0:0:0:0:
192,192,46220,1,0,0:0:0:70:h_Fill4_007_Reverb.wav
320,192,46295,1,0,0:0:0:0:
448,192,46370,1,0,0:0:0:50:Kick 6.wav
320,192,46520,1,2,0:0:0:0:
448,192,46520,128,0,46670:0:0:0:0:
192,192,46670,1,0,0:0:0:50:Kick 6.wav
320,192,46820,1,2,0:0:0:0:
448,192,46820,1,0,0:0:0:70:h_Fill4_007_Reverb.wav
192,192,46895,1,0,0:0:0:0:
64,192,46970,1,0,0:0:0:50:Kick 6.wav
320,192,47120,1,4,0:0:0:0:
448,192,47120,1,2,0:0:0:0:
192,192,47220,1,0,0:0:0:50:Kick 6.wav
448,192,47320,1,0,0:0:0:50:Kick 6.wav
64,192,47420,1,6,0:0:0:0:
192,192,47420,1,0,0:0:0:70:h_Fill4_007_Reverb.wav
320,192,47520,1,0,0:0:0:0:
64,192,47620,128,0,47720:0:0:0:0:
320,192,47720,1,2,0:0:0:0:
448,192,47720,1,0,0:0:0:0:
64,192,47870,1,0,0:0:0:50:Kick 6.wav
192,192,48020,1,2,0:0:0:0:
448,192,48020,1,0,0:0:0:70:h_Fill4_007_Reverb.wav
320,192,48095,1,0,0:0:0:0:
448,192,48170,1,0,0:0:0:50:Kick 6.wav
64,192,48320,128,2,48620:0:0:0:0:
192,192,48320,1,4,0:0:0:0:
320,192,48620,1,2,0:0:0:0:
448,192,48620,128,0,48770:0:0:0:70:h_Fill4_007_Reverb.wav
64,192,48770,128,0,48920:0:0:0:50:Kick 6.wav
192,192,48770,1,0,0:0:0:0:
320,192,48920,1,2,0:0:0:0:
448,192,48920,1,0,0:0:0:0:
192,192,48995,1,0,0:0:0:0:
64,192,49070,1,0,0:0:0:50:Kick 6.wav
64,192,49220,1,2,0:0:0:0:
192,192,49220,1,0,0:0:0:70:h_Fill4_007_Reverb.wav
320,192,49295,1,0,0:0:0:0:
448,192,49370,1,0,0:0:0:50:Kick 6.wav
64,192,49520,1,2,0:0:0:0:
448,192,49520,1,0,0:0:0:0:
320,192,49595,1,0,0:0:0:0:
192,192,49670,1,0,0:0:0:50:Kick 6.wav
64,192,49820,1,2,0:0:0:0:
448,192,49820,1,0,0:0:0:70:h_Fill4_007_Reverb.wav
192,192,49895,1,0,0:0:0:0:
320,192,49970,1,0,0:0:0:50:Kick 6.wav
192,192,50120,1,2,0:0:0:0:
448,192,50120,1,0,0:0:0:0:
320,192,50195,1,0,0:0:0:0:
192,192,50270,128,0,50420:0:0:0:50:Kick 6.wav
64,192,50420,1,2,0:0:0:0:
320,192,50420,128,0,50570:0:0:0:70:h_Fill4_007_Reverb.wav
192,192,50570,1,0,0:0:0:50:Kick 6.wav
320,192,50645,1,0,0:0:0:50:Kick 6.wav
64,192,50720,1,4,0:0:0:0:
448,192,50720,1,0,0:0:0:50:VEC3 Snares 018.wav
192,192,50820,1,0,0:0:0:0:
320,192,50920,1,0,0:0:0:0:
64,192,51020,1,0,0:0:0:0:
192,192,51120,1,0,0:0:0:0:
64,192,51220,1,0,0:0:0:0:
320,192,51320,1,4,0:0:0:0:
448,192,51320,1,0,0:0:0:50:VEC3 Snares 018.wav
192,192,51420,1,0,0:0:0:0:
64,192,51520,1,0,0:0:0:0:
448,192,51620,1,2,0:0:0:0:
320,192,51720,1,2,0:0:0:0:
192,192,51820,1,2,0:0:0:0:
64,192,51920,1,4,0:0:0:0:
448,192,51920,1,0,0:0:0:50:Tritone Kick #8.wav
320,192,51995,1,0,0:0:0:50:Tritone Kick #8.wav
64,192,52070,1,0,0:0:0:50:Tritone Kick #8.wav
192,192,52145,1,0,0:0:0:50:Tritone Kick #8.wav
448,192,52220,1,0,0:0:0:50:Tritone Kick #8.wav
320,192,52295,1,0,0:0:0:50:Tritone Kick #8.wav
192,192,52370,1,0,0:0:0:50:Tritone Kick #8.wav
64,192,52445,1,0,0:0:0:50:Tritone Kick #8.wav
320,192,52520,1,0,0:0:0:50:Tritone Kick #8.wav
448,192,52520,1,0,0:0:0:0:
64,192,52595,1,0,0:0:0:50:Tritone Kick #8.wav
192,192,52670,1,0,0:0:0:50:Tritone Kick #8.wav
320,192,52745,1,0,0:0:0:50:Tritone Kick #8.wav
64,192,52820,1,0,0:0:0:50:Tritone Kick #8.wav
448,192,52820,1,0,0:0:0:70:h_Fill4_007_Reverb.wav
64,192,53120,1,2,0:0:0:0:
192,192,53120,1,4,0:0:0:0:
320,192,53270,1,2,0:0:0:0:
448,192,53270,1,4,0:0:0:0:
64,192,53420,1,2,0:0:0:0:
192,192,53420,1,4,0:0:0:0:
320,192,53870,1,2,0:0:0:0:
448,192,53870,1,4,0:0:0:0:
64,192,54020,1,2,0:0:0:0:
192,192,54020,1,4,0:0:0:0:
192,192,54245,1,2,0:0:0:0:
448,192,54245,1,4,0:0:0:0:
192,192,54470,1,4,0:0:0:0:
448,192,54470,1,2,0:0:0:0:
192,192,54695,1,2,0:0:0:0:
448,192,54695,1,4,0:0:0:0:
64,192,54845,1,0,0:0:0:70:LR_Drum Rpd x2.wav
320,192,54920,1,2,0:0:0:0:
448,192,54920,1,4,0:0:0:0:
64,192,55070,1,2,0:0:0:0:
192,192,55070,1,4,0:0:0:0:
320,192,55220,1,2,0:0:0:0:
448,192,55220,1,4,0:0:0:0:
320,192,55520,1,4,0:0:0:0:
448,192,55520,1,2,0:0:0:0:
64,192,55620,1,4,0:0:0:0:
192,192,55620,1,2,0:0:0:0:
320,192,55720,1,2,0:0:0:0:
448,192,55720,1,4,0:0:0:0:
64,192,55820,1,2,0:0:0:0:
192,192,55820,1,4,0:0:0:0:
320,192,56045,1,2,0:0:0:0:
448,192,56045,1,4,0:0:0:0:
64,192,56270,1,4,0:0:0:0:
192,192,56270,1,2,0:0:0:0:
320,192,56420,1,2,0:0:0:0:
448,192,56420,1,4,0:0:0:0:
64,192,56570,1,4,0:0:0:0:
448,192,56570,1,2,0:0:0:0:
64,192,56720,128,4,57920:0:0:0:0:
192,192,56720,128,2,57320:0:0:0:0:
320,192,57320,1,0,0:0:0:0:
64,192,60320,1,0,0:0:0:0:
192,192,60395,1,0,0:0:0:0:
448,192,60470,1,0,0:0:0:0:
320,192,60545,1,0,0:0:0:0:
64,192,60620,1,0,0:0:0:0:
192,192,60695,1,0,0:0:0:0:
320,192,60770,1,0,0:0:0:0:
448,192,60770,128,0,61070:0:0:0:0:
64,192,61070,1,0,0:0:0:0:
192,192,61070,128,0,61520:0:0:0:0:
64,192,61520,1,2,0:0:0:0:
320,192,61520,1,4,0:0:0:0:
448,192,61520,1,0,0:0:0:0:
192,192,61670,1,0,0:0:0:70:LR_Drum Rpd x2.wav
320,192,61745,1,0,0:0:0:70:LR_Drum Rpd x2.wav
448,192,61820,1,2,0:0:0:0:
64,192,61970,1,0,0:0:0:50:Kick 6.wav
192,192,62045,1,0,0:0:0:50:Kick 6.wav
320,192,62120,1,2,0:0:0:0:
448,192,62120,1,0,0:0:0:0:
192,192,62270,1,2,0:0:0:0:
64,192,62345,1,0,0:0:0:0:
320,192,62420,1,0,0:0:0:70:LR_Drum Rpd x2.wav
192,192,62495,1,0,0:0:0:70:LR_Drum Rpd x2.wav
320,192,62570,1,0,0:0:0:70:LR_Drum Rpd x2.wav
192,192,62720,1,2,0:0:0:0:
448,192,62720,1,0,0:0:0:0:
320,192,62870,1,0,0:0:0:70:LR_Drum Rpd x2.wav
192,192,62945,1,0,0:0:0:70:LR_Drum Rpd x2.wav
64,192,63020,1,2,0:0:0:0:
448,192,63170,1,0,0:0:0:50:Kick 6.wav
320,192,63245,1,0,0:0:0:50:Kick 6.wav
64,192,63320,1,2,0:0:0:0:
192,192,63320,1,0,0:0:0:0:
320,192,63470,1,2,0:0:0:0:
192,192,63545,1,0,0:0:0:0:
64,192,63620,1,0,0:0:0:70:LR_Drum Rpd x2.wav
448,192,63620,1,0,0:0:0:0:
320,192,63695,1,0,0:0:0:0:
192,192,63770,1,0,0:0:0:70:LR_Drum Rpd x2.wav
320,192,63920,1,2,0:0:0:0:
448,192,63920,1,0,0:0:0:0:
192,192,64070,1,0,0:0:0:70:LR_Drum Rpd x2.wav
320,192,64145,1,0,0:0:0:70:LR_Drum Rpd x2.wav
192,192,64220,1,2,0:0:0:0:
320,192,64370,1,0,0:0:0:50:Kick 6.wav
448,192,64445,1,0,0:0:0:50:Kick 6.wav
64,192,64520,1,2,0:0:0:0:
192,192,64520,1,0,0:0:0:0:
448,192,64670,1,2,0:0:0:0:
320,192,64745,1,0,0:0:0:0:
64,192,64820,1,0,0:0:0:70:LR_Drum Rpd x2.wav
448,192,64920,1,0,0:0:0:70:LR_Drum Rpd x2.wav
64,192,65020,1,0,0:0:0:70:LR_Drum Rpd x2.wav
320,192,65120,1,2,0:0:0:0:
448,192,65120,1,0,0:0:0:0:
192,192,65195,1,0,0:0:0:70:LR_Drum Rpd x2.wav
64,192,65270,1,0,0:0:0:70:LR_Drum Rpd x2.wav
448,192,65345,1,0,0:0:0:70:LR_Drum Rpd x2.wav
320,192,65420,1,2,0:0:0:0:
64,192,65570,1,0,0:0:0:50:Kick 6.wav
192,192,65645,1,0,0:0:0:50:Kick 6.wav
320,192,65720,1,2,0:0:0:0:
448,192,65720,1,0,0:0:0:0:
192,192,65870,1,0,0:0:0:70:LR_Drum Rpd x2.wav
64,192,66020,1,0,0:0:0:70:LR_Drum Rpd x2.wav
448,192,66020,128,0,66170:0:0:0:0:
192,192,66170,128,0,66320:0:0:0:70:LR_Drum Rpd x2.wav
64,192,66320,1,4,0:0:0:0:
320,192,66320,1,2,0:0:0:0:
448,192,66320,1,0,0:0:0:0:
192,192,66470,1,0,0:0:0:70:LR_Drum Rpd x2.wav
320,192,66545,1,0,0:0:0:70:LR_Drum Rpd x2.wav
192,192,66620,1,2,0:0:0:0:
448,192,66620,1,0,0:0:0:0:
320,192,66770,1,0,0:0:0:50:Kick 6.wav
192,192,66845,1,0,0:0:0:50:Kick 6.wav
64,192,66920,1,2,0:0:0:0:
320,192,66920,1,0,0:0:0:0:
448,192,67070,1,2,0:0:0:0:
320,192,67145,1,2,0:0:0:0:
64,192,67220,1,0,0:0:0:70:LR_Drum Rpd x2.wav
192,192,67220,1,0,0:0:0:0:
320,192,67295,1,0,0:0:0:70:LR_Drum Rpd x2.wav
448,192,67370,1,0,0:0:0:70:LR_Drum Rpd x2.wav
64,192,67520,1,2,0:0:0:0:
192,192,67520,1,0,0:0:0:70:electronic32.wav
320,192,67670,1,0,0:0:0:70:LR_Drum Rpd x2.wav
192,192,67745,1,0,0:0:0:70:LR_Drum Rpd x2.wav
64,192,67820,1,2,0:0:0:0:
320,192,67820,1,0,0:0:0:70:electronic32.wav
192,192,67970,1,0,0:0:0:50:Kick 6.wav
320,192,68045,1,0,0:0:0:50:Kick 6.wav
192,192,68120,1,2,0:0:0:0:
448,192,68120,1,0,0:0:0:70:electronic32.wav
64,192,68270,1,2,0:0:0:0:
192,192,68345,1,2,0:0:0:0:
320,192,68420,1,0,0:0:0:70:LR_Drum Rpd x2.wav
448,192,68420,128,0,68570:0:0:0:70:electronic32.wav
64,192,68570,1,0,0:0:0:70:LR_Drum Rpd x2.wav
192,192,68720,1,6,0:0:0:0:
448,192,68720,1,0,0:0:0:70:electronic32.wav
448,192,68870,1,0,0:0:0:70:LR_Drum Rpd x2.wav
64,192,68945,1,0,0:0:0:70:LR_Drum Rpd x2.wav
192,192,69020,1,2,0:0:0:0:
320,192,69020,1,0,0:0:0:70:electronic32.wav
64,192,69170,1,0,0:0:0:50:Kick 6.wav
448,192,69245,1,0,0:0:0:50:Kick 6.wav
192,192,69320,1,2,0:0:0:0:
320,192,69320,1,0,0:0:0:70:electronic32.wav
64,192,69470,1,2,0:0:0:0:
448,192,69470,1,0,0:0:0:70:electronic32.wav
320,192,69545,1,0,0:0:0:0:
192,192,69620,1,2,0:0:0:0:
320,192,69720,1,0,0:0:0:70:LR_Drum Rpd x2.wav
192,192,69820,1,0,0:0:0:70:LR_Drum Rpd x2.wav
448,192,69920,1,0,0:0:0:0:
320,192,69995,1,0,0:0:0:0:
192,192,70070,1,0,0:0:0:0:
448,192,70145,1,0,0:0:0:0:
64,192,70220,1,0,0:0:0:0:
192,192,70295,1,0,0:0:0:0:
320,192,70370,1,0,0:0:0:0:
64,192,70445,1,0,0:0:0:0:
448,192,70520,1,0,0:0:0:0:
320,192,70595,1,0,0:0:0:0:
192,192,70670,1,0,0:0:0:0:
64,192,70745,1,0,0:0:0:0:
320,192,70820,1,0,0:0:0:70:h_Fill4_007_Reverb.wav
448,192,70820,128,0,71120:0:0:0:0:
64,192,71120,1,2,0:0:0:0:
192,192,71120,1,4,0:0:0:0:
320,192,71345,1,2,0:0:0:0:
448,192,71345,1,4,0:0:0:0:
64,192,71570,1,4,0:0:0:0:
192,192,71570,1,2,0:0:0:0:
320,192,71795,1,4,0:0:0:0:
448,192,71795,1,2,0:0:0:0:
64,192,72020,128,2,72320:0:0:0:0:
192,192,72020,1,4,0:0:0:0:
320,192,72320,1,2,0:0:0:0:
448,192,72320,1,4,0:0:0:0:
64,192,72545,1,2,0:0:0:0:
192,192,72545,1,4,0:0:0:0:
320,192,72770,1,4,0:0:0:0:
448,192,72770,1,2,0:0:0:0:
64,192,72995,1,4,0:0:0:0:
192,192,72995,1,2,0:0:0:0:
320,192,73220,128,2,73520:0:0:0:0:
448,192,73220,1,4,0:0:0:0:
64,192,73520,1,4,0:0:0:0:
448,192,73520,1,2,0:0:0:0:
192,192,73720,1,2,0:0:0:0:
320,192,73720,1,0,0:0:0:0:
64,192,73920,1,2,0:0:0:0:
448,192,73920,1,0,0:0:0:0:
320,192,74120,1,2,0:0:0:0:
448,192,74120,1,0,0:0:0:0:
192,192,74220,1,2,0:0:0:0:
320,192,74320,1,2,0:0:0:0:
64,192,74420,128,2,74720:0:0:0:0:
192,192,74420,1,0,0:0:0:0:
192,192,74720,1,2,0:0:0:0:
448,192,74720,1,4,0:0:0:0:
64,192,75020,128,0,75170:0:0:0:0:
448,192,75020,128,0,75170:0:0:0:0:
192,192,75170,128,0,75320:0:0:0:0:
448,192,75320,128,0,75620:0:0:0:0:
320,192,75470,128,0,75620:0:0:0:0:
64,192,75620,128,0,75920:0:0:0:0:
192,192,75770,128,0,75920:0:0:0:0:
320,192,75920,1,2,0:0:0:0:
448,192,75920,1,4,0:0:0:0:
64,192,75995,1,0,0:0:0:0:
192,192,76070,1,0,0:0:0:0:
320,192,76145,1,0,0:0:0:0:
448,192,76220,1,0,0:0:0:0:
64,192,76370,1,4,0:0:0:0:
192,192,76370,1,2,0:0:0:0:
448,192,76445,1,0,0:0:0:0:
320,192,76520,1,0,0:0:0:0:
192,192,76595,1,0,0:0:0:0:
64,192,76670,1,0,0:0:0:0:
320,192,76820,1,2,0:0:0:0:
448,192,76820,1,4,0:0:0:0:
192,192,76895,1,0,0:0:0:0:
64,192,76970,1,0,0:0:0:0:
320,192,77045,1,0,0:0:0:0:
448,192,77120,1,0,0:0:0:0:
64,192,77270,1,4,0:0:0:0:
192,192,77270,1,2,0:0:0:0:
320,192,77345,1,0,0:0:0:0:
448,192,77420,1,0,0:0:0:0:
192,192,77495,1,0,0:0:0:0:
64,192,77570,1,0,0:0:0:0:
192,192,77720,1,2,0:0:0:0:
448,192,77720,1,4,0:0:0:0:
320,192,77795,1,0,0:0:0:0:
448,192,77870,1,0,0:0:0:0:
64,192,78020,1,2,0:0:0:0:
320,192,78020,1,4,0:0:0:0:
192,192,78095,1,0,0:0:0:0:
64,192,78170,1,2,0:0:0:0:
320,192,78320,1,2,0:0:0:0:
448,192,78320,1,4,0:0:0:0:
192,192,78395,1,2,0:0:0:0:
320,192,78470,1,2,0:0:0:0:
448,192,78545,1,0,0:0:0:0:
64,192,78620,1,2,0:0:0:0:
192,192,78620,1,0,0:0:0:0:
320,192,78695,1,0,0:0:0:0:
192,192,78770,1,2,0:0:0:0:
64,192,78845,1,0,0:0:0:0:
320,192,78920,1,2,0:0:0:0:
448,192,78920,1,0,0:0:0:0:
192,192,78995,1,0,0:0:0:0:
320,192,79070,1,2,0:0:0:0:
192,192,79145,1,0,0:0:0:0:
64,192,79220,1,2,0:0:0:0:
448,192,79220,128,0,79520:0:0:0:0:
64,192,79520,1,4,0:0:0:0:
192,192,79520,1,2,0:0:0:0:
320,192,79620,1,2,0:0:0:0:
192,192,79720,1,2,0:0:0:0:
64,192,79820,1,2,0:0:0:0:
320,192,79820,1,0,0:0:0:0:
448,192,79920,1,2,0:0:0:0:
320,192,80020,1,2,0:0:0:0:
64,192,80120,128,4,80220:0:0:0:0:
192,192,80120,128,2,80220:0:0:0:0:
448,192,80220,1,2,0:0:0:0:
64,192,80320,1,2,0:0:0:0:
320,192,80420,128,2,80520:0:0:0:0:
448,192,80420,128,4,80520:0:0:0:0:
64,192,80520,1,2,0:0:0:0:
448,192,80620,1,2,0:0:0:0:
192,192,80720,1,4,0:0:0:0:
320,192,80720,1,0,0:0:0:70:Drumstart_041.wav
448,192,80870,1,0,0:0:0:0:
192,192,81020,1,0,0:0:0:70:Drumstart_040.wav
64,192,81170,1,0,0:0:0:0:
448,192,81170,1,0,0:0:0:0:
192,192,81320,1,0,0:0:0:70:Drumstart_041.wav
320,192,81470,1,0,0:0:0:50:vexst__emn-snare-3.wav
64,192,81620,128,0,82220:0:0:0:0:
192,192,81620,1,0,0:0:0:0:
448,192,81770,1,0,0:0:0:0:
320,192,81920,1,0,0:0:0:70:Drumstart_041.wav
192,192,82070,1,0,0:0:0:70:Drumstart_041.wav
448,192,82220,1,0,0:0:0:70:Drumstart_040.wav
192,192,82370,1,0,0:0:0:70:Drumstart_041.wav
320,192,82520,1,0,0:0:0:50:vexst__emn-snare-3.wav
64,192,82670,1,0,0:0:0:70:Drumstart_040.wav
320,192,82820,1,0,0:0:0:0:
448,192,82970,1,0,0:0:0:0:
64,192,83120,1,0,0:0:0:70:Drumstart_041.wav
320,192,83120,1,0,0:0:0:0:
192,192,83270,1,0,0:0:0:0:
320,192,83420,1,0,0:0:0:70:Drumstart_040.wav
64,192,83570,1,0,0:0:0:0:
448,192,83570,1,0,0:0:0:0:
320,192,83720,1,0,0:0:0:70:Drumstart_041.wav
192,192,83870,1,0,0:0:0:50:vexst__emn-snare-3.wav
320,192,84020,1,0,0:0:0:0:
448,192,84020,128,0,84620:0:0:0:0:
64,192,84170,1,0,0:0:0:0:
192,192,84320,1,0,0:0:0:50:vexst__emn-snare-3.wav
64,192,84470,1,0,0:0:0:70:Drumstart_041.wav
320,192,84620,1,0,0:0:0:70:Drumstart_041.wav
192,192,84770,1,0,0:0:0:70:Drumstart_040.wav
448,192,84920,1,0,0:0:0:50:vexst__emn-snare-3.wav
64,192,85070,1,0,0:0:0:70:Drumstart_040.wav
320,192,85220,1,0,0:0:0:0:
192,192,85370,1,0,0:0:0:0:
64,192,85520,1,0,0:0:0:70:Drumstart_041.wav
320,192,85520,1,0,0:0:0:0:
448,192,85670,1,0,0:0:0:0:
64,192,85820,1,0,0:0:0:70:Drumstart_040.wav
192,192,85970,1,0,0:0:0:0:
448,192,85970,1,0,0:0:0:0:
320,192,86120,1,0,0:0:0:70:Drumstart_041.wav
192,192,86270,1,0,0:0:0:50:vexst__emn-snare-3.wav
64,192,86420,128,0,87020:0:0:0:0:
448,192,86420,1,0,0:0:0:0:
320,192,86570,1,0,0:0:0:0:
448,192,86720,1,0,0:0:0:70:Drumstart_041.wav
192,192,86870,1,0,0:0:0:70:Drumstart_041.wav
320,192,87020,1,0,0:0:0:70:Drumstart_040.wav
192,192,87170,1,0,0:0:0:70:Drumstart_041.wav
64,192,87320,1,0,0:0:0:50:vexst__emn-snare-3.wav
320,192,87470,1,0,0:0:0:70:Drumstart_040.wav
192,192,87620,1,0,0:0:0:0:
448,192,87770,1,0,0:0:0:0:
64,192,87920,1,0,0:0:0:70:Drumstart_041.wav
320,192,87920,1,0,0:0:0:0:
192,192,88070,1,0,0:0:0:0:
320,192,88220,1,0,0:0:0:70:Drumstart_040.wav
192,192,88370,1,0,0:0:0:0:
448,192,88370,1,0,0:0:0:0:
64,192,88520,1,0,0:0:0:70:Drumstart_041.wav
320,192,88670,1,0,0:0:0:50:vexst__emn-snare-3.wav
192,192,88820,1,0,0:0:0:0:
448,192,88820,128,0,89720:0:0:0:0:
64,192,88970,1,0,0:0:0:0:
320,192,89120,1,0,0:0:0:50:vexst__emn-snare-3.wav
192,192,89270,1,0,0:0:0:70:Drumstart_041.wav
64,192,89420,1,0,0:0:0:70:Drumstart_041.wav
320,192,89570,1,0,0:0:0:70:Drumstart_040.wav
64,192,89720,128,0,90170:0:0:0:50:vexst__emn-snare-3.wav
192,192,89720,1,0,0:0:0:0:
320,192,89870,1,0,0:0:0:70:Drumstart_040.wav
448,192,90020,1,0,0:0:0:0:
320,192,90170,1,0,0:0:0:0:
64,192,90320,1,4,0:0:0:0:
192,192,90320,1,2,0:0:0:0:
448,192,90320,1,0,0:0:0:0:
320,192,90470,1,0,0:0:0:0:
192,192,90620,1,0,0:0:0:70:electronic32.wav
448,192,90620,1,0,0:0:0:0:
64,192,90770,1,0,0:0:0:0:
320,192,90920,1,0,0:0:0:70:electronic32.wav
448,192,90920,1,0,0:0:0:0:
192,192,91070,1,0,0:0:0:0:
64,192,91220,1,0,0:0:0:70:electronic32.wav
320,192,91220,1,0,0:0:0:0:
448,192,91370,1,0,0:0:0:0:
64,192,91520,1,0,0:0:0:70:electronic32.wav
192,192,91520,1,0,0:0:0:0:
320,192,91670,1,0,0:0:0:0:
64,192,91820,1,0,0:0:0:70:electronic32.wav
448,192,91820,1,0,0:0:0:0:
192,192,91970,1,0,0:0:0:0:
64,192,92120,1,0,0:0:0:70:electronic32.wav
320,192,92120,1,0,0:0:0:0:
192,192,92270,1,0,0:0:0:0:
320,192,92420,1,0,0:0:0:70:electronic32.wav
448,192,92420,1,0,0:0:0:0:
64,192,92570,1,2,0:0:0:0:
192,192,92570,1,0,0:0:0:0:
64,192,92720,1,2,0:0:0:0:
448,192,92720,1,0,0:0:0:0:
192,192,92870,1,0,0:0:0:0:
64,192,93020,1,0,0:0:0:70:electronic32.wav
320,192,93020,1,0,0:0:0:0:
448,192,93170,1,0,0:0:0:0:
64,192,93320,1,0,0:0:0:70:electronic32.wav
192,192,93320,1,0,0:0:0:0:
320,192,93470,1,0,0:0:0:0:
64,192,93620,1,0,0:0:0:70:electronic32.wav
448,192,93620,1,0,0:0:0:0:
192,192,93770,1,0,0:0:0:0:
320,192,93920,1,0,0:0:0:70:electronic32.wav
448,192,93920,1,0,0:0:0:0:
64,192,94070,1,0,0:0:0:0:
192,192,94220,1,0,0:0:0:70:electronic32.wav
448,192,94220,1,0,0:0:0:0:
320,192,94370,1,0,0:0:0:0:
192,192,94520,1,0,0:0:0:70:electronic32.wav
448,192,94520,1,0,0:0:0:0:
64,192,94670,1,0,0:0:0:0:
192,192,94820,1,0,0:0:0:70:electronic32.wav
448,192,94820,1,0,0:0:0:0:
64,192,94970,1,2,0:0:0:0:
320,192,94970,1,0,0:0:0:0:
320,192,95120,1,2,0:0:0:0:
448,192,95120,1,0,0:0:0:0:
64,192,95270,1,0,0:0:0:70:electronic32.wav
192,192,95420,1,0,0:0:0:70:electronic32.wav
448,192,95420,1,0,0:0:0:0:
320,192,95570,1,0,0:0:0:70:electronic32.wav
64,192,95720,1,0,0:0:0:70:electronic32.wav
192,192,95720,1,0,0:0:0:0:
320,192,95870,1,0,0:0:0:70:electronic32.wav
64,192,96020,1,0,0:0:0:70:electronic32.wav
448,192,96020,1,0,0:0:0:0:
192,192,96170,1,0,0:0:0:70:electronic32.wav
320,192,96320,1,0,0:0:0:70:electronic32.wav
448,192,96320,1,0,0:0:0:0:
64,192,96470,1,0,0:0:0:70:electronic32.wav
192,192,96620,1,0,0:0:0:70:electronic32.wav
320,192,96620,1,0,0:0:0:0:
448,192,96770,1,0,0:0:0:70:electronic32.wav
64,192,96920,1,0,0:0:0:70:electronic32.wav
192,192,96920,1,0,0:0:0:0:
320,192,97070,1,0,0:0:0:70:electronic32.wav
64,192,97220,1,0,0:0:0:70:electronic32.wav
448,192,97220,1,0,0:0:0:0:
320,192,97370,1,0,0:0:0:70:electronic32.wav
64,192,97520,1,2,0:0:0:0:
448,192,97520,1,0,0:0:0:0:
320,192,97595,1,0,0:0:0:0:
192,192,97670,1,0,0:0:0:0:
64,192,97745,1,0,0:0:0:0:
192,192,97895,1,0,0:0:0:0:
320,192,97970,1,0,0:0:0:0:
448,192,98045,1,0,0:0:0:0:
320,192,98195,1,0,0:0:0:0:
192,192,98270,1,0,0:0:0:0:
64,192,98345,1,0,0:0:0:0:
320,192,98495,1,0,0:0:0:0:
192,192,98570,1,0,0:0:0:0:
320,192,98645,1,0,0:0:0:0:
64,192,98720,1,0,0:0:0:70:LS-HK Distorted Kick 51.wav
192,192,98720,1,0,0:0:0:0:
448,192,98720,1,0,0:0:0:0:
448,192,99020,128,0,99170:0:0:0:0:
64,192,99170,128,0,99320:0:0:0:0:
320,192,99320,128,0,99470:0:0:0:70:h_Fill4_007_Reverb.wav
448,192,99320,1,0,0:0:0:0:
192,192,99470,128,0,99620:0:0:0:0:
64,192,99620,1,0,0:0:0:70:LS-HK Distorted Kick 81.wav
320,192,99620,1,0,0:0:0:0:
64,192,99920,1,4,0:0:0:0:
448,192,99920,1,2,0:0:0:0:
320,192,100070,1,0,0:0:0:0:
192,192,100145,1,0,0:0:0:0:
64,192,100220,1,0,0:0:0:0:
192,192,100370,1,2,0:0:0:0:
448,192,100370,1,0,0:0:0:0:
64,192,100520,1,8,0:0:0:0:
320,192,100520,1,0,0:0:0:0:
192,192,100595,1,0,0:0:0:0:
320,192,100670,1,0,0:0:0:0:
448,192,100820,1,0,0:0:0:0:
192,192,100970,1,2,0:0:0:0:
320,192,101045,1,0,0:0:0:0:
64,192,101120,1,2,0:0:0:0:
448,192,101120,128,0,101270:0:0:0:0:
192,192,101270,128,0,101420:0:0:0:0:
320,192,101420,128,2,101570:0:0:0:0:
448,192,101420,1,0,0:0:0:0:
64,192,101570,128,0,101720:0:0:0:0:
192,192,101720,1,8,0:0:0:0:
448,192,101720,128,0,101870:0:0:0:0:
320,192,101870,128,0,102020:0:0:0:0:
64,192,102020,128,0,102170:0:0:0:0:
448,192,102170,128,0,102320:0:0:0:0:
64,192,102320,1,2,0:0:0:0:
192,192,102320,1,0,0:0:0:0:
320,192,102420,1,0,0:0:0:0:
448,192,102520,1,0,0:0:0:0:
64,192,102620,1,0,0:0:0:0:
320,192,102620,1,0,0:0:0:0:
192,192,102770,1,2,0:0:0:0:
320,192,102920,1,8,0:0:0:0:
448,192,102920,1,0,0:0:0:0:
192,192,102995,1,0,0:0:0:0:
64,192,103070,1,0,0:0:0:0:
192,192,103220,1,0,0:0:0:0:
320,192,103370,1,0,0:0:0:0:
192,192,103445,1,0,0:0:0:0:
64,192,103520,1,2,0:0:0:0:
448,192,103520,128,0,103820:0:0:0:70:cymbal00.wav
64,192,103820,128,2,104120:0:0:0:0:
192,192,103820,1,0,0:0:0:0:
320,192,104120,1,8,0:0:0:0:
448,192,104120,128,0,104270:0:0:0:0:
64,192,104270,128,2,104420:0:0:0:0:
320,192,104420,128,0,104570:0:0:0:0:
192,192,104570,128,0,104720:0:0:0:0:
64,192,104720,1,2,0:0:0:0:
448,192,104720,1,4,0:0:0:0:
320,192,104870,1,0,0:0:0:0:
192,192,104945,1,0,0:0:0:0:
64,192,105020,1,0,0:0:0:0:
64,192,105170,1,2,0:0:0:0:
320,192,105170,1,0,0:0:0:0:
192,192,105320,1,8,0:0:0:0:
448,192,105320,1,0,0:0:0:0:
320,192,105395,1,0,0:0:0:0:
448,192,105470,1,0,0:0:0:0:
64,192,105620,1,0,0:0:0:0:
192,192,105770,1,2,0:0:0:0:
320,192,105845,1,0,0:0:0:0:
192,192,105920,1,2,0:0:0:0:
448,192,105920,128,0,106070:0:0:0:0:
64,192,106070,128,0,106220:0:0:0:0:
320,192,106220,128,2,106370:0:0:0:0:
448,192,106220,1,0,0:0:0:0:
192,192,106370,128,0,106520:0:0:0:0:
64,192,106520,1,8,0:0:0:0:
448,192,106520,1,0,0:0:0:0:
320,192,106595,1,0,0:0:0:0:
192,192,106670,128,0,106820:0:0:0:0:
320,192,106820,128,0,106970:0:0:0:0:
448,192,106970,128,0,107120:0:0:0:0:
64,192,107120,1,2,0:0:0:0:
192,192,107120,1,0,0:0:0:0:
320,192,107195,1,0,0:0:0:0:
448,192,107270,1,0,0:0:0:0:
320,192,107420,1,0,0:0:0:0:
64,192,107570,1,2,0:0:0:0:
192,192,107570,1,0,0:0:0:0:
320,192,107720,1,8,0:0:0:0:
448,192,107720,1,0,0:0:0:0:
192,192,107795,1,0,0:0:0:0:
64,192,107870,1,0,0:0:0:0:
320,192,108020,1,0,0:0:0:0:
448,192,108170,1,0,0:0:0:0:
64,192,108320,1,2,0:0:0:0:
192,192,108320,1,0,0:0:0:70:cymbal00.wav
448,192,108395,1,0,0:0:0:0:
64,192,108470,1,0,0:0:0:70:electronic32.wav
192,192,108470,1,0,0:0:0:0:
320,192,108620,1,0,0:0:0:70:electronic32.wav
448,192,108620,128,0,108770:0:0:0:0:
64,192,108770,1,0,0:0:0:70:electronic32.wav
192,192,108770,128,0,108920:0:0:0:0:
320,192,108920,128,0,109070:0:0:0:70:electronic32.wav
448,192,108920,1,0,0:0:0:0:
64,192,109070,128,0,109370:0:0:0:0:
448,192,109370,1,0,0:0:0:0:
64,192,109520,1,2,0:0:0:0:
320,192,109520,1,4,0:0:0:0:
192,192,109670,1,2,0:0:0:0:
448,192,109670,1,4,0:0:0:0:
64,192,109820,1,2,0:0:0:0:
320,192,109820,1,4,0:0:0:0:
64,192,110270,1,2,0:0:0:0:
320,192,110270,1,4,0:0:0:0:
192,192,110420,1,2,0:0:0:0:
448,192,110420,1,4,0:0:0:0:
64,192,110645,1,2,0:0:0:0:
192,192,110645,1,4,0:0:0:0:
64,192,110870,1,4,0:0:0:0:
192,192,110870,1,2,0:0:0:0:
64,192,111095,1,2,0:0:0:0:
192,192,111095,1,4,0:0:0:0:
320,192,111245,1,6,0:0:0:0:
192,192,111320,1,2,0:0:0:0:
448,192,111320,1,4,0:0:0:0:
320,192,111470,1,2,0:0:0:0:
448,192,111470,1,4,0:0:0:0:
64,192,111620,1,6,0:0:0:0:
192,192,111620,1,8,0:0:0:0:
192,192,111920,1,4,0:0:0:0:
320,192,111920,1,2,0:0:0:0:
64,192,112020,1,4,0:0:0:0:
448,192,112020,1,2,0:0:0:0:
192,192,112120,1,2,0:0:0:0:
320,192,112120,1,4,0:0:0:0:
64,192,112220,1,2,0:0:0:0:
448,192,112220,1,4,0:0:0:0:
64,192,112445,1,2,0:0:0:0:
192,192,112445,1,4,0:0:0:0:
320,192,112670,1,4,0:0:0:0:
448,192,112670,1,2,0:0:0:0:
64,192,112820,1,2,0:0:0:0:
192,192,112820,1,4,0:0:0:0:
320,192,112970,1,4,0:0:0:0:
448,192,112970,1,2,0:0:0:0:
192,192,113120,1,2,0:0:0:0:
320,192,113220,1,0,0:0:0:0:
192,192,113320,1,0,0:0:0:0:
64,192,113420,1,2,0:0:0:0:
448,192,113420,128,4,113720:0:0:0:0:
64,192,113720,1,2,0:0:0:0:
192,192,113720,1,4,0:0:0:0:
320,192,113870,1,2,0:0:0:0:
192,192,113945,1,0,0:0:0:0:
64,192,114020,1,12,0:0:0:0:
448,192,114020,1,2,0:0:0:0:
320,192,114120,1,2,0:0:0:0:
192,192,114220,1,2,0:0:0:0:
64,192,114320,1,2,0:0:0:0:
448,192,114320,1,4,0:0:0:0:
192,192,114470,1,2,0:0:0:0:
320,192,114470,1,4,0:0:0:0:
64,192,114620,1,2,0:0:0:0:
448,192,114620,1,4,0:0:0:0:
320,192,115070,1,2,0:0:0:0:
448,192,115070,1,4,0:0:0:0:
64,192,115220,1,2,0:0:0:0:
192,192,115220,1,4,0:0:0:0:
320,192,115445,1,2,0:0:0:0:
448,192,115445,1,4,0:0:0:0:
320,192,115670,1,4,0:0:0:0:
448,192,115670,1,2,0:0:0:0:
320,192,115895,1,2,0:0:0:0:
448,192,115895,1,4,0:0:0:0:
192,192,116045,1,6,0:0:0:0:
64,192,116120,1,2,0:0:0:0:
320,192,116120,1,4,0:0:0:0:
192,192,116270,1,2,0:0:0:0:
448,192,116270,1,4,0:0:0:0:
64,192,116420,1,6,0:0:0:0:
320,192,116420,1,8,0:0:0:0:
64,192,116720,1,6,0:0:0:0:
192,192,116820,1,6,0:0:0:0:
320,192,116920,1,6,0:0:0:0:
64,192,117020,1,2,0:0:0:0:
448,192,117020,1,4,0:0:0:0:
192,192,117245,1,2,0:0:0:0:
320,192,117245,1,4,0:0:0:0:
64,192,117470,1,4,0:0:0:0:
320,192,117470,1,2,0:0:0:0:
192,192,117620,1,2,0:0:0:0:
448,192,117620,1,4,0:0:0:0:
192,192,117770,1,4,0:0:0:0:
320,192,117770,1,2,0:0:0:0:
448,192,117920,1,4,0:0:0:0:
192,192,117995,1,0,0:0:0:50:Kick 6.wav
320,192,118070,1,0,0:0:0:50:Kick 6.wav
64,192,118145,1,0,0:0:0:50:Kick 6.wav
448,192,118220,1,4,0:0:0:0:
192,192,118295,1,0,0:0:0:50:Kick 6.wav
320,192,118370,1,0,0:0:0:50:Kick 6.wav
64,192,118445,1,0,0:0:0:50:Kick 6.wav
448,192,118520,1,4,0:0:0:0:
320,192,118570,1,0,0:0:0:50:Kick 6.wav
192,192,118620,1,0,0:0:0:50:Kick 6.wav
64,192,118670,1,0,0:0:0:50:Kick 6.wav
320,192,118820,1,6,0:0:0:0:
192,192,118895,1,0,0:0:0:0:
320,192,118970,1,0,0:0:0:0:
64,192,119045,1,0,0:0:0:0:
192,192,119120,1,2,0:0:0:0:
448,192,119120,1,4,0:0:0:0:
64,192,119270,1,0,0:0:0:50:Kick 6.wav
192,192,119345,1,0,0:0:0:50:Kick 6.wav
64,192,119420,1,2,0:0:0:0:
320,192,119420,1,0,0:0:0:70:h_Fill4_007_Reverb.wav
192,192,119570,1,0,0:0:0:50:Kick 6.wav
448,192,119570,1,0,0:0:0:0:
320,192,119645,1,0,0:0:0:50:Kick 6.wav
192,192,119720,1,10,0:0:0:0:
64,192,119870,1,0,0:0:0:50:Kick 6.wav
448,192,119870,1,0,0:0:0:0:
320,192,119945,1,0,0:0:0:50:Kick 6.wav
192,192,120020,1,2,0:0:0:0:
320,192,120095,1,0,0:0:0:0:
64,192,120170,1,0,0:0:0:50:Kick 6.wav
448,192,120170,1,0,0:0:0:0:
192,192,120320,1,2,0:0:0:0:
320,192,120320,128,0,120470:0:0:0:0:
448,192,120470,1,0,0:0:0:50:Kick 6.wav
192,192,120545,1,0,0:0:0:0:
64,192,120620,128,2,120770:0:0:0:0:
320,192,120620,1,0,0:0:0:70:h_Fill4_007_Reverb.wav
192,192,120770,1,0,0:0:0:50:Kick 6.wav
320,192,120845,1,0,0:0:0:0:
192,192,120920,1,8,0:0:0:0:
448,192,120920,128,2,121070:0:0:0:0:
320,192,121070,1,0,0:0:0:50:Kick 6.wav
64,192,121145,1,0,0:0:0:0:
192,192,121220,128,2,121370:0:0:0:0:
448,192,121220,1,0,0:0:0:70:h_Fill4_007_Reverb.wav
64,192,121370,1,6,0:0:0:0:
320,192,121370,1,0,0:0:0:50:Kick 6.wav
320,192,121720,1,0,0:0:0:70:LR_Drum Rpd x2.wav
448,192,121720,1,0,0:0:0:0:
64,192,121820,1,2,0:0:0:0:
192,192,121820,1,4,0:0:0:0:
448,192,121920,1,2,0:0:0:0:
64,192,122020,1,0,0:0:0:70:LR_Drum Rpd x2.wav
320,192,122120,1,10,0:0:0:0:
448,192,122120,1,4,0:0:0:0:
64,192,122220,1,2,0:0:0:0:
192,192,122220,1,0,0:0:0:0:
320,192,122320,1,0,0:0:0:70:LR_Drum Rpd x2.wav
192,192,122420,1,6,0:0:0:0:
64,192,122520,1,2,0:0:0:0:
448,192,122520,1,0,0:0:0:0:
192,192,122620,1,0,0:0:0:70:LR_Drum Rpd x2.wav
320,192,122720,1,6,0:0:0:0:
64,192,122820,1,0,0:0:0:50:Kick 6.wav
448,192,122820,1,0,0:0:0:0:
320,192,122920,1,0,0:0:0:50:Kick 6.wav
64,192,123020,1,6,0:0:0:0:
192,192,123020,1,0,0:0:0:70:h_Fill4_007_Reverb.wav
448,192,123120,1,0,0:0:0:50:Kick 6.wav
64,192,123220,1,0,0:0:0:50:Kick 6.wav
320,192,123320,1,8,0:0:0:0:
448,192,123320,128,2,123470:0:0:0:0:
192,192,123470,1,0,0:0:0:50:Kick 6.wav
320,192,123545,1,0,0:0:0:50:Kick 6.wav
64,192,123620,128,2,123770:0:0:0:0:
192,192,123620,1,0,0:0:0:70:h_Fill4_007_Reverb.wav
320,192,123770,1,0,0:0:0:50:Kick 6.wav
448,192,123770,128,0,123920:0:0:0:0:
64,192,123920,1,4,0:0:0:0:
192,192,123920,1,2,0:0:0:0:
320,192,124070,128,0,124220:0:0:0:50:Kick 6.wav
192,192,124220,128,2,124370:0:0:0:0:
448,192,124220,1,0,0:0:0:70:h_Fill4_007_Reverb.wav
448,192,124370,128,0,124520:0:0:0:50:Kick 6.wav
64,192,124520,128,8,124670:0:0:0:0:
320,192,124520,1,2,0:0:0:0:
448,192,124670,128,0,124820:0:0:0:50:Kick 6.wav
64,192,124820,1,2,0:0:0:0:
192,192,124820,128,0,124970:0:0:0:70:h_Fill4_007_Reverb.wav
320,192,124970,128,0,125120:0:0:0:50:Kick 6.wav
64,192,125120,128,2,125270:0:0:0:0:
448,192,125120,1,0,0:0:0:0:
192,192,125270,128,0,125420:0:0:0:50:Kick 6.wav
320,192,125420,1,2,0:0:0:0:
448,192,125420,128,0,125570:0:0:0:70:h_Fill4_007_Reverb.wav
64,192,125570,128,0,125720:0:0:0:50:Kick 6.wav
192,192,125720,1,8,0:0:0:0:
320,192,125720,128,2,125870:0:0:0:0:
448,192,125870,128,0,126020:0:0:0:50:Kick 6.wav
64,192,126020,1,2,0:0:0:0:
192,192,126020,128,0,126170:0:0:0:70:h_Fill4_007_Reverb.wav
320,192,126170,1,0,0:0:0:50:Kick 6.wav
448,192,126170,1,0,0:0:0:0:
64,192,126320,1,0,0:0:0:50:VEC3 Snares 018.wav
192,192,126395,1,0,0:0:0:50:VEC3 Snares 018.wav
320,192,126470,1,2,0:0:0:0:
448,192,126470,1,0,0:0:0:70:cymbal00.wav
64,192,126620,1,4,0:0:0:0:
192,192,126620,1,2,0:0:0:0:
320,192,126770,1,6,0:0:0:0:
448,192,126920,1,8,0:0:0:0:
320,192,126995,1,0,0:0:0:50:VEC3 Snares 018.wav
64,192,127070,1,2,0:0:0:0:
192,192,127070,1,0,0:0:0:70:cymbal00.wav
320,192,127220,1,4,0:0:0:0:
448,192,127220,1,2,0:0:0:0:
192,192,127370,1,6,0:0:0:0:
64,192,127520,1,0,0:0:0:50:VEC3 Snares 018.wav
448,192,127520,1,0,0:0:0:0:
320,192,127670,1,0,0:0:0:50:Tritone Kick #8.wav
192,192,127745,1,0,0:0:0:0:
64,192,127820,1,0,0:0:0:50:VEC3 Snares 018.wav
448,192,127820,1,0,0:0:0:0:
320,192,127970,1,0,0:0:0:50:Tritone Kick #8.wav
448,192,127970,1,0,0:0:0:0:
192,192,128120,1,0,0:0:0:50:Tritone Kick #8.wav
320,192,128195,1,0,0:0:0:50:Tritone Kick #8.wav
64,192,128270,128,0,128570:0:0:0:50:Tritone Kick #8.wav
448,192,128270,1,0,0:0:0:0:
320,192,128570,1,0,0:0:0:50:Tritone Kick #8.wav
448,192,128570,1,0,0:0:0:50:VEC3 Snares 018.wav
192,192,128720,1,6,0:0:0:0:
64,192,128795,1,0,0:0:0:0:
320,192,128870,1,0,0:0:0:50:Kick 6.wav
192,192,128945,1,0,0:0:0:50:Kick 6.wav
64,192,129020,1,2,0:0:0:0:
448,192,129020,1,0,0:0:0:70:h_Fill4_007_Reverb.wav
192,192,129170,1,0,0:0:0:50:Kick 6.wav
320,192,129320,1,8,0:0:0:0:
448,192,129320,128,2,129470:0:0:0:0:
192,192,129470,128,0,129620:0:0:0:50:Kick 6.wav
64,192,129620,128,2,129920:0:0:0:0:
320,192,129620,1,0,0:0:0:70:h_Fill4_007_Reverb.wav
192,192,129920,1,2,0:0:0:0:
448,192,129920,1,0,0:0:0:0:
320,192,129995,1,0,0:0:0:0:
192,192,130070,1,0,0:0:0:50:Kick 6.wav
448,192,130145,1,0,0:0:0:0:
64,192,130220,1,2,0:0:0:0:
320,192,130220,1,0,0:0:0:70:h_Fill4_007_Reverb.wav
192,192,130370,128,8,130520:0:0:0:0:
64,192,130520,1,2,0:0:0:0:
448,192,130520,1,0,0:0:0:0:
320,192,130670,128,0,130820:0:0:0:50:Kick 6.wav
448,192,130670,128,0,130820:0:0:0:0:
192,192,130820,1,10,0:0:0:0:
64,192,130895,1,0,0:0:0:0:
448,192,130970,1,6,0:0:0:0:
320,192,131045,1,0,0:0:0:0:
64,192,131120,128,0,131420:0:0:0:0:
192,192,131120,128,0,131420:0:0:0:0:
320,192,131420,1,4,0:0:0:0:
448,192,131420,1,2,0:0:0:0:
192,192,131520,1,2,0:0:0:0:
320,192,131620,1,0,0:0:0:70:LR_Drum Rpd x2.wav
64,192,131720,1,6,0:0:0:0:
192,192,131720,1,8,0:0:0:0:
448,192,131820,1,2,0:0:0:0:
64,192,131920,1,0,0:0:0:70:LR_Drum Rpd x2.wav
320,192,132020,1,4,0:0:0:0:
448,192,132020,1,2,0:0:0:0:
192,192,132120,1,2,0:0:0:0:
320,192,132220,1,0,0:0:0:70:LR_Drum Rpd x2.wav
64,192,132320,128,4,132470:0:0:0:0:
192,192,132320,1,2,0:0:0:0:
320,192,132470,128,0,132620:0:0:0:0:
192,192,132620,128,6,132770:0:0:0:0:
448,192,132620,1,0,0:0:0:70:h_Fill4_007_Reverb.wav
64,192,132770,128,0,132920:0:0:0:0:
320,192,132920,1,2,0:0:0:0:
448,192,132920,128,0,133070:0:0:0:0:
64,192,133070,1,0,0:0:0:50:Kick 6.wav
192,192,133070,1,0,0:0:0:0:
320,192,133145,1,0,0:0:0:50:Kick 6.wav
64,192,133220,128,10,133370:0:0:0:0:
448,192,133220,1,0,0:0:0:70:h_Fill4_007_Reverb.wav
320,192,133370,128,0,133520:0:0:0:50:Kick 6.wav
64,192,133520,1,2,0:0:0:0:
448,192,133520,1,4,0:0:0:0:
192,192,133595,1,0,0:0:0:0:
320,192,133670,1,0,0:0:0:50:Kick 6.wav
64,192,133820,1,2,0:0:0:0:
448,192,133820,1,0,0:0:0:70:h_Fill4_007_Reverb.wav
192,192,133970,1,0,0:0:0:50:Kick 6.wav
64,192,134120,1,8,0:0:0:0:
320,192,134120,1,2,0:0:0:0:
192,192,134195,1,0,0:0:0:0:
320,192,134270,1,0,0:0:0:50:Kick 6.wav
64,192,134345,1,0,0:0:0:50:Kick 6.wav
192,192,134420,1,2,0:0:0:0:
448,192,134420,1,0,0:0:0:70:h_Fill4_007_Reverb.wav
320,192,134570,1,0,0:0:0:50:Kick 6.wav
192,192,134720,1,2,0:0:0:0:
448,192,134720,1,0,0:0:0:0:
64,192,134795,1,0,0:0:0:0:
320,192,134870,1,0,0:0:0:50:Kick 6.wav
192,192,134945,1,0,0:0:0:50:Kick 6.wav
64,192,135020,1,2,0:0:0:0:
448,192,135020,128,0,135170:0:0:0:70:h_Fill4_007_Reverb.wav
320,192,135170,128,8,135320:0:0:0:0:
64,192,135320,1,2,0:0:0:0:
192,192,135320,1,0,0:0:0:0:
448,192,135470,128,0,135620:0:0:0:50:Kick 6.wav
64,192,135620,1,10,0:0:0:0:
192,192,135620,1,0,0:0:0:70:h_Fill4_007_Reverb.wav
320,192,135695,1,0,0:0:0:0:
448,192,135770,1,0,0:0:0:50:Kick 6.wav
192,192,135845,1,0,0:0:0:50:Kick 6.wav
64,192,135920,128,4,136220:0:0:0:0:
320,192,135920,1,0,0:0:0:50:VEC3 Snares 018.wav
192,192,136220,1,2,0:0:0:0:
448,192,136220,1,4,0:0:0:0:
320,192,136320,1,0,0:0:0:0:
192,192,136420,1,0,0:0:0:0:
64,192,136520,1,0,0:0:0:50:VEC3 Snares 018.wav
448,192,136520,1,0,0:0:0:0:
192,192,136620,1,0,0:0:0:0:
320,192,136720,1,0,0:0:0:0:
64,192,136820,1,2,0:0:0:0:
448,192,136820,1,4,0:0:0:0:
320,192,136970,1,6,0:0:0:0:
192,192,137045,1,0,0:0:0:0:
64,192,137120,1,4,0:0:0:0:
448,192,137120,128,0,137270:0:0:0:50:VEC3 Snares 018.wav
192,192,137270,1,0,0:0:0:50:Tritone Kick #8.wav
320,192,137345,1,0,0:0:0:50:Tritone Kick #8.wav
64,192,137420,128,0,137570:0:0:0:50:VEC3 Snares 018.wav
448,192,137420,1,0,0:0:0:0:
448,192,137570,1,0,0:0:0:50:Tritone Kick #8.wav
320,192,137645,1,0,0:0:0:50:Tritone Kick #8.wav
192,192,137720,1,0,0:0:0:50:Tritone Kick #8.wav
448,192,137720,1,0,0:0:0:0:
64,192,137795,1,0,0:0:0:50:Tritone Kick #8.wav
448,192,137870,1,0,0:0:0:50:Tritone Kick #8.wav
320,192,137945,1,0,0:0:0:50:Tritone Kick #8.wav
64,192,138020,128,0,138170:0:0:0:50:Tritone Kick #8.wav
192,192,138020,1,0,0:0:0:70:h_Fill4_007_Reverb.wav
320,192,138170,1,0,0:0:0:50:Tritone Kick #8.wav
192,192,138245,1,0,0:0:0:0:
320,192,138320,1,2,0:0:0:0:
448,192,138320,1,4,0:0:0:0:
64,192,138470,1,2,0:0:0:0:
192,192,138470,1,4,0:0:0:0:
320,192,138620,1,2,0:0:0:0:
448,192,138620,1,4,0:0:0:0:
64,192,139070,1,2,0:0:0:0:
192,192,139070,1,4,0:0:0:0:
320,192,139220,1,2,0:0:0:0:
448,192,139220,1,4,0:0:0:0:
64,192,139445,1,2,0:0:0:0:
320,192,139445,1,4,0:0:0:0:
64,192,139670,1,4,0:0:0:0:
320,192,139670,1,2,0:0:0:0:
64,192,139895,1,2,0:0:0:0:
320,192,139895,1,4,0:0:0:0:
448,192,140045,1,0,0:0:0:70:LR_Drum Rpd x2.wav
64,192,140120,1,2,0:0:0:0:
192,192,140120,1,4,0:0:0:0:
320,192,140270,1,2,0:0:0:0:
448,192,140270,1,4,0:0:0:0:
64,192,140420,1,2,0:0:0:0:
192,192,140420,1,4,0:0:0:0:
64,192,140720,1,4,0:0:0:0:
192,192,140720,1,2,0:0:0:0:
320,192,140820,1,4,0:0:0:0:
448,192,140820,1,2,0:0:0:0:
64,192,140920,1,2,0:0:0:0:
192,192,140920,1,4,0:0:0:0:
320,192,141020,1,2,0:0:0:0:
448,192,141020,1,4,0:0:0:0:
64,192,141245,1,2,0:0:0:0:
192,192,141245,1,4,0:0:0:0:
320,192,141470,1,4,0:0:0:0:
448,192,141470,1,2,0:0:0:0:
64,192,141620,1,2,0:0:0:0:
192,192,141620,1,4,0:0:0:0:
448,192,141720,1,6,0:0:0:0:
64,192,141820,1,6,0:0:0:0:
320,192,141920,1,4,0:0:0:0:
448,192,141920,1,2,0:0:0:0:
192,192,142020,1,6,0:0:0:0:
320,192,142120,1,6,0:0:0:0:
64,192,142220,1,2,0:0:0:0:
192,192,142220,1,4,0:0:0:0:
320,192,142320,1,6,0:0:0:0:
192,192,142420,1,6,0:0:0:0:
320,192,142520,1,4,0:0:0:0:
448,192,142520,1,2,0:0:0:0:
64,192,142620,1,6,0:0:0:0:
448,192,142720,1,6,0:0:0:0:
64,192,142820,1,2,0:0:0:0:
192,192,142820,1,4,0:0:0:0:
448,192,142920,1,6,0:0:0:0:
64,192,143020,1,6,0:0:0:0:
192,192,143120,1,4,0:0:0:0:
320,192,143120,1,8,0:0:0:0:
448,192,143120,1,2,0:0:0:0:
