osu file format v14

[General]
AudioFilename: RESONANCE.ogg
AudioLeadIn: 0
PreviewTime: 84959
Countdown: 0
SampleSet: Soft
StackLeniency: 0.7
Mode: 3
LetterboxInBreaks: 0
SpecialStyle: 0
WidescreenStoryboard: 0

[Editor]
Bookmarks: 24459
DistanceSpacing: 1.1
BeatDivisor: 4
GridSize: 4
TimelineZoom: 2.5

[Metadata]
Title:REKKA RESONANCE
TitleUnicode:烈華RESONANCE
Artist:REDALiCE vs. Kobaryo
ArtistUnicode:REDALiCE vs. Kobaryo
Creator:Syadow-
Version:RESONANCE
Source:Arcaea
Tags:lowiro Memory Archive Video Game Electronic instrumental HARDCORE TANO*C Collaboration [RT]Alleyne [Crz]Alleyne Nami kanon matsubara Sound Collection MEMORIES OF WRATH IROCD-005
BeatmapID:3089176
BeatmapSetID:1507653

[Difficulty]
HPDrainRate:8.5
CircleSize:4
OverallDifficulty:8.5
ApproachRate:5
SliderMultiplier:1.4
SliderTickRate:1

[Events]
//Background and Video events
0,0,"Rekka.jpg",0,0
//Break Periods
//Storyboard Layer 0 (Background)
//Storyboard Layer 1 (Fail)
//Storyboard Layer 2 (Pass)
//Storyboard Layer 3 (Foreground)
//Storyboard Layer 4 (Overlay)
//Storyboard Sound Samples

[TimingPoints]
1959,250,4,2,1,90,1,0
3709,-62.5,4,2,1,90,0,0
3834,-142.857142857143,4,2,1,90,0,0
3959,-125,4,2,1,90,0,0
4084,-111.111111111111,4,2,1,90,0,0
4209,-100,4,2,1,90,0,0
7709,-62.5,4,2,1,90,0,0
7834,-142.857142857143,4,2,1,90,0,0
7959,-125,4,2,1,90,0,0
8084,-111.111111111111,4,2,1,90,0,0
8209,-100,4,2,1,90,0,0
15959,-100,4,2,1,50,0,0
16959,-100,4,2,1,45,0,0
17459,-100,4,2,1,40,0,0
17959,-66.6666666666667,4,2,1,50,0,0
18021,-200,4,2,1,50,0,0
18084,-100,4,2,1,50,0,0
18209,-66.6666666666667,4,2,1,50,0,0
18271,-200,4,2,1,50,0,0
18334,-100,4,2,1,50,0,0
18459,-66.6666666666667,4,2,1,50,0,0
18521,-200,4,2,1,50,0,0
18584,-100,4,2,1,50,0,0
18709,-250,4,2,1,50,0,0
18771,-62.5,4,2,1,50,0,0
18834,-100,4,2,1,50,0,0
18959,-250,4,2,1,50,0,0
19021,-62.5,4,2,1,50,0,0
19084,-100,4,2,1,50,0,0
19209,-250,4,2,1,50,0,0
19271,-62.5,4,2,1,50,0,0
19334,-100,4,2,1,50,0,0
19709,-54.054054054054,4,2,1,50,0,0
19771,-250,4,2,1,50,0,0
19896,-74.0740740740741,4,2,1,50,0,0
19959,-100,4,2,1,80,0,0
23459,-66.6666666666667,4,2,1,80,0,0
23521,-200,4,2,1,80,0,0
23584,-100,4,2,1,80,0,0
23709,-66.6666666666667,4,2,1,80,0,0
23771,-200,4,2,1,80,0,0
23834,-100,4,2,1,80,0,0
28084,-200,4,2,1,80,0,0
28146,-66.6666666666667,4,2,1,80,0,0
28209,-100,4,2,1,80,0,0
30959,-57.1428571428571,4,2,1,80,0,0
31021,-133.333333333333,4,2,1,80,0,0
31209,-100,4,2,1,80,0,0
34959,-76.9230769230769,4,2,1,80,0,0
35021,-90.9090909090909,4,2,1,80,0,0
35084,-111.111111111111,4,2,1,80,0,0
35146,-142.857142857143,4,2,1,80,0,0
35209,-100,4,2,1,80,0,0
43084,-76.9230769230769,4,2,1,80,0,0
43209,-142.857142857143,4,2,1,80,0,0
43334,-100,4,2,1,80,0,0
43459,-76.9230769230769,4,2,1,80,0,0
43584,-142.857142857143,4,2,1,80,0,0
43709,-100,4,2,1,80,0,0
44084,-76.9230769230769,4,2,1,80,0,0
44146,-142.857142857143,4,2,1,80,0,0
44209,-76.9230769230769,4,2,1,80,0,0
44271,-142.857142857143,4,2,1,80,0,0
44334,-100,4,2,1,80,0,0
44709,-76.9230769230769,4,2,1,80,0,0
44771,-142.857142857143,4,2,1,80,0,0
44834,-76.9230769230769,4,2,1,80,0,0
44896,-142.857142857143,4,2,1,80,0,0
44959,-125,4,2,1,85,0,0
45209,-90.9090909090909,4,2,1,85,0,0
45271,-83.3333333333333,4,2,1,85,0,0
45334,-66.6666666666667,4,2,1,85,0,0
45396,-100,4,2,1,85,0,0
45834,-142.857142857143,4,2,1,85,0,0
45896,-111.111111111111,4,2,1,85,0,0
45959,-90.9090909090909,4,2,1,85,0,0
46021,-76.9230769230769,4,2,1,85,0,0
46084,-100,4,2,1,85,0,0
46209,-142.857142857143,4,2,1,85,0,0
46240,-111.111111111111,4,2,1,85,0,0
46271,-90.9090909090909,4,2,1,85,0,0
46302,-76.9230769230769,4,2,1,85,0,0
46334,-100,4,2,1,85,0,0
46959,-125,4,2,1,85,0,0
47209,-90.9090909090909,4,2,1,85,0,0
47271,-83.3333333333333,4,2,1,85,0,0
47334,-66.6666666666667,4,2,1,85,0,0
47396,-100,4,2,1,85,0,0
47834,-142.857142857143,4,2,1,85,0,0
47896,-111.111111111111,4,2,1,85,0,0
47959,-90.9090909090909,4,2,1,85,0,0
48021,-76.9230769230769,4,2,1,85,0,0
48084,-100,4,2,1,85,0,0
48209,-142.857142857143,4,2,1,85,0,0
48240,-111.111111111111,4,2,1,85,0,0
48271,-90.9090909090909,4,2,1,85,0,0
48302,-76.9230769230769,4,2,1,85,0,0
48334,-100,4,2,1,85,0,0
48959,-71.4285714285714,4,2,1,85,0,0
49042,-166.666666666667,4,2,1,85,0,0
49125,-71.4285714285714,4,2,1,85,0,0
49208,-166.666666666667,4,2,1,85,0,0
49292,-71.4285714285714,4,2,1,85,0,0
49375,-166.666666666667,4,2,1,85,0,0
49459,-71.4285714285714,4,2,1,85,0,0
49542,-166.666666666667,4,2,1,85,0,0
49625,-71.4285714285714,4,2,1,85,0,0
49708,-166.666666666667,4,2,1,85,0,0
49792,-71.4285714285714,4,2,1,85,0,0
49875,-166.666666666667,4,2,1,85,0,0
49959,-71.4285714285714,4,2,1,85,0,0
50021,-166.666666666667,4,2,1,85,0,0
50084,-71.4285714285714,4,2,1,85,0,0
50146,-166.666666666667,4,2,1,85,0,0
50209,-71.4285714285714,4,2,1,85,0,0
50271,-166.666666666667,4,2,1,85,0,0
50334,-71.4285714285714,4,2,1,85,0,0
50396,-166.666666666667,4,2,1,85,0,0
50459,-100,4,2,1,85,0,0
52959,-111.111111111111,4,2,1,50,0,0
59959,-100,4,2,1,50,0,0
60959,-100,4,2,1,70,0,0
72459,-166.666666666667,4,2,1,70,0,0
72521,-71.4285714285714,4,2,1,70,0,0
72584,-166.666666666667,4,2,1,70,0,0
72646,-71.4285714285714,4,2,1,70,0,0
72709,-166.666666666667,4,2,1,70,0,0
72771,-71.4285714285714,4,2,1,70,0,0
72834,-166.666666666667,4,2,1,70,0,0
72896,-71.4285714285714,4,2,1,70,0,0
72959,-100,4,2,1,70,0,0
78334,-83.3333333333333,4,2,1,70,0,0
78396,-125,4,2,1,70,0,0
78521,-83.3333333333333,4,2,1,70,0,0
78646,-125,4,2,1,70,0,0
78771,-83.3333333333333,4,2,1,70,0,0
78834,-100,4,2,1,70,0,0
79959,-166.666666666667,4,2,1,70,0,0
80021,-71.4285714285714,4,2,1,70,0,0
80084,-166.666666666667,4,2,1,70,0,0
80146,-71.4285714285714,4,2,1,70,0,0
80209,-166.666666666667,4,2,1,70,0,0
80271,-71.4285714285714,4,2,1,70,0,0
80334,-166.666666666667,4,2,1,70,0,0
80396,-71.4285714285714,4,2,1,70,0,0
80459,-100,4,2,1,70,0,0
80959,-166.666666666667,4,2,1,70,0,0
81021,-71.4285714285714,4,2,1,70,0,0
81084,-100,4,2,1,70,0,0
81459,-166.666666666667,4,2,1,70,0,0
81521,-71.4285714285714,4,2,1,70,0,0
81584,-100,4,2,1,70,0,0
81959,-166.666666666667,4,2,1,70,0,0
82021,-71.4285714285714,4,2,1,70,0,0
82084,-100,4,2,1,70,0,0
82459,-166.666666666667,4,2,1,70,0,0
82521,-71.4285714285714,4,2,1,70,0,0
82584,-100,4,2,1,70,0,0
82959,-166.666666666667,4,2,1,70,0,0
83000,-71.4285714285714,4,2,1,70,0,0
83042,-100,4,2,1,70,0,0
83459,-166.666666666667,4,2,1,70,0,0
83500,-71.4285714285714,4,2,1,70,0,0
83542,-100,4,2,1,70,0,0
83959,-166.666666666667,4,2,1,70,0,0
83990,-71.4285714285714,4,2,1,70,0,0
84021,-100,4,2,1,70,0,0
84459,-166.666666666667,4,2,1,70,0,0
84490,-71.4285714285714,4,2,1,70,0,0
84521,-100,4,2,1,70,0,0
86709,-142.857142857143,4,2,1,70,0,0
86896,-52.6315789473684,4,2,1,70,0,0
86959,-100,4,2,1,95,0,1
89584,-57.1428571428571,4,2,1,95,0,1
89646,-133.333333333333,4,2,1,95,0,1
89834,-100,4,2,1,95,0,1
97334,-83.3333333333333,4,2,1,95,0,1
97396,-125,4,2,1,95,0,1
97521,-83.3333333333333,4,2,1,95,0,1
97646,-125,4,2,1,95,0,1
97771,-83.3333333333333,4,2,1,95,0,1
97834,-100,4,2,1,95,0,1
102959,-111.111111111111,4,2,1,75,0,0
108959,-100,4,2,1,75,0,0
114959,-142.857142857143,4,2,1,75,0,0
115021,-76.9230769230769,4,2,1,75,0,0
115084,-142.857142857143,4,2,1,75,0,0
115146,-76.9230769230769,4,2,1,75,0,0
115209,-142.857142857143,4,2,1,75,0,0
115271,-76.9230769230769,4,2,1,75,0,0
115334,-142.857142857143,4,2,1,75,0,0
115396,-76.9230769230769,4,2,1,75,0,0
115459,-142.857142857143,4,2,1,75,0,0
115521,-76.9230769230769,4,2,1,75,0,0
115584,-142.857142857143,4,2,1,75,0,0
115646,-76.9230769230769,4,2,1,75,0,0
115709,-142.857142857143,4,2,1,75,0,0
115771,-76.9230769230769,4,2,1,75,0,0
115834,-142.857142857143,4,2,1,75,0,0
115896,-76.9230769230769,4,2,1,75,0,0
115959,-100,4,2,1,75,0,0
117709,-142.857142857143,4,2,1,75,0,0
117771,-76.9230769230769,4,2,1,75,0,0
117834,-100,4,2,1,75,0,0
117959,-76.9230769230769,4,2,1,75,0,0
118052,-142.857142857143,4,2,1,75,0,0
118146,-76.9230769230769,4,2,1,75,0,0
118240,-142.857142857143,4,2,1,75,0,0
118334,-76.9230769230769,4,2,1,75,0,0
118396,-142.857142857143,4,2,1,75,0,0
118458,-100,4,2,1,75,0,0
118709,-142.857142857143,4,2,1,75,0,0
118771,-111.111111111111,4,2,1,75,0,0
118834,-90.9090909090909,4,2,1,75,0,0
118896,-76.9230769230769,4,2,1,75,0,0
118959,-100,4,2,1,95,0,1
121584,-57.1428571428571,4,2,1,95,0,1
121646,-133.333333333333,4,2,1,95,0,1
121834,-100,4,2,1,95,0,1
129334,-83.3333333333333,4,2,1,95,0,1
129396,-125,4,2,1,95,0,1
129521,-83.3333333333333,4,2,1,95,0,1
129646,-125,4,2,1,95,0,1
129771,-83.3333333333333,4,2,1,95,0,1
129834,-100,4,2,1,95,0,1
134959,-111.111111111111,4,2,1,80,0,0
136584,-100,4,2,1,80,0,0
138459,-76.9230769230769,4,2,1,80,0,0
138584,-90.9090909090909,4,2,1,80,0,0
138709,-111.111111111111,4,2,1,80,0,0
138834,-142.857142857143,4,2,1,80,0,0
138959,-100,4,2,1,80,0,0

[HitObjects]
448,192,709,128,0,1959:0:0:0:0:
64,192,1959,1,2,0:0:0:0:
192,192,1959,1,0,0:0:0:0:
320,192,1959,1,0,0:0:0:0:
64,192,2459,1,2,0:0:0:0:
320,192,2459,1,0,0:0:0:0:
448,192,2459,1,0,0:0:0:0:
64,192,2709,1,2,0:0:0:0:
320,192,2709,1,0,0:0:0:0:
448,192,2709,1,0,0:0:0:0:
64,192,3209,1,2,0:0:0:0:
192,192,3209,128,0,3334:0:0:0:0:
448,192,3209,1,0,0:0:0:0:
320,192,3334,128,0,3459:0:0:0:0:
192,192,3459,1,0,0:0:0:0:
64,192,3709,128,2,4209:0:0:0:0:
320,192,3709,1,4,0:0:0:0:
448,192,3709,1,0,0:0:0:0:
192,192,4209,1,0,0:0:0:0:
320,192,4209,128,0,4459:0:0:0:0:
448,192,4334,1,0,0:0:0:0:
64,192,4459,1,0,0:0:0:0:
192,192,4459,128,0,4709:0:0:0:0:
64,192,4709,1,2,0:0:0:0:
320,192,4709,1,4,0:0:0:0:
448,192,4709,128,0,4959:0:0:0:0:
192,192,4959,1,0,0:0:0:0:
320,192,4959,128,0,5209:0:0:0:0:
64,192,5209,128,0,5334:0:0:0:0:
192,192,5209,1,0,0:0:0:0:
320,192,5334,1,0,0:0:0:0:
448,192,5334,128,0,5459:0:0:0:0:
64,192,5459,128,0,5709:0:0:0:0:
192,192,5459,1,0,0:0:0:0:
320,192,5584,1,0,0:0:0:0:
320,192,5709,128,0,5959:0:0:0:0:
448,192,5709,1,0,0:0:0:0:
192,192,5834,1,0,0:0:0:0:
64,192,5959,1,2,0:0:0:0:
192,192,5959,1,4,0:0:0:0:
448,192,5959,1,0,0:0:0:0:
64,192,6459,1,2,0:0:0:0:
320,192,6459,1,0,0:0:0:0:
448,192,6459,1,0,0:0:0:0:
64,192,6709,1,2,0:0:0:0:
320,192,6709,1,0,0:0:0:0:
448,192,6709,1,0,0:0:0:0:
64,192,7209,1,2,0:0:0:0:
320,192,7209,128,0,7334:0:0:0:0:
448,192,7209,1,0,0:0:0:0:
192,192,7334,128,0,7459:0:0:0:0:
320,192,7459,1,0,0:0:0:0:
64,192,7709,1,2,0:0:0:0:
192,192,7709,1,4,0:0:0:0:
448,192,7709,128,0,8209:0:0:0:0:
64,192,8209,128,0,8459:0:0:0:0:
192,192,8209,1,0,0:0:0:0:
320,192,8334,1,0,0:0:0:0:
192,192,8459,128,0,8709:0:0:0:0:
448,192,8459,1,0,0:0:0:0:
64,192,8584,1,0,0:0:0:0:
320,192,8709,128,0,8959:0:0:0:0:
448,192,8709,1,0,0:0:0:0:
192,192,8834,1,0,0:0:0:0:
64,192,8959,1,0,0:0:0:0:
448,192,8959,1,0,0:0:0:0:
320,192,9021,1,0,0:0:0:0:
192,192,9084,1,0,0:0:0:0:
448,192,9146,1,0,0:0:0:0:
320,192,9209,1,0,0:0:0:0:
64,192,9271,1,0,0:0:0:0:
448,192,9334,1,0,0:0:0:0:
192,192,9396,1,0,0:0:0:0:
64,192,9459,1,0,0:0:0:0:
320,192,9521,1,0,0:0:0:0:
192,192,9584,1,0,0:0:0:0:
64,192,9646,1,0,0:0:0:0:
448,192,9709,1,0,0:0:0:0:
320,192,9771,1,0,0:0:0:0:
192,192,9834,1,0,0:0:0:0:
320,192,9896,1,0,0:0:0:0:
64,192,9959,128,2,10209:0:0:0:0:
192,192,9959,1,4,0:0:0:0:
448,192,9959,1,0,0:0:0:0:
320,192,10334,1,2,0:0:0:0:
448,192,10334,1,0,0:0:0:0:
64,192,10459,1,8,0:0:0:0:
192,192,10459,1,0,0:0:0:0:
448,192,10459,1,0,0:0:0:0:
192,192,10709,1,2,0:0:0:0:
320,192,10709,128,0,10959:0:0:0:0:
448,192,10959,1,0,0:0:0:0:
64,192,11209,1,2,0:0:0:0:
320,192,11209,1,0,0:0:0:0:
192,192,11334,1,0,0:0:0:0:
64,192,11459,1,8,0:0:0:0:
320,192,11459,1,0,0:0:0:0:
448,192,11459,1,0,0:0:0:0:
192,192,11709,128,2,11959:0:0:0:0:
448,192,11709,1,0,0:0:0:0:
320,192,11959,1,0,0:0:0:0:
192,192,12209,1,2,0:0:0:0:
448,192,12209,1,0,0:0:0:0:
320,192,12334,1,0,0:0:0:0:
64,192,12459,1,8,0:0:0:0:
192,192,12459,1,0,0:0:0:0:
448,192,12459,1,0,0:0:0:0:
64,192,12709,128,2,12959:0:0:0:0:
320,192,12709,1,4,0:0:0:0:
448,192,12709,1,0,0:0:0:0:
192,192,12959,128,0,13209:0:0:0:0:
320,192,13209,128,2,13459:0:0:0:0:
448,192,13209,1,0,0:0:0:0:
64,192,13459,1,8,0:0:0:0:
192,192,13459,1,0,0:0:0:0:
448,192,13459,128,0,13709:0:0:0:0:
64,192,13709,1,8,0:0:0:0:
192,192,13709,1,0,0:0:0:0:
64,192,13834,1,8,0:0:0:0:
192,192,13834,1,0,0:0:0:0:
64,192,13959,1,2,0:0:0:0:
320,192,13959,1,0,0:0:0:0:
448,192,13959,1,0,0:0:0:0:
320,192,14084,1,8,0:0:0:0:
448,192,14084,1,0,0:0:0:0:
64,192,14209,1,2,0:0:0:0:
192,192,14209,128,8,14334:0:0:0:0:
448,192,14209,1,0,0:0:0:0:
64,192,14334,1,8,0:0:0:0:
320,192,14334,128,0,14459:0:0:0:0:
192,192,14459,128,8,14584:0:0:0:0:
448,192,14459,1,2,0:0:0:0:
64,192,14584,1,8,0:0:0:0:
320,192,14584,1,0,0:0:0:0:
64,192,14709,1,8,0:0:0:0:
192,192,14709,1,2,0:0:0:0:
448,192,14709,128,0,14834:0:0:0:0:
192,192,14834,1,8,0:0:0:0:
320,192,14834,1,0,0:0:0:0:
64,192,14959,1,8,0:0:0:0:
320,192,14959,1,2,0:0:0:0:
192,192,15084,1,8,0:0:0:0:
448,192,15084,1,0,0:0:0:0:
64,192,15209,1,2,0:0:0:0:
320,192,15209,128,8,15334:0:0:0:0:
448,192,15209,1,0,0:0:0:0:
64,192,15334,1,8,0:0:0:0:
192,192,15334,128,0,15459:0:0:0:0:
320,192,15459,128,2,15584:0:0:0:0:
448,192,15459,1,8,0:0:0:0:
64,192,15584,1,8,0:0:0:0:
192,192,15584,1,0,0:0:0:0:
64,192,15709,128,8,15834:0:0:0:0:
192,192,15709,1,2,0:0:0:0:
448,192,15709,1,0,0:0:0:0:
320,192,15834,1,8,0:0:0:0:
448,192,15834,1,0,0:0:0:0:
64,192,15959,1,8,0:0:0:0:
192,192,15959,1,2,0:0:0:0:
448,192,16021,1,8,0:0:0:0:
64,192,16084,1,8,0:0:0:0:
320,192,16084,1,0,0:0:0:0:
192,192,16146,1,8,0:0:0:0:
320,192,16209,1,2,0:0:0:0:
448,192,16209,1,8,0:0:0:0:
64,192,16271,1,8,0:0:0:0:
192,192,16334,1,8,0:0:0:0:
320,192,16334,1,0,0:0:0:0:
448,192,16396,1,8,0:0:0:0:
64,192,16459,1,2,0:0:0:0:
192,192,16459,1,8,0:0:0:0:
320,192,16521,1,8,0:0:0:0:
64,192,16584,1,8,0:0:0:0:
448,192,16584,1,0,0:0:0:0:
192,192,16646,1,8,0:0:0:0:
320,192,16709,1,2,0:0:0:0:
448,192,16709,1,8,0:0:0:0:
192,192,16771,1,8,0:0:0:0:
64,192,16834,1,8,0:0:0:0:
448,192,16834,1,0,0:0:0:0:
320,192,16896,1,8,0:0:0:0:
64,192,16959,1,2,0:0:0:0:
192,192,16959,1,0,0:0:0:0:
320,192,17021,1,2,0:0:0:0:
448,192,17021,1,0,0:0:0:0:
64,192,17084,1,2,0:0:0:0:
192,192,17084,1,0,0:0:0:0:
320,192,17146,1,2,0:0:0:0:
448,192,17146,1,0,0:0:0:0:
64,192,17209,1,2,0:0:0:0:
192,192,17209,1,0,0:0:0:0:
320,192,17271,1,2,0:0:0:0:
448,192,17271,1,0,0:0:0:0:
64,192,17334,1,2,0:0:0:0:
192,192,17334,1,0,0:0:0:0:
320,192,17396,1,2,0:0:0:0:
64,192,17459,1,2,0:0:0:0:
448,192,17459,1,0,0:0:0:0:
192,192,17521,1,2,0:0:0:0:
320,192,17584,1,2,0:0:0:0:
448,192,17584,1,0,0:0:0:0:
192,192,17646,1,2,0:0:0:0:
64,192,17709,1,2,0:0:0:0:
448,192,17771,1,2,0:0:0:0:
320,192,17834,1,2,0:0:0:0:
192,192,17896,1,2,0:0:0:0:
64,192,17959,1,2,0:0:0:0:
320,192,17959,1,0,0:0:0:0:
448,192,17959,128,0,18084:0:0:0:0:
192,192,18084,1,0,0:0:0:0:
320,192,18209,128,0,18334:0:0:0:0:
64,192,18334,1,0,0:0:0:0:
192,192,18459,128,0,18584:0:0:0:0:
320,192,18584,1,0,0:0:0:0:
448,192,18709,1,0,0:0:0:0:
64,192,18834,1,0,0:0:0:0:
320,192,18896,1,0,0:0:0:0:
64,192,18959,1,0,0:0:0:0:
448,192,19084,1,0,0:0:0:0:
192,192,19146,1,0,0:0:0:0:
448,192,19209,1,0,0:0:0:0:
320,192,19334,1,0,0:0:0:0:
64,192,19396,1,0,0:0:0:0:
320,192,19459,1,0,0:0:0:0:
448,192,19521,1,0,0:0:0:0:
192,192,19584,1,0,0:0:0:0:
320,192,19646,1,0,0:0:0:0:
64,192,19709,1,8,0:0:0:0:
192,192,19709,1,0,0:0:0:0:
448,192,19709,1,0,0:0:0:0:
64,192,19959,128,2,20084:0:0:0:0:
320,192,19959,1,4,0:0:0:0:
448,192,19959,1,0,0:0:0:0:
320,192,20084,1,0,0:0:0:0:
192,192,20209,1,2,0:0:0:0:
448,192,20209,128,0,20334:0:0:0:0:
192,192,20334,1,0,0:0:0:0:
64,192,20459,1,2,0:0:0:0:
320,192,20459,128,0,20584:0:0:0:0:
64,192,20584,1,0,0:0:0:0:
192,192,20709,1,2,0:0:0:0:
448,192,20709,1,0,0:0:0:0:
64,192,20834,1,0,0:0:0:0:
448,192,20834,1,0,0:0:0:0:
64,192,20959,128,2,21209:0:0:0:0:
320,192,20959,1,0,0:0:0:0:
320,192,21084,1,0,0:0:0:0:
192,192,21209,1,2,0:0:0:0:
448,192,21209,1,0,0:0:0:0:
64,192,21334,1,0,0:0:0:0:
320,192,21334,1,0,0:0:0:0:
192,192,21459,1,2,0:0:0:0:
320,192,21459,128,0,21709:0:0:0:0:
192,192,21584,1,0,0:0:0:0:
64,192,21709,1,2,0:0:0:0:
448,192,21709,1,0,0:0:0:0:
64,192,21834,1,0,0:0:0:0:
192,192,21959,1,2,0:0:0:0:
448,192,21959,128,0,22084:0:0:0:0:
192,192,22084,1,0,0:0:0:0:
320,192,22209,1,2,0:0:0:0:
448,192,22209,128,0,22334:0:0:0:0:
320,192,22334,1,0,0:0:0:0:
64,192,22459,1,2,0:0:0:0:
448,192,22459,128,0,22584:0:0:0:0:
64,192,22584,1,0,0:0:0:0:
320,192,22709,1,2,0:0:0:0:
448,192,22709,1,0,0:0:0:0:
64,192,22834,1,0,0:0:0:0:
448,192,22834,1,0,0:0:0:0:
64,192,22959,128,2,23209:0:0:0:0:
320,192,22959,1,0,0:0:0:0:
192,192,23084,1,0,0:0:0:0:
320,192,23209,1,2,0:0:0:0:
448,192,23209,1,0,0:0:0:0:
64,192,23271,1,2,0:0:0:0:
192,192,23271,1,0,0:0:0:0:
320,192,23334,1,2,0:0:0:0:
448,192,23334,1,0,0:0:0:0:
320,192,23459,128,0,23584:0:0:0:0:
448,192,23459,128,0,23584:0:0:0:0:
64,192,23709,128,0,23834:0:0:0:0:
192,192,23709,128,0,23834:0:0:0:0:
192,192,23959,1,2,0:0:0:0:
448,192,23959,128,4,24084:0:0:0:0:
64,192,23959,1,0,0:0:0:0:
192,192,24084,1,0,0:0:0:0:
64,192,24209,128,2,24334:0:0:0:0:
320,192,24209,1,0,0:0:0:0:
320,192,24334,1,0,0:0:0:0:
448,192,24459,1,2,0:0:0:0:
192,192,24459,128,0,24584:0:0:0:0:
448,192,24584,1,0,0:0:0:0:
64,192,24709,1,2,0:0:0:0:
192,192,24709,1,0,0:0:0:0:
64,192,24834,1,0,0:0:0:0:
448,192,24834,1,0,0:0:0:0:
192,192,24959,1,2,0:0:0:0:
448,192,24959,128,0,25209:0:0:0:0:
192,192,25084,1,0,0:0:0:0:
64,192,25209,1,2,0:0:0:0:
320,192,25209,1,0,0:0:0:0:
192,192,25334,1,0,0:0:0:0:
448,192,25334,1,0,0:0:0:0:
192,192,25459,128,2,25709:0:0:0:0:
320,192,25459,1,0,0:0:0:0:
320,192,25584,1,0,0:0:0:0:
64,192,25709,1,2,0:0:0:0:
448,192,25709,1,0,0:0:0:0:
192,192,25834,1,2,0:0:0:0:
320,192,25834,1,0,0:0:0:0:
64,192,25959,128,2,26084:0:0:0:0:
192,192,25959,1,0,0:0:0:75:Crash 2.wav
448,192,25959,1,0,0:0:0:0:
448,192,26084,1,0,0:0:0:0:
64,192,26209,128,2,26334:0:0:0:0:
192,192,26209,1,0,0:0:0:75:Crash 2.wav
192,192,26334,1,0,0:0:0:0:
64,192,26459,128,8,26584:0:0:0:0:
320,192,26459,1,0,0:0:0:75:Crash 2.wav
448,192,26459,1,0,0:0:0:0:
320,192,26584,1,0,0:0:0:0:
64,192,26709,1,2,0:0:0:0:
192,192,26709,1,0,0:0:0:75:Crash 2.wav
192,192,26834,1,0,0:0:0:0:
320,192,26959,1,0,0:0:0:70:SnareClap.wav
448,192,26959,1,0,0:0:0:0:
192,192,27021,1,0,0:0:0:70:SnareClap.wav
64,192,27084,1,0,0:0:0:70:SnareClap.wav
448,192,27084,1,0,0:0:0:0:
192,192,27146,1,0,0:0:0:70:SnareClap.wav
320,192,27146,1,0,0:0:0:0:
64,192,27209,1,0,0:0:0:70:SnareClap.wav
448,192,27209,1,0,0:0:0:0:
64,192,27334,1,0,0:0:0:60:SnareClap.wav
192,192,27334,1,0,0:0:0:0:
320,192,27396,1,0,0:0:0:50:SnareClap.wav
448,192,27396,1,0,0:0:0:0:
64,192,27459,1,0,0:0:0:45:SnareClap.wav
192,192,27459,1,0,0:0:0:0:
448,192,27584,1,0,0:0:0:40:SnareClap.wav
320,192,27646,1,0,0:0:0:35:SnareClap.wav
192,192,27709,1,0,0:0:0:30:SnareClap.wav
64,192,27834,1,0,0:0:0:30:SnareClap.wav
192,192,27896,1,0,0:0:0:30:SnareClap.wav
320,192,27959,1,2,0:0:0:0:
448,192,27959,1,0,0:0:0:0:
192,192,28084,1,2,0:0:0:0:
320,192,28084,1,0,0:0:0:0:
64,192,28209,128,2,28459:0:0:0:0:
192,192,28209,1,4,0:0:0:0:
448,192,28209,1,8,0:0:0:0:
448,192,28334,128,0,28459:0:0:0:0:
192,192,28459,1,2,0:0:0:0:
320,192,28459,1,0,0:0:0:0:
192,192,28584,128,0,28709:0:0:0:0:
64,192,28709,1,2,0:0:0:0:
320,192,28709,1,8,0:0:0:0:
448,192,28709,1,0,0:0:0:0:
320,192,28834,128,0,28959:0:0:0:0:
192,192,28959,1,2,0:0:0:0:
448,192,28959,1,0,0:0:0:0:
64,192,29084,1,0,0:0:0:0:
320,192,29084,1,0,0:0:0:0:
64,192,29209,128,2,29459:0:0:0:0:
192,192,29209,1,8,0:0:0:0:
448,192,29209,1,0,0:0:0:0:
448,192,29334,128,0,29459:0:0:0:0:
192,192,29459,1,2,0:0:0:0:
320,192,29459,1,0,0:0:0:0:
320,192,29584,128,0,29709:0:0:0:0:
64,192,29709,1,2,0:0:0:0:
192,192,29709,1,8,0:0:0:0:
448,192,29709,1,0,0:0:0:0:
192,192,29834,128,0,29959:0:0:0:0:
64,192,29959,1,2,0:0:0:0:
448,192,29959,1,0,0:0:0:0:
192,192,30084,1,0,0:0:0:0:
320,192,30084,1,0,0:0:0:0:
64,192,30209,1,2,0:0:0:0:
320,192,30209,128,8,30459:0:0:0:0:
448,192,30209,1,0,0:0:0:0:
64,192,30334,128,0,30584:0:0:0:0:
192,192,30459,128,2,30584:0:0:0:0:
448,192,30459,1,0,0:0:0:0:
320,192,30584,1,0,0:0:0:0:
64,192,30709,1,2,0:0:0:0:
192,192,30709,1,8,0:0:0:0:
448,192,30709,128,0,30834:0:0:0:0:
320,192,30834,1,0,0:0:0:0:
64,192,30959,1,2,0:0:0:0:
320,192,30959,1,0,0:0:0:75:Crash 2.wav
448,192,30959,1,0,0:0:0:0:
64,192,31209,1,2,0:0:0:0:
320,192,31209,1,0,0:0:0:75:Crash 2.wav
448,192,31209,1,0,0:0:0:0:
64,192,31334,1,2,0:0:0:0:
192,192,31334,128,0,31584:0:0:0:75:Crash 2.wav
448,192,31334,1,0,0:0:0:0:
320,192,31459,1,0,0:0:0:0:
64,192,31584,1,2,0:0:0:0:
320,192,31584,1,0,0:0:0:75:Crash 2.wav
448,192,31584,1,0,0:0:0:0:
192,192,31709,1,2,0:0:0:0:
448,192,31709,1,0,0:0:0:0:
64,192,31834,1,2,0:0:0:0:
192,192,31834,1,0,0:0:0:0:
320,192,31896,1,2,0:0:0:0:
448,192,31896,1,0,0:0:0:0:
64,192,31959,1,2,0:0:0:0:
192,192,31959,1,4,0:0:0:0:
448,192,32084,1,0,0:0:0:0:
64,192,32209,1,2,0:0:0:0:
192,192,32209,1,8,0:0:0:0:
448,192,32209,128,0,32459:0:0:0:0:
192,192,32334,128,0,32459:0:0:0:0:
64,192,32459,1,2,0:0:0:0:
320,192,32459,1,0,0:0:0:0:
320,192,32584,128,0,32709:0:0:0:0:
64,192,32709,1,2,0:0:0:0:
192,192,32709,1,8,0:0:0:0:
448,192,32709,1,0,0:0:0:0:
64,192,32834,128,0,32959:0:0:0:0:
192,192,32959,1,2,0:0:0:0:
320,192,32959,1,4,0:0:0:0:
448,192,32959,1,0,0:0:0:0:
64,192,33084,1,0,0:0:0:0:
320,192,33084,1,0,0:0:0:0:
64,192,33209,1,2,0:0:0:0:
192,192,33209,1,8,0:0:0:0:
448,192,33209,128,0,33459:0:0:0:0:
192,192,33334,128,0,33459:0:0:0:0:
64,192,33459,1,2,0:0:0:0:
320,192,33459,1,0,0:0:0:0:
320,192,33584,1,2,0:0:0:0:
448,192,33584,1,0,0:0:0:0:
64,192,33646,1,2,0:0:0:0:
192,192,33646,1,0,0:0:0:0:
320,192,33709,1,2,0:0:0:0:
448,192,33709,1,8,0:0:0:0:
64,192,33834,1,2,0:0:0:0:
448,192,33834,1,0,0:0:0:0:
192,192,33896,1,0,0:0:0:0:
64,192,33959,1,2,0:0:0:0:
320,192,33959,1,4,0:0:0:0:
448,192,33959,1,0,0:0:0:0:
320,192,34084,1,0,0:0:0:0:
64,192,34209,1,2,0:0:0:0:
192,192,34209,1,8,0:0:0:0:
448,192,34209,1,0,0:0:0:0:
192,192,34334,1,0,0:0:0:0:
64,192,34459,1,2,0:0:0:0:
320,192,34459,1,0,0:0:0:0:
448,192,34459,1,0,0:0:0:0:
192,192,34584,1,2,0:0:0:0:
448,192,34584,1,0,0:0:0:0:
64,192,34709,1,2,0:0:0:0:
192,192,34709,1,0,0:0:0:0:
320,192,34771,1,2,0:0:0:0:
448,192,34771,1,0,0:0:0:0:
64,192,34834,1,2,0:0:0:0:
192,192,34834,1,0,0:0:0:0:
320,192,34896,1,2,0:0:0:0:
64,192,34959,1,0,0:0:0:0:
448,192,34959,128,0,35209:0:0:0:0:
64,192,35209,1,0,0:0:0:0:
192,192,35209,128,0,35334:0:0:0:0:
320,192,35334,128,0,35459:0:0:0:0:
448,192,35334,1,0,0:0:0:0:
64,192,35459,1,0,0:0:0:0:
192,192,35521,1,0,0:0:0:0:
320,192,35584,1,0,0:0:0:0:
448,192,35584,1,0,0:0:0:0:
64,192,35709,128,0,35896:0:0:0:0:
448,192,35709,128,0,35896:0:0:0:0:
64,192,35959,1,0,0:0:0:85:Tom1.wav
448,192,35959,1,0,0:0:0:0:
320,192,36021,1,0,0:0:0:85:Tom1.wav
192,192,36084,1,0,0:0:0:85:Tom2.wav
448,192,36209,1,0,0:0:0:85:Tom2.wav
64,192,36334,1,0,0:0:0:85:Tom2.wav
320,192,36459,1,0,0:0:0:85:Tom3.wav
64,192,36584,1,0,0:0:0:85:Tom3.wav
192,192,36646,1,0,0:0:0:85:Tom3.wav
320,192,36709,1,0,0:0:0:85:Tom4.wav
192,192,36834,1,0,0:0:0:85:Tom4.wav
64,192,36959,1,2,0:0:0:0:
320,192,36959,1,4,0:0:0:0:
448,192,36959,128,0,37209:0:0:0:0:
320,192,37209,1,0,0:0:0:0:
64,192,37334,1,2,0:0:0:0:
192,192,37334,1,0,0:0:0:0:
64,192,37459,1,0,0:0:0:80:Snare.wav
320,192,37459,1,0,0:0:0:0:
448,192,37459,1,0,0:0:0:0:
192,192,37709,128,2,37959:0:0:0:0:
448,192,37709,1,0,0:0:0:0:
64,192,37959,1,0,0:0:0:0:
320,192,38084,1,2,0:0:0:0:
448,192,38084,1,0,0:0:0:0:
320,192,38209,1,2,0:0:0:0:
448,192,38209,1,0,0:0:0:0:
64,192,38459,1,0,0:0:0:80:Snare.wav
192,192,38459,1,0,0:0:0:0:
448,192,38459,1,0,0:0:0:0:
64,192,38709,1,2,0:0:0:0:
320,192,38709,128,0,38959:0:0:0:0:
448,192,38959,1,0,0:0:0:0:
64,192,39209,1,2,0:0:0:0:
192,192,39209,1,0,0:0:0:0:
64,192,39334,1,2,0:0:0:0:
192,192,39334,1,0,0:0:0:0:
64,192,39459,1,0,0:0:0:80:Snare.wav
320,192,39459,128,0,39584:0:0:0:0:
448,192,39459,1,0,0:0:0:0:
192,192,39584,1,0,0:0:0:0:
192,192,39709,128,2,39834:0:0:0:0:
448,192,39709,1,0,0:0:0:0:
320,192,39834,1,0,0:0:0:0:
64,192,39959,1,2,0:0:0:0:
320,192,39959,1,0,0:0:0:0:
448,192,40209,1,0,0:0:0:0:
64,192,40334,1,2,0:0:0:0:
320,192,40334,1,0,0:0:0:0:
192,192,40459,128,0,40646:0:0:0:80:Snare.wav
448,192,40459,1,0,0:0:0:0:
448,192,40584,128,0,40646:0:0:0:0:
64,192,40709,1,2,0:0:0:0:
320,192,40709,128,0,40896:0:0:0:0:
64,192,40834,1,0,0:0:0:80:Snare.wav
192,192,40834,128,0,40896:0:0:0:0:
64,192,40959,128,2,41209:0:0:0:0:
192,192,40959,1,0,0:0:0:0:
448,192,40959,1,0,0:0:0:0:
192,192,41209,1,0,0:0:0:0:
320,192,41334,1,2,0:0:0:0:
448,192,41334,1,0,0:0:0:0:
64,192,41459,1,0,0:0:0:80:Snare.wav
192,192,41459,1,0,0:0:0:0:
448,192,41459,1,0,0:0:0:0:
64,192,41709,1,2,0:0:0:0:
320,192,41709,128,0,41959:0:0:0:0:
448,192,41959,1,0,0:0:0:0:
64,192,42084,1,2,0:0:0:0:
192,192,42084,1,0,0:0:0:0:
64,192,42209,1,2,0:0:0:0:
192,192,42209,1,0,0:0:0:0:
64,192,42459,1,0,0:0:0:80:Snare.wav
320,192,42459,1,0,0:0:0:0:
448,192,42459,1,0,0:0:0:0:
192,192,42709,128,2,42959:0:0:0:0:
320,192,42709,1,0,0:0:0:0:
64,192,42959,1,2,0:0:0:0:
448,192,42959,1,0,0:0:0:85:Tom1.wav
64,192,43084,1,0,0:0:0:85:Tom1.wav
448,192,43084,1,0,0:0:0:0:
64,192,43334,1,0,0:0:0:85:Tom2.wav
320,192,43334,1,0,0:0:0:0:
64,192,43459,1,0,0:0:0:85:Tom2.wav
320,192,43459,1,0,0:0:0:0:
64,192,43709,1,0,0:0:0:85:Tom2.wav
192,192,43709,1,0,0:0:0:0:
64,192,43834,1,0,0:0:0:85:Tom2.wav
192,192,43834,1,0,0:0:0:0:
192,192,43959,1,0,0:0:0:85:Tom3.wav
448,192,43959,1,0,0:0:0:0:
64,192,44021,1,0,0:0:0:85:Tom3.wav
320,192,44021,1,0,0:0:0:0:
192,192,44084,1,0,0:0:0:85:Tom3.wav
448,192,44084,1,0,0:0:0:0:
320,192,44209,1,0,0:0:0:85:Tom3.wav
448,192,44209,1,0,0:0:0:0:
320,192,44334,1,0,0:0:0:85:Tom3.wav
448,192,44334,1,0,0:0:0:0:
192,192,44396,1,0,0:0:0:85:Tom3.wav
64,192,44459,1,0,0:0:0:85:Tom3.wav
448,192,44459,1,0,0:0:0:0:
320,192,44521,1,0,0:0:0:85:Tom3.wav
64,192,44584,1,0,0:0:0:85:Tom3.wav
192,192,44584,1,0,0:0:0:0:
320,192,44646,1,0,0:0:0:85:Tom4.wav
448,192,44646,1,0,0:0:0:0:
64,192,44709,1,0,0:0:0:85:Tom4.wav
192,192,44709,1,0,0:0:0:0:
192,192,44834,1,0,0:0:0:85:Tom4.wav
320,192,44834,1,0,0:0:0:0:
64,192,44959,128,2,45396:0:0:0:0:
192,192,44959,128,4,45396:0:0:0:0:
320,192,44959,128,0,45396:0:0:0:0:
448,192,44959,128,0,45396:0:0:0:0:
64,192,45459,128,8,45771:0:0:0:0:
192,192,45459,128,0,45709:0:0:0:0:
320,192,45459,128,0,45646:0:0:0:0:
448,192,45459,128,0,45584:0:0:0:0:
448,192,45646,1,0,0:0:0:0:
320,192,45709,1,0,0:0:0:0:
192,192,45771,1,0,0:0:0:0:
320,192,45834,128,2,46146:0:0:0:0:
448,192,45834,128,0,46084:0:0:0:0:
320,192,46209,128,2,46396:0:0:0:0:
448,192,46209,128,0,46334:0:0:0:0:
64,192,46459,128,8,46646:0:0:0:0:
192,192,46459,1,0,0:0:0:0:
448,192,46459,1,0,0:0:0:0:
320,192,46584,128,0,46646:0:0:0:0:
64,192,46709,128,0,46896:0:0:0:0:
320,192,46709,128,0,46896:0:0:0:0:
64,192,46959,128,2,47396:0:0:0:0:
192,192,46959,128,0,47396:0:0:0:0:
320,192,46959,128,0,47396:0:0:0:0:
448,192,46959,128,0,47396:0:0:0:0:
64,192,47459,128,8,47584:0:0:0:0:
192,192,47459,128,0,47646:0:0:0:0:
320,192,47459,128,0,47709:0:0:0:0:
448,192,47459,128,0,47771:0:0:0:0:
64,192,47646,1,0,0:0:0:0:
192,192,47709,1,0,0:0:0:0:
320,192,47771,1,0,0:0:0:0:
64,192,47834,128,2,48084:0:0:0:0:
192,192,47834,128,0,48146:0:0:0:0:
64,192,48209,128,2,48334:0:0:0:0:
192,192,48209,128,0,48396:0:0:0:0:
64,192,48459,1,8,0:0:0:0:
320,192,48459,128,0,48646:0:0:0:0:
448,192,48459,1,0,0:0:0:0:
192,192,48584,128,0,48646:0:0:0:0:
320,192,48709,128,0,48896:0:0:0:0:
192,192,48834,128,0,48896:0:0:0:0:
64,192,48959,1,2,0:0:0:0:
320,192,48959,1,0,0:0:0:0:
448,192,48959,1,0,0:0:0:0:
64,192,49125,1,2,0:0:0:0:
320,192,49125,1,0,0:0:0:0:
448,192,49125,1,0,0:0:0:0:
64,192,49292,1,2,0:0:0:0:
192,192,49292,1,0,0:0:0:0:
448,192,49292,1,0,0:0:0:0:
64,192,49459,1,2,0:0:0:0:
192,192,49459,1,0,0:0:0:0:
448,192,49459,1,0,0:0:0:0:
192,192,49625,1,2,0:0:0:0:
320,192,49625,1,0,0:0:0:0:
448,192,49625,1,0,0:0:0:0:
64,192,49792,1,2,0:0:0:0:
192,192,49792,1,0,0:0:0:0:
320,192,49792,1,0,0:0:0:0:
64,192,49959,1,2,0:0:0:0:
320,192,49959,1,0,0:0:0:0:
448,192,49959,1,0,0:0:0:0:
64,192,50084,1,2,0:0:0:0:
320,192,50084,1,0,0:0:0:0:
448,192,50084,1,0,0:0:0:0:
64,192,50209,1,2,0:0:0:0:
192,192,50209,1,0,0:0:0:0:
448,192,50209,1,0,0:0:0:0:
64,192,50334,1,2,0:0:0:0:
192,192,50334,1,0,0:0:0:0:
448,192,50334,1,0,0:0:0:0:
320,192,50459,1,2,0:0:0:0:
448,192,50459,1,0,0:0:0:0:
64,192,50521,1,2,0:0:0:0:
192,192,50521,1,0,0:0:0:0:
320,192,50584,1,2,0:0:0:0:
448,192,50584,1,0,0:0:0:0:
64,192,50646,1,2,0:0:0:0:
192,192,50646,1,0,0:0:0:0:
320,192,50709,1,2,0:0:0:0:
448,192,50709,1,0,0:0:0:0:
64,192,50771,1,2,0:0:0:0:
192,192,50771,1,0,0:0:0:0:
320,192,50834,1,2,0:0:0:0:
448,192,50834,1,0,0:0:0:0:
64,192,50896,1,2,0:0:0:0:
192,192,50896,1,0,0:0:0:0:
320,192,50959,1,2,0:0:0:0:
448,192,50959,1,4,0:0:0:0:
64,192,51084,1,8,0:0:0:0:
192,192,51084,1,0,0:0:0:0:
320,192,51084,1,0,0:0:0:0:
64,192,51209,1,2,0:0:0:0:
448,192,51209,1,0,0:0:0:0:
192,192,51271,1,2,0:0:0:0:
320,192,51271,1,0,0:0:0:0:
64,192,51334,1,2,0:0:0:0:
448,192,51334,1,0,0:0:0:0:
192,192,51459,1,8,0:0:0:0:
320,192,51459,1,0,0:0:0:0:
448,192,51459,1,0,0:0:0:0:
64,192,51584,1,2,0:0:0:0:
320,192,51584,1,0,0:0:0:0:
192,192,51646,1,2,0:0:0:0:
64,192,51709,1,8,0:0:0:0:
320,192,51709,1,0,0:0:0:0:
448,192,51709,1,0,0:0:0:0:
192,192,51834,1,2,0:0:0:0:
448,192,51834,1,0,0:0:0:0:
64,192,51959,128,0,52834:0:0:0:50:Drop.wav
320,192,51959,1,0,0:0:0:0:
192,192,52459,128,0,52584:0:0:0:0:
320,192,52521,128,0,52646:0:0:0:0:
448,192,52584,128,0,52709:0:0:0:0:
192,192,52709,128,0,52834:0:0:0:0:
320,192,52834,128,0,52959:0:0:0:0:
64,192,52959,1,0,0:0:0:65:Boom.wav
192,192,52959,1,0,0:0:0:0:
448,192,52959,1,0,0:0:0:0:
192,192,53209,128,0,53271:0:0:0:0:
448,192,53459,128,0,53521:0:0:0:0:
192,192,53584,128,0,53646:0:0:0:0:
320,192,53709,128,0,53771:0:0:0:0:
64,192,54209,128,0,54271:0:0:0:0:
320,192,54459,128,0,54521:0:0:0:0:
192,192,54709,128,0,54771:0:0:0:0:
64,192,54959,1,0,0:0:0:0:
448,192,54959,1,0,0:0:0:0:
192,192,55209,128,0,55271:0:0:0:0:
320,192,55459,128,0,55521:0:0:0:0:
448,192,55709,128,0,55771:0:0:0:0:
64,192,55959,128,0,56959:0:0:0:0:
192,192,55959,1,0,0:0:0:0:
192,192,56959,1,0,0:0:0:0:
448,192,56959,1,0,0:0:0:0:
320,192,57209,128,0,57271:0:0:0:0:
448,192,57459,128,0,57521:0:0:0:0:
192,192,57709,128,0,57771:0:0:0:0:
320,192,57959,128,0,58021:0:0:0:0:
64,192,58209,128,0,58271:0:0:0:0:
448,192,58459,128,0,58521:0:0:0:0:
320,192,58709,128,0,58771:0:0:0:0:
64,192,58959,1,0,0:0:0:0:
192,192,58959,128,0,59021:0:0:0:0:
448,192,59209,1,0,0:0:0:0:
64,192,59459,128,0,59521:0:0:0:0:
192,192,59709,128,0,59771:0:0:0:0:
320,192,59959,1,0,0:0:0:0:
448,192,59959,128,0,60959:0:0:0:0:
64,192,60959,128,2,61209:0:0:0:0:
192,192,60959,1,4,0:0:0:0:
448,192,61209,1,0,0:0:0:0:
64,192,61334,128,0,61584:0:0:0:0:
192,192,61334,1,0,0:0:0:0:
320,192,61459,1,2,0:0:0:0:
448,192,61584,1,0,0:0:0:0:
64,192,61709,128,0,61959:0:0:0:0:
192,192,61709,1,0,0:0:0:0:
320,192,61959,1,2,0:0:0:0:
448,192,61959,1,0,0:0:0:0:
64,192,62084,1,0,0:0:0:0:
192,192,62084,1,0,0:0:0:0:
320,192,62209,128,0,62334:0:0:0:0:
448,192,62209,1,0,0:0:0:0:
64,192,62459,1,2,0:0:0:0:
192,192,62459,128,0,62584:0:0:0:0:
320,192,62584,1,0,0:0:0:0:
448,192,62584,1,0,0:0:0:0:
64,192,62709,128,0,62959:0:0:0:0:
320,192,62709,1,0,0:0:0:0:
192,192,62959,1,2,0:0:0:0:
448,192,62959,128,0,63209:0:0:0:0:
64,192,63209,1,0,0:0:0:0:
192,192,63209,128,0,63334:0:0:0:0:
320,192,63334,128,0,63459:0:0:0:0:
64,192,63459,128,2,63584:0:0:0:0:
448,192,63459,1,0,0:0:0:0:
192,192,63709,1,0,0:0:0:0:
320,192,63709,128,0,63959:0:0:0:0:
64,192,63959,1,2,0:0:0:0:
192,192,63959,1,0,0:0:0:0:
320,192,64084,1,0,0:0:0:0:
448,192,64084,1,0,0:0:0:0:
64,192,64209,1,0,0:0:0:0:
192,192,64209,128,0,64334:0:0:0:0:
448,192,64334,1,0,0:0:0:0:
192,192,64459,1,2,0:0:0:0:
320,192,64459,128,0,64584:0:0:0:0:
64,192,64584,1,0,0:0:0:0:
448,192,64584,1,0,0:0:0:0:
64,192,64709,128,0,64959:0:0:0:0:
192,192,64709,1,0,0:0:0:0:
192,192,64959,1,2,0:0:0:0:
448,192,64959,128,0,65209:0:0:0:0:
64,192,65209,1,0,0:0:0:0:
320,192,65334,1,0,0:0:0:0:
448,192,65334,128,0,65584:0:0:0:0:
192,192,65459,1,2,0:0:0:0:
64,192,65584,1,0,0:0:0:0:
320,192,65709,1,0,0:0:0:0:
448,192,65709,128,0,65959:0:0:0:0:
64,192,65959,1,2,0:0:0:0:
192,192,65959,1,0,0:0:0:0:
320,192,66084,1,0,0:0:0:0:
448,192,66084,1,0,0:0:0:0:
64,192,66209,1,0,0:0:0:0:
192,192,66209,128,0,66334:0:0:0:0:
448,192,66334,1,0,0:0:0:0:
192,192,66459,1,2,0:0:0:0:
320,192,66459,128,0,66584:0:0:0:0:
64,192,66584,1,0,0:0:0:0:
320,192,66709,1,0,0:0:0:0:
448,192,66709,128,0,66959:0:0:0:0:
64,192,66959,1,6,0:0:0:0:
192,192,67021,1,0,0:0:0:0:
320,192,67084,1,0,0:0:0:0:
448,192,67146,1,0,0:0:0:0:
64,192,67209,1,0,0:0:0:0:
192,192,67271,1,0,0:0:0:0:
320,192,67334,1,0,0:0:0:0:
448,192,67396,1,0,0:0:0:0:
64,192,67459,1,0,0:0:0:0:
192,192,67521,1,0,0:0:0:0:
448,192,67584,1,0,0:0:0:0:
320,192,67646,1,0,0:0:0:0:
192,192,67709,1,0,0:0:0:0:
64,192,67771,1,0,0:0:0:0:
320,192,67834,1,0,0:0:0:0:
192,192,67896,1,0,0:0:0:0:
64,192,67959,1,8,0:0:0:0:
320,192,67959,1,0,0:0:0:0:
448,192,67959,1,0,0:0:0:0:
192,192,68084,1,2,0:0:0:0:
448,192,68084,1,0,0:0:0:0:
192,192,68209,1,2,0:0:0:0:
448,192,68209,1,0,0:0:0:0:
64,192,68334,1,8,0:0:0:0:
192,192,68334,1,0,0:0:0:0:
320,192,68334,1,0,0:0:0:0:
448,192,68459,1,0,0:0:0:0:
64,192,68584,1,2,0:0:0:0:
192,192,68584,1,0,0:0:0:0:
64,192,68709,1,8,0:0:0:0:
320,192,68709,1,0,0:0:0:0:
448,192,68709,1,0,0:0:0:0:
192,192,68834,1,0,0:0:0:0:
64,192,68959,1,0,0:0:0:65:Boom.wav
192,192,68959,128,0,69209:0:0:0:0:
448,192,68959,1,0,0:0:0:0:
320,192,69209,1,0,0:0:0:0:
320,192,69334,1,0,0:0:0:0:
64,192,69459,1,0,0:0:0:0:
192,192,69459,128,0,69709:0:0:0:0:
320,192,69709,1,0,0:0:0:0:
320,192,69834,1,0,0:0:0:0:
64,192,69959,1,0,0:0:0:0:
192,192,69959,128,0,70209:0:0:0:0:
448,192,70209,1,0,0:0:0:0:
448,192,70334,128,0,70459:0:0:0:0:
64,192,70459,1,0,0:0:0:0:
192,192,70459,1,0,0:0:0:0:
64,192,70584,128,0,70709:0:0:0:0:
448,192,70709,1,0,0:0:0:0:
320,192,70771,1,0,0:0:0:0:
192,192,70834,1,0,0:0:0:0:
320,192,70896,1,0,0:0:0:0:
64,192,70959,1,0,0:0:0:65:Boom.wav
192,192,70959,128,0,71209:0:0:0:0:
448,192,70959,1,0,0:0:0:0:
320,192,71209,1,0,0:0:0:0:
320,192,71334,128,0,71459:0:0:0:0:
192,192,71459,1,0,0:0:0:0:
448,192,71459,1,0,0:0:0:0:
64,192,71584,128,0,71709:0:0:0:0:
320,192,71709,1,0,0:0:0:0:
448,192,71834,128,0,71959:0:0:0:0:
64,192,71959,1,0,0:0:0:0:
192,192,71959,128,0,72459:0:0:0:0:
320,192,72084,1,0,0:0:0:0:
448,192,72209,1,0,0:0:0:0:
64,192,72334,1,0,0:0:0:0:
320,192,72459,1,0,0:0:0:0:
448,192,72459,1,0,0:0:0:0:
64,192,72584,1,0,0:0:0:0:
320,192,72584,1,0,0:0:0:0:
64,192,72709,1,0,0:0:0:0:
448,192,72709,1,0,0:0:0:0:
192,192,72834,1,0,0:0:0:0:
448,192,72834,1,0,0:0:0:0:
64,192,72959,1,0,0:0:0:65:Boom.wav
192,192,72959,1,0,0:0:0:0:
320,192,72959,128,0,73209:0:0:0:0:
64,192,73209,1,0,0:0:0:0:
64,192,73334,1,0,0:0:0:0:
320,192,73459,128,0,73709:0:0:0:0:
448,192,73459,1,0,0:0:0:0:
64,192,73709,1,0,0:0:0:0:
64,192,73834,1,0,0:0:0:0:
320,192,73959,128,2,74209:0:0:0:0:
448,192,73959,1,4,0:0:0:0:
192,192,74209,1,0,0:0:0:0:
192,192,74334,128,0,74459:0:0:0:0:
64,192,74459,1,0,0:0:0:0:
448,192,74459,1,0,0:0:0:0:
192,192,74584,1,0,0:0:0:0:
448,192,74584,1,0,0:0:0:0:
192,192,74709,1,0,0:0:0:0:
320,192,74709,1,0,0:0:0:0:
64,192,74834,1,0,0:0:0:0:
320,192,74834,1,0,0:0:0:0:
64,192,74959,128,2,75396:0:0:0:0:
192,192,74959,1,4,0:0:0:0:
448,192,74959,1,0,0:0:0:0:
320,192,75084,1,0,0:0:0:0:
320,192,75209,128,0,75396:0:0:0:0:
64,192,75459,1,2,0:0:0:0:
320,192,75459,1,4,0:0:0:0:
448,192,75459,128,0,75896:0:0:0:0:
192,192,75584,1,0,0:0:0:0:
192,192,75709,128,0,75896:0:0:0:0:
64,192,75959,128,2,76396:0:0:0:0:
192,192,75959,1,4,0:0:0:0:
448,192,75959,1,0,0:0:0:0:
320,192,76084,1,0,0:0:0:0:
448,192,76084,1,0,0:0:0:0:
192,192,76209,1,0,0:0:0:0:
320,192,76334,1,0,0:0:0:0:
448,192,76334,1,0,0:0:0:0:
64,192,76459,1,2,0:0:0:0:
192,192,76459,1,0,0:0:0:0:
448,192,76459,128,0,76896:0:0:0:0:
320,192,76584,1,0,0:0:0:0:
64,192,76709,1,2,0:0:0:0:
320,192,76709,1,0,0:0:0:0:
192,192,76834,1,0,0:0:0:0:
64,192,76959,1,2,0:0:0:0:
192,192,76959,1,4,0:0:0:0:
448,192,76959,1,0,0:0:0:0:
64,192,77084,1,0,0:0:0:0:
192,192,77209,1,8,0:0:0:0:
320,192,77209,1,0,0:0:0:0:
448,192,77209,1,0,0:0:0:0:
320,192,77334,1,0,0:0:0:0:
64,192,77459,1,8,0:0:0:0:
192,192,77459,1,0,0:0:0:0:
448,192,77459,1,0,0:0:0:0:
192,192,77584,1,0,0:0:0:0:
64,192,77709,1,8,0:0:0:0:
320,192,77709,1,0,0:0:0:0:
448,192,77709,1,0,0:0:0:0:
320,192,77834,1,8,0:0:0:0:
64,192,77896,1,8,0:0:0:0:
192,192,77896,1,0,0:0:0:0:
320,192,77959,1,8,0:0:0:0:
448,192,77959,1,0,0:0:0:0:
64,192,78084,1,8,0:0:0:0:
192,192,78084,1,0,0:0:0:0:
448,192,78084,1,0,0:0:0:0:
64,192,78209,1,8,0:0:0:0:
320,192,78209,1,0,0:0:0:0:
448,192,78209,128,0,78459:0:0:0:0:
192,192,78334,128,0,78459:0:0:0:0:
320,192,78584,128,0,78709:0:0:0:0:
64,192,78709,128,0,78896:0:0:0:0:
320,192,78834,128,0,78896:0:0:0:0:
64,192,78959,1,8,0:0:0:0:
192,192,78959,1,2,0:0:0:0:
320,192,78959,1,4,0:0:0:0:
192,192,79084,1,0,0:0:0:0:
64,192,79209,1,8,0:0:0:0:
320,192,79209,1,0,0:0:0:0:
448,192,79209,1,0,0:0:0:0:
448,192,79334,1,0,0:0:0:0:
64,192,79459,1,8,0:0:0:0:
192,192,79459,1,0,0:0:0:0:
320,192,79459,1,0,0:0:0:0:
64,192,79584,1,8,0:0:0:0:
320,192,79584,1,0,0:0:0:0:
448,192,79584,1,0,0:0:0:0:
192,192,79709,1,8,0:0:0:0:
320,192,79709,1,0,0:0:0:0:
448,192,79709,1,0,0:0:0:0:
64,192,79834,1,8,0:0:0:0:
448,192,79834,1,0,0:0:0:0:
192,192,79896,1,0,0:0:0:0:
64,192,79959,128,2,80334:0:0:0:0:
320,192,79959,1,0,0:0:0:0:
320,192,80084,1,2,0:0:0:0:
192,192,80209,128,8,80334:0:0:0:0:
448,192,80209,128,0,80334:0:0:0:0:
320,192,80334,1,2,0:0:0:0:
320,192,80459,1,0,0:0:0:70:SnareClap.wav
448,192,80459,1,0,0:0:0:0:
192,192,80521,1,0,0:0:0:70:SnareClap.wav
64,192,80584,1,0,0:0:0:70:SnareClap.wav
448,192,80584,1,0,0:0:0:0:
320,192,80646,1,0,0:0:0:70:SnareClap.wav
64,192,80709,1,0,0:0:0:60:SnareClap.wav
192,192,80740,1,0,0:0:0:60:SnareClap.wav
320,192,80771,1,0,0:0:0:50:SnareClap.wav
448,192,80802,1,0,0:0:0:50:SnareClap.wav
64,192,80834,1,0,0:0:0:40:SnareClap.wav
192,192,80865,1,0,0:0:0:40:SnareClap.wav
320,192,80896,1,0,0:0:0:30:SnareClap.wav
448,192,80927,1,0,0:0:0:30:SnareClap.wav
64,192,80959,1,2,0:0:0:0:
192,192,80959,1,4,0:0:0:0:
320,192,81084,1,2,0:0:0:0:
448,192,81084,1,0,0:0:0:0:
192,192,81209,1,8,0:0:0:0:
448,192,81209,1,0,0:0:0:0:
64,192,81334,1,2,0:0:0:0:
320,192,81334,1,0,0:0:0:0:
64,192,81459,1,8,0:0:0:0:
192,192,81459,1,0,0:0:0:0:
448,192,81459,1,0,0:0:0:0:
192,192,81584,1,2,0:0:0:0:
320,192,81584,1,0,0:0:0:0:
320,192,81709,1,2,0:0:0:0:
448,192,81709,1,0,0:0:0:0:
192,192,81834,1,2,0:0:0:0:
448,192,81834,1,0,0:0:0:0:
64,192,81959,1,8,0:0:0:0:
192,192,81959,1,2,0:0:0:0:
320,192,81959,1,0,0:0:0:0:
64,192,82084,1,2,0:0:0:0:
448,192,82084,1,0,0:0:0:0:
192,192,82209,1,8,0:0:0:0:
448,192,82209,1,0,0:0:0:0:
192,192,82334,1,2,0:0:0:0:
320,192,82334,1,0,0:0:0:0:
64,192,82459,1,8,0:0:0:0:
320,192,82459,1,0,0:0:0:0:
448,192,82459,1,0,0:0:0:0:
192,192,82584,1,2,0:0:0:0:
448,192,82584,1,0,0:0:0:0:
64,192,82709,1,2,0:0:0:0:
192,192,82709,1,0,0:0:0:0:
64,192,82834,1,2,0:0:0:0:
320,192,82834,1,0,0:0:0:0:
320,192,82959,1,2,0:0:0:0:
448,192,82959,1,0,0:0:0:0:
64,192,83042,1,2,0:0:0:0:
192,192,83042,1,0,0:0:0:0:
320,192,83125,1,2,0:0:0:0:
448,192,83125,1,0,0:0:0:0:
64,192,83209,1,2,0:0:0:0:
192,192,83209,1,0,0:0:0:0:
320,192,83292,1,2,0:0:0:0:
448,192,83292,1,0,0:0:0:0:
192,192,83375,1,2,0:0:0:0:
64,192,83459,1,2,0:0:0:0:
448,192,83459,1,0,0:0:0:0:
192,192,83542,1,2,0:0:0:0:
320,192,83542,1,0,0:0:0:0:
64,192,83625,1,2,0:0:0:0:
448,192,83625,1,0,0:0:0:0:
192,192,83709,1,2,0:0:0:0:
320,192,83709,1,0,0:0:0:0:
64,192,83792,1,2,0:0:0:0:
448,192,83792,1,0,0:0:0:0:
320,192,83875,1,2,0:0:0:0:
64,192,83959,1,2,0:0:0:0:
192,192,83959,1,0,0:0:0:0:
448,192,84021,1,2,0:0:0:0:
64,192,84084,1,2,0:0:0:0:
320,192,84084,1,0,0:0:0:0:
192,192,84146,1,2,0:0:0:0:
320,192,84209,1,2,0:0:0:0:
448,192,84209,1,0,0:0:0:0:
64,192,84271,1,2,0:0:0:0:
192,192,84334,1,2,0:0:0:0:
448,192,84334,1,0,0:0:0:0:
320,192,84396,1,2,0:0:0:0:
64,192,84459,1,2,0:0:0:0:
192,192,84459,1,0,0:0:0:0:
320,192,84521,1,2,0:0:0:0:
448,192,84521,1,0,0:0:0:0:
64,192,84584,1,2,0:0:0:0:
192,192,84584,1,0,0:0:0:0:
320,192,84646,1,2,0:0:0:0:
448,192,84646,1,0,0:0:0:0:
64,192,84709,1,2,0:0:0:0:
192,192,84709,1,0,0:0:0:0:
320,192,84771,1,2,0:0:0:0:
448,192,84771,1,0,0:0:0:0:
64,192,84834,1,2,0:0:0:0:
192,192,84834,1,0,0:0:0:0:
320,192,84896,1,2,0:0:0:0:
64,192,84959,1,2,0:0:0:0:
192,192,84959,1,0,0:0:0:0:
448,192,84959,128,0,85084:0:0:0:0:
320,192,85209,128,0,85334:0:0:0:0:
64,192,85459,128,0,85584:0:0:0:0:
192,192,85709,1,0,0:0:0:0:
320,192,85834,1,0,0:0:0:0:
192,192,85896,1,0,0:0:0:0:
64,192,85959,128,2,86271:0:0:0:0:
320,192,85959,128,4,86334:0:0:0:0:
448,192,85959,128,0,86396:0:0:0:0:
64,192,86334,128,2,86459:0:0:0:0:
192,192,86334,128,0,86521:0:0:0:0:
320,192,86459,128,2,86584:0:0:0:0:
448,192,86459,128,0,86646:0:0:0:0:
64,192,86521,128,0,86646:0:0:0:0:
192,192,86584,128,0,86646:0:0:0:0:
320,192,86646,1,0,0:0:0:0:
64,192,86709,1,8,0:0:0:0:
192,192,86709,1,0,0:0:0:0:
448,192,86709,1,0,0:0:0:0:
64,192,86959,1,2,0:0:0:0:
320,192,86959,128,4,87209:0:0:0:0:
448,192,86959,1,0,0:0:0:0:
192,192,87084,1,0,0:0:0:0:
64,192,87209,1,2,0:0:0:0:
192,192,87209,1,8,0:0:0:0:
448,192,87209,1,0,0:0:0:0:
64,192,87334,1,0,0:0:0:0:
320,192,87334,1,0,0:0:0:0:
320,192,87459,128,2,87709:0:0:0:0:
448,192,87459,1,0,0:0:0:0:
192,192,87584,1,0,0:0:0:0:
64,192,87709,1,2,0:0:0:0:
192,192,87709,1,8,0:0:0:0:
448,192,87709,1,0,0:0:0:0:
64,192,87834,1,0,0:0:0:0:
320,192,87834,1,0,0:0:0:0:
320,192,87959,128,2,88209:0:0:0:0:
448,192,87959,1,0,0:0:0:0:
192,192,88084,1,0,0:0:0:0:
64,192,88209,1,2,0:0:0:0:
192,192,88209,1,8,0:0:0:0:
448,192,88209,1,0,0:0:0:0:
64,192,88334,128,0,88459:0:0:0:0:
320,192,88334,128,0,88459:0:0:0:0:
192,192,88459,1,2,0:0:0:0:
448,192,88459,1,0,0:0:0:0:
64,192,88584,1,0,0:0:0:0:
320,192,88584,1,0,0:0:0:0:
192,192,88709,1,2,0:0:0:0:
320,192,88709,1,8,0:0:0:0:
448,192,88709,1,0,0:0:0:0:
64,192,88834,1,2,0:0:0:0:
448,192,88834,1,0,0:0:0:0:
64,192,88959,128,2,89146:0:0:0:0:
320,192,88959,1,4,0:0:0:0:
448,192,88959,128,0,89209:0:0:0:0:
192,192,89084,128,0,89146:0:0:0:0:
64,192,89209,1,2,0:0:0:0:
192,192,89209,1,8,0:0:0:0:
320,192,89209,128,0,89334:0:0:0:0:
192,192,89334,128,0,89459:0:0:0:0:
448,192,89334,1,0,0:0:0:0:
64,192,89459,1,2,0:0:0:0:
320,192,89459,1,4,0:0:0:0:
448,192,89459,1,0,0:0:0:0:
64,192,89584,1,2,0:0:0:0:
192,192,89584,1,0,0:0:0:75:Crash 2.wav
448,192,89584,1,0,0:0:0:0:
64,192,89834,1,2,0:0:0:0:
192,192,89834,1,4,0:0:0:0:
320,192,89834,128,0,90084:0:0:0:0:
64,192,90084,1,2,0:0:0:0:
448,192,90084,1,0,0:0:0:0:
64,192,90209,1,2,0:0:0:0:
192,192,90209,128,8,90334:0:0:0:0:
448,192,90209,1,0,0:0:0:0:
320,192,90334,128,0,90459:0:0:0:0:
64,192,90459,1,2,0:0:0:0:
192,192,90459,1,4,0:0:0:0:
448,192,90459,1,0,0:0:0:0:
64,192,90584,1,2,0:0:0:0:
192,192,90584,1,0,0:0:0:0:
320,192,90709,1,2,0:0:0:0:
448,192,90709,1,0,0:0:0:0:
64,192,90771,1,2,0:0:0:0:
192,192,90771,1,0,0:0:0:0:
320,192,90834,1,2,0:0:0:0:
448,192,90834,1,0,0:0:0:0:
64,192,90959,1,2,0:0:0:0:
192,192,90959,128,4,91209:0:0:0:0:
448,192,90959,1,0,0:0:0:0:
320,192,91084,1,0,0:0:0:0:
64,192,91209,1,2,0:0:0:0:
320,192,91209,1,8,0:0:0:0:
448,192,91209,1,0,0:0:0:0:
192,192,91334,1,0,0:0:0:0:
448,192,91334,1,0,0:0:0:0:
64,192,91459,1,2,0:0:0:0:
192,192,91459,128,0,91709:0:0:0:0:
320,192,91584,1,0,0:0:0:0:
64,192,91709,1,2,0:0:0:0:
320,192,91709,1,8,0:0:0:0:
448,192,91709,1,0,0:0:0:0:
192,192,91834,1,0,0:0:0:0:
448,192,91834,1,0,0:0:0:0:
64,192,91959,1,2,0:0:0:0:
192,192,91959,128,0,92209:0:0:0:0:
320,192,92084,1,0,0:0:0:0:
64,192,92209,1,2,0:0:0:0:
320,192,92209,1,8,0:0:0:0:
448,192,92209,1,0,0:0:0:0:
64,192,92334,128,0,92459:0:0:0:0:
192,192,92334,128,0,92459:0:0:0:0:
320,192,92459,1,2,0:0:0:0:
448,192,92459,1,0,0:0:0:0:
64,192,92521,1,2,0:0:0:0:
192,192,92521,1,0,0:0:0:0:
320,192,92584,1,2,0:0:0:0:
448,192,92584,1,0,0:0:0:0:
64,192,92709,1,2,0:0:0:0:
192,192,92709,1,8,0:0:0:0:
448,192,92709,1,0,0:0:0:0:
64,192,92834,1,2,0:0:0:0:
192,192,92834,1,0,0:0:0:0:
320,192,92834,1,0,0:0:0:0:
64,192,92959,128,2,93084:0:0:0:0:
320,192,92959,128,4,93084:0:0:0:0:
448,192,92959,128,0,93334:0:0:0:0:
192,192,93084,128,0,93209:0:0:0:0:
64,192,93209,128,2,93584:0:0:0:0:
320,192,93209,128,0,93334:0:0:0:0:
192,192,93334,128,0,93459:0:0:0:0:
320,192,93459,128,2,93709:0:0:0:0:
448,192,93459,128,4,93584:0:0:0:0:
192,192,93584,128,0,93709:0:0:0:0:
64,192,93709,1,2,0:0:0:0:
448,192,93709,1,0,0:0:0:0:
192,192,93771,1,2,0:0:0:0:
320,192,93771,1,0,0:0:0:0:
64,192,93834,1,2,0:0:0:0:
448,192,93834,1,0,0:0:0:0:
64,192,93959,1,2,0:0:0:0:
320,192,93959,1,4,0:0:0:0:
448,192,93959,128,0,94146:0:0:0:0:
192,192,94084,1,0,0:0:0:0:
64,192,94209,1,2,0:0:0:0:
320,192,94209,1,0,0:0:0:0:
448,192,94209,1,0,0:0:0:0:
64,192,94334,1,2,0:0:0:0:
192,192,94334,1,0,0:0:0:0:
320,192,94334,1,0,0:0:0:0:
192,192,94459,128,2,94584:0:0:0:0:
448,192,94459,1,0,0:0:0:0:
64,192,94584,1,0,0:0:0:0:
320,192,94584,1,0,0:0:0:0:
192,192,94709,128,2,94834:0:0:0:0:
448,192,94709,1,0,0:0:0:0:
320,192,94834,1,0,0:0:0:0:
64,192,94959,128,2,95209:0:0:0:0:
320,192,94959,1,4,0:0:0:0:
448,192,94959,1,0,0:0:0:0:
192,192,95084,1,0,0:0:0:0:
192,192,95209,1,2,0:0:0:0:
320,192,95209,1,0,0:0:0:0:
448,192,95209,1,0,0:0:0:0:
64,192,95334,1,2,0:0:0:0:
320,192,95334,1,0,0:0:0:0:
64,192,95459,128,2,95709:0:0:0:0:
192,192,95459,1,0,0:0:0:0:
320,192,95584,1,2,0:0:0:0:
448,192,95584,1,0,0:0:0:0:
192,192,95709,1,2,0:0:0:0:
320,192,95709,1,0,0:0:0:0:
448,192,95709,1,0,0:0:0:0:
64,192,95834,1,2,0:0:0:0:
192,192,95834,1,0,0:0:0:0:
64,192,95959,128,2,96209:0:0:0:0:
320,192,95959,1,0,0:0:0:0:
192,192,96084,1,2,0:0:0:0:
448,192,96084,1,0,0:0:0:0:
192,192,96209,1,2,0:0:0:0:
320,192,96209,1,0,0:0:0:0:
448,192,96209,1,0,0:0:0:0:
64,192,96334,128,2,96459:0:0:0:0:
320,192,96334,128,0,96459:0:0:0:0:
192,192,96459,1,2,0:0:0:0:
448,192,96459,1,0,0:0:0:0:
64,192,96584,1,2,0:0:0:0:
320,192,96584,1,0,0:0:0:0:
64,192,96709,1,2,0:0:0:0:
448,192,96709,1,0,0:0:0:0:
192,192,96771,1,0,0:0:0:0:
320,192,96834,1,2,0:0:0:0:
448,192,96834,1,0,0:0:0:0:
64,192,96896,1,2,0:0:0:0:
192,192,96896,1,0,0:0:0:0:
320,192,96959,1,2,0:0:0:0:
448,192,96959,128,4,97146:0:0:0:0:
64,192,97084,1,2,0:0:0:0:
192,192,97084,1,0,0:0:0:0:
64,192,97209,128,2,97459:0:0:0:0:
320,192,97209,1,0,0:0:0:0:
448,192,97209,1,0,0:0:0:0:
192,192,97334,128,2,97459:0:0:0:0:
448,192,97334,128,0,97459:0:0:0:0:
192,192,97584,128,2,97709:0:0:0:0:
320,192,97584,128,0,97709:0:0:0:0:
64,192,97834,128,2,97959:0:0:0:0:
320,192,97834,128,0,97959:0:0:0:0:
448,192,97834,128,0,98084:0:0:0:0:
64,192,98084,1,2,0:0:0:0:
192,192,98084,1,0,0:0:0:0:
64,192,98209,1,2,0:0:0:0:
320,192,98209,1,0,0:0:0:0:
448,192,98209,1,0,0:0:0:0:
192,192,98334,1,2,0:0:0:0:
320,192,98334,1,0,0:0:0:0:
64,192,98459,1,2,0:0:0:0:
448,192,98459,1,0,0:0:0:0:
64,192,98584,1,2,0:0:0:0:
192,192,98584,1,0,0:0:0:0:
320,192,98646,1,2,0:0:0:0:
448,192,98646,1,0,0:0:0:0:
64,192,98709,1,2,0:0:0:0:
192,192,98709,1,0,0:0:0:0:
192,192,98834,1,2,0:0:0:0:
320,192,98834,1,0,0:0:0:0:
64,192,98959,1,2,0:0:0:0:
320,192,98959,1,4,0:0:0:0:
448,192,98959,128,0,99209:0:0:0:0:
192,192,99084,1,0,0:0:0:0:
64,192,99209,1,2,0:0:0:0:
192,192,99209,1,0,0:0:0:0:
320,192,99209,1,0,0:0:0:0:
64,192,99334,1,2,0:0:0:0:
448,192,99334,1,0,0:0:0:0:
320,192,99459,1,2,0:0:0:0:
448,192,99459,128,0,99709:0:0:0:0:
64,192,99584,1,2,0:0:0:0:
192,192,99584,1,0,0:0:0:0:
64,192,99709,1,2,0:0:0:0:
192,192,99709,1,0,0:0:0:0:
320,192,99709,1,0,0:0:0:0:
320,192,99834,1,2,0:0:0:0:
448,192,99834,1,0,0:0:0:0:
192,192,99959,1,2,0:0:0:0:
448,192,99959,128,0,100209:0:0:0:0:
64,192,100084,1,2,0:0:0:0:
320,192,100084,1,0,0:0:0:0:
64,192,100209,1,2,0:0:0:0:
192,192,100209,1,0,0:0:0:0:
320,192,100209,1,0,0:0:0:0:
192,192,100334,128,2,100459:0:0:0:0:
448,192,100334,128,0,100459:0:0:0:0:
64,192,100459,1,2,0:0:0:0:
320,192,100459,1,0,0:0:0:0:
192,192,100584,1,2,0:0:0:0:
320,192,100584,1,0,0:0:0:0:
64,192,100709,1,2,0:0:0:0:
448,192,100709,1,0,0:0:0:0:
192,192,100771,1,2,0:0:0:0:
320,192,100771,1,0,0:0:0:0:
64,192,100834,1,2,0:0:0:0:
448,192,100834,1,0,0:0:0:0:
192,192,100896,1,2,0:0:0:0:
64,192,100959,1,2,0:0:0:0:
320,192,100959,128,4,101021:0:0:0:0:
448,192,100959,128,0,101021:0:0:0:0:
320,192,101084,1,2,0:0:0:0:
448,192,101084,1,0,0:0:0:0:
320,192,101209,128,0,101271:0:0:0:0:
448,192,101209,128,0,101271:0:0:0:0:
64,192,101334,1,0,0:0:0:0:
192,192,101365,1,0,0:0:0:0:
448,192,101396,1,0,0:0:0:0:
320,192,101427,1,0,0:0:0:0:
64,192,101459,128,2,101521:0:0:0:0:
192,192,101459,128,4,101521:0:0:0:0:
64,192,101584,1,2,0:0:0:0:
192,192,101584,1,0,0:0:0:0:
320,192,101646,1,2,0:0:0:0:
448,192,101646,1,0,0:0:0:0:
64,192,101709,128,0,101771:0:0:0:0:
192,192,101709,128,0,101771:0:0:0:0:
448,192,101834,1,0,0:0:0:0:
320,192,101865,1,0,0:0:0:0:
64,192,101896,1,0,0:0:0:0:
192,192,101927,1,0,0:0:0:0:
320,192,101959,1,2,0:0:0:0:
448,192,101959,1,4,0:0:0:0:
64,192,102021,1,0,0:0:0:0:
192,192,102084,1,0,0:0:0:0:
320,192,102146,1,0,0:0:0:0:
448,192,102209,1,8,0:0:0:0:
64,192,102271,1,0,0:0:0:0:
192,192,102334,1,0,0:0:0:0:
448,192,102396,1,0,0:0:0:0:
320,192,102459,1,8,0:0:0:0:
192,192,102521,1,0,0:0:0:0:
64,192,102584,1,0,0:0:0:0:
448,192,102646,1,0,0:0:0:0:
320,192,102709,1,8,0:0:0:0:
64,192,102771,1,0,0:0:0:0:
192,192,102834,1,0,0:0:0:0:
320,192,102896,1,0,0:0:0:0:
64,192,102959,1,2,0:0:0:0:
192,192,102959,1,4,0:0:0:0:
448,192,102959,1,0,0:0:0:0:
320,192,103459,128,0,103521:0:0:0:0:
320,192,103709,128,0,103771:0:0:0:0:
64,192,103959,1,8,0:0:0:0:
192,192,103959,1,0,0:0:0:0:
448,192,103959,1,0,0:0:0:0:
64,192,104209,128,0,104271:0:0:0:0:
320,192,104334,128,0,104396:0:0:0:0:
192,192,104459,128,0,104521:0:0:0:0:
320,192,104709,128,0,104771:0:0:0:0:
64,192,104959,1,2,0:0:0:0:
448,192,104959,1,0,0:0:0:0:
192,192,105209,128,0,105271:0:0:0:0:
320,192,105459,128,0,105521:0:0:0:0:
448,192,105709,128,0,105771:0:0:0:0:
64,192,105959,128,8,106021:0:0:0:0:
192,192,105959,1,0,0:0:0:0:
448,192,105959,1,0,0:0:0:0:
320,192,106209,128,0,106271:0:0:0:0:
192,192,106334,128,0,106396:0:0:0:0:
448,192,106459,128,0,106521:0:0:0:0:
448,192,106709,128,0,106771:0:0:0:0:
192,192,106959,128,2,107021:0:0:0:0:
320,192,106959,1,0,0:0:0:0:
448,192,107334,128,0,107396:0:0:0:0:
64,192,107459,128,0,107521:0:0:0:0:
64,192,107709,128,0,107771:0:0:0:0:
64,192,107959,1,8,0:0:0:0:
320,192,107959,1,0,0:0:0:0:
448,192,107959,1,0,0:0:0:0:
192,192,108209,128,0,108271:0:0:0:0:
448,192,108334,128,0,108396:0:0:0:0:
320,192,108459,128,0,108521:0:0:0:0:
192,192,108709,128,0,108771:0:0:0:0:
64,192,108959,1,2,0:0:0:0:
448,192,108959,1,0,0:0:0:0:
192,192,109209,128,0,109271:0:0:0:0:
320,192,109334,1,0,0:0:0:0:
64,192,109459,128,2,109521:0:0:0:0:
192,192,109459,1,0,0:0:0:0:
320,192,109584,1,0,0:0:0:0:
448,192,109709,128,0,109771:0:0:0:0:
64,192,109959,1,8,0:0:0:0:
192,192,109959,1,0,0:0:0:0:
448,192,109959,1,0,0:0:0:0:
320,192,110021,1,0,0:0:0:0:
192,192,110084,1,0,0:0:0:0:
64,192,110146,1,0,0:0:0:0:
320,192,110209,1,2,0:0:0:0:
448,192,110209,1,0,0:0:0:0:
64,192,110271,1,0,0:0:0:0:
320,192,110334,1,0,0:0:0:0:
192,192,110396,1,0,0:0:0:0:
64,192,110459,1,8,0:0:0:0:
448,192,110459,1,0,0:0:0:0:
320,192,110521,1,0,0:0:0:0:
64,192,110584,1,2,0:0:0:0:
192,192,110584,1,0,0:0:0:0:
320,192,110646,1,0,0:0:0:0:
192,192,110709,1,8,0:0:0:0:
448,192,110709,1,0,0:0:0:0:
64,192,110771,1,0,0:0:0:0:
448,192,110834,1,8,0:0:0:0:
320,192,110834,1,0,0:0:0:0:
192,192,110896,1,0,0:0:0:0:
64,192,110959,1,0,0:0:0:65:Boom.wav
320,192,110959,1,0,0:0:0:0:
448,192,110959,128,0,111209:0:0:0:0:
64,192,111209,1,8,0:0:0:0:
192,192,111209,1,0,0:0:0:0:
64,192,111334,1,0,0:0:0:0:
320,192,111459,1,8,0:0:0:0:
448,192,111459,128,0,111709:0:0:0:0:
64,192,111709,1,8,0:0:0:0:
192,192,111709,1,0,0:0:0:0:
192,192,111834,1,0,0:0:0:0:
320,192,111959,1,8,0:0:0:0:
448,192,111959,128,0,112209:0:0:0:0:
64,192,112209,1,8,0:0:0:0:
192,192,112209,1,0,0:0:0:0:
64,192,112334,128,0,112459:0:0:0:0:
320,192,112459,1,8,0:0:0:0:
448,192,112459,1,0,0:0:0:0:
320,192,112584,128,0,112709:0:0:0:0:
64,192,112709,1,8,0:0:0:0:
192,192,112709,1,0,0:0:0:0:
192,192,112834,1,8,0:0:0:0:
320,192,112834,1,0,0:0:0:0:
64,192,112959,1,2,0:0:0:0:
320,192,112959,128,4,113209:0:0:0:0:
448,192,112959,1,0,0:0:0:0:
64,192,113209,1,8,0:0:0:0:
448,192,113209,1,0,0:0:0:0:
64,192,113334,1,2,0:0:0:0:
192,192,113334,1,0,0:0:0:75:Crash 2.wav
320,192,113334,1,0,0:0:0:0:
192,192,113459,1,8,0:0:0:0:
448,192,113459,1,0,0:0:0:0:
64,192,113584,1,2,0:0:0:0:
320,192,113584,1,0,0:0:0:75:Crash 2.wav
448,192,113584,1,0,0:0:0:0:
192,192,113709,1,8,0:0:0:0:
320,192,113709,1,0,0:0:0:0:
64,192,113834,1,2,0:0:0:0:
192,192,113834,1,4,0:0:0:0:
448,192,113834,1,0,0:0:0:0:
64,192,113959,128,8,114459:0:0:0:0:
320,192,113959,1,0,0:0:0:0:
320,192,114084,1,0,0:0:0:0:
192,192,114209,1,8,0:0:0:0:
448,192,114209,1,0,0:0:0:0:
320,192,114334,1,0,0:0:0:0:
192,192,114459,1,2,0:0:0:0:
448,192,114459,1,8,0:0:0:0:
320,192,114584,1,0,0:0:0:0:
64,192,114646,1,8,0:0:0:0:
192,192,114646,1,0,0:0:0:0:
320,192,114709,1,2,0:0:0:0:
448,192,114709,1,0,0:0:0:0:
64,192,114834,1,8,0:0:0:0:
192,192,114834,1,0,0:0:0:0:
320,192,114896,1,8,0:0:0:0:
64,192,114959,1,2,0:0:0:0:
192,192,114959,1,4,0:0:0:0:
448,192,114959,1,0,0:0:0:0:
320,192,115084,1,2,0:0:0:0:
448,192,115084,1,0,0:0:0:0:
64,192,115209,1,2,0:0:0:0:
192,192,115209,1,0,0:0:0:0:
448,192,115209,1,0,0:0:0:0:
192,192,115334,1,2,0:0:0:0:
320,192,115334,1,0,0:0:0:0:
64,192,115459,1,2,0:0:0:0:
192,192,115459,1,0,0:0:0:0:
448,192,115459,1,0,0:0:0:0:
320,192,115584,1,2,0:0:0:0:
448,192,115584,1,0,0:0:0:0:
64,192,115709,1,2,0:0:0:0:
192,192,115709,1,0,0:0:0:0:
448,192,115709,1,0,0:0:0:0:
64,192,115834,1,2,0:0:0:0:
192,192,115834,1,0,0:0:0:0:
320,192,115959,1,2,0:0:0:0:
448,192,115959,1,0,0:0:0:0:
64,192,116021,1,2,0:0:0:0:
192,192,116021,1,0,0:0:0:0:
320,192,116084,1,2,0:0:0:0:
448,192,116084,1,0,0:0:0:0:
64,192,116146,1,2,0:0:0:0:
192,192,116146,1,0,0:0:0:0:
320,192,116209,1,2,0:0:0:0:
448,192,116209,1,0,0:0:0:0:
64,192,116271,1,2,0:0:0:0:
192,192,116271,1,0,0:0:0:0:
320,192,116334,1,2,0:0:0:0:
448,192,116334,1,0,0:0:0:0:
64,192,116396,1,2,0:0:0:0:
192,192,116396,1,0,0:0:0:0:
320,192,116459,1,2,0:0:0:0:
448,192,116459,1,0,0:0:0:0:
192,192,116521,1,2,0:0:0:0:
64,192,116584,1,2,0:0:0:0:
448,192,116584,1,0,0:0:0:0:
320,192,116646,1,2,0:0:0:0:
64,192,116709,1,2,0:0:0:0:
192,192,116709,1,0,0:0:0:0:
448,192,116771,1,2,0:0:0:0:
320,192,116834,1,2,0:0:0:0:
192,192,116896,1,2,0:0:0:0:
64,192,116959,1,2,0:0:0:0:
320,192,116959,1,0,0:0:0:75:Crash 2.wav
448,192,116959,1,0,0:0:0:0:
64,192,117209,1,0,0:0:0:0:
192,192,117459,1,0,0:0:0:0:
320,192,117709,1,0,0:0:0:0:
320,192,117834,1,0,0:0:0:0:
192,192,117896,1,0,0:0:0:0:
64,192,117959,1,2,0:0:0:0:
448,192,117959,1,0,0:0:0:0:
64,192,118146,1,2,0:0:0:0:
448,192,118146,1,0,0:0:0:0:
64,192,118334,1,2,0:0:0:0:
448,192,118334,1,0,0:0:0:0:
320,192,118459,1,2,0:0:0:0:
448,192,118459,1,0,0:0:0:0:
64,192,118521,1,2,0:0:0:0:
192,192,118521,1,0,0:0:0:0:
320,192,118584,1,2,0:0:0:0:
448,192,118584,1,0,0:0:0:0:
192,192,118646,1,2,0:0:0:0:
64,192,118709,1,8,0:0:0:0:
320,192,118709,1,0,0:0:0:0:
448,192,118709,1,0,0:0:0:0:
64,192,118959,128,2,119146:0:0:0:0:
192,192,118959,128,4,119146:0:0:0:0:
448,192,118959,1,0,0:0:0:0:
320,192,119084,128,0,119146:0:0:0:0:
64,192,119209,1,2,0:0:0:0:
320,192,119209,1,8,0:0:0:0:
448,192,119209,1,0,0:0:0:0:
192,192,119334,1,0,0:0:0:0:
448,192,119334,1,0,0:0:0:0:
64,192,119459,128,2,119646:0:0:0:0:
192,192,119459,128,0,119646:0:0:0:0:
320,192,119584,128,0,119646:0:0:0:0:
64,192,119709,1,2,0:0:0:0:
320,192,119709,1,8,0:0:0:0:
448,192,119709,1,0,0:0:0:0:
192,192,119834,1,0,0:0:0:0:
448,192,119834,1,0,0:0:0:0:
64,192,119959,128,2,120146:0:0:0:0:
192,192,119959,128,0,120146:0:0:0:0:
320,192,120084,128,0,120146:0:0:0:0:
64,192,120209,128,2,120396:0:0:0:0:
320,192,120209,1,8,0:0:0:0:
448,192,120209,1,0,0:0:0:0:
192,192,120334,128,0,120396:0:0:0:0:
448,192,120334,128,0,120396:0:0:0:0:
64,192,120459,1,2,0:0:0:0:
320,192,120459,1,0,0:0:0:0:
192,192,120584,128,0,120646:0:0:0:0:
448,192,120584,128,0,120646:0:0:0:0:
64,192,120709,1,2,0:0:0:0:
192,192,120709,128,8,120771:0:0:0:0:
320,192,120709,128,0,120771:0:0:0:0:
64,192,120834,128,2,120896:0:0:0:0:
448,192,120834,128,0,120896:0:0:0:0:
192,192,120959,128,2,121146:0:0:0:0:
320,192,120959,1,4,0:0:0:0:
448,192,120959,128,0,121209:0:0:0:0:
64,192,121084,128,0,121146:0:0:0:0:
64,192,121209,1,2,0:0:0:0:
192,192,121209,1,8,0:0:0:0:
320,192,121209,128,0,121334:0:0:0:0:
192,192,121334,128,0,121459:0:0:0:0:
64,192,121459,1,2,0:0:0:0:
320,192,121459,1,0,0:0:0:0:
448,192,121459,1,0,0:0:0:0:
64,192,121584,1,2,0:0:0:0:
192,192,121584,1,0,0:0:0:75:Crash 2.wav
448,192,121584,1,0,0:0:0:0:
64,192,121834,1,2,0:0:0:0:
320,192,121834,128,4,122084:0:0:0:0:
448,192,121834,1,0,0:0:0:0:
192,192,122084,1,2,0:0:0:0:
448,192,122084,1,0,0:0:0:0:
64,192,122209,128,2,122334:0:0:0:0:
320,192,122209,1,8,0:0:0:0:
448,192,122209,1,0,0:0:0:0:
192,192,122334,128,0,122459:0:0:0:0:
64,192,122459,1,2,0:0:0:0:
320,192,122459,1,4,0:0:0:0:
448,192,122459,1,0,0:0:0:0:
320,192,122584,1,2,0:0:0:0:
448,192,122584,1,0,0:0:0:0:
64,192,122709,1,2,0:0:0:0:
192,192,122709,1,0,0:0:0:0:
320,192,122771,1,2,0:0:0:0:
448,192,122771,1,0,0:0:0:0:
64,192,122834,1,2,0:0:0:0:
192,192,122834,1,0,0:0:0:0:
64,192,122959,1,2,0:0:0:0:
320,192,122959,128,4,123146:0:0:0:0:
448,192,122959,128,0,123146:0:0:0:0:
192,192,123084,128,0,123146:0:0:0:0:
64,192,123209,1,2,0:0:0:0:
192,192,123209,1,8,0:0:0:0:
448,192,123209,1,0,0:0:0:0:
64,192,123334,1,0,0:0:0:0:
320,192,123334,1,0,0:0:0:0:
320,192,123459,128,2,123646:0:0:0:0:
448,192,123459,128,0,123646:0:0:0:0:
192,192,123584,128,0,123646:0:0:0:0:
64,192,123709,1,2,0:0:0:0:
192,192,123709,1,8,0:0:0:0:
448,192,123709,1,0,0:0:0:0:
64,192,123834,1,0,0:0:0:0:
320,192,123834,1,0,0:0:0:0:
320,192,123959,128,2,124146:0:0:0:0:
448,192,123959,128,0,124146:0:0:0:0:
192,192,124084,128,0,124146:0:0:0:0:
64,192,124209,1,2,0:0:0:0:
192,192,124209,1,8,0:0:0:0:
448,192,124209,128,0,124396:0:0:0:0:
64,192,124334,128,0,124396:0:0:0:0:
320,192,124334,128,0,124396:0:0:0:0:
64,192,124459,1,2,0:0:0:0:
192,192,124459,1,0,0:0:0:0:
320,192,124521,1,2,0:0:0:0:
448,192,124521,1,0,0:0:0:0:
64,192,124584,1,2,0:0:0:0:
192,192,124584,1,0,0:0:0:0:
64,192,124709,1,2,0:0:0:0:
320,192,124709,1,8,0:0:0:0:
448,192,124709,1,0,0:0:0:0:
192,192,124834,1,2,0:0:0:0:
320,192,124834,1,0,0:0:0:0:
64,192,124959,128,2,125146:0:0:0:0:
192,192,124959,128,4,125146:0:0:0:0:
448,192,124959,128,0,125146:0:0:0:0:
320,192,125084,128,0,125146:0:0:0:0:
64,192,125209,128,2,125396:0:0:0:0:
192,192,125209,128,4,125396:0:0:0:0:
320,192,125209,128,0,125396:0:0:0:0:
448,192,125334,128,0,125396:0:0:0:0:
64,192,125459,1,2,0:0:0:0:
320,192,125459,128,4,125584:0:0:0:0:
448,192,125459,128,0,125584:0:0:0:0:
64,192,125584,1,2,0:0:0:0:
192,192,125584,1,0,0:0:0:0:
320,192,125646,1,2,0:0:0:0:
448,192,125646,1,0,0:0:0:0:
64,192,125709,1,2,0:0:0:0:
192,192,125709,1,0,0:0:0:0:
320,192,125834,1,2,0:0:0:0:
448,192,125834,1,0,0:0:0:0:
64,192,125896,1,2,0:0:0:0:
192,192,125896,1,0,0:0:0:0:
448,192,125959,1,6,0:0:0:0:
320,192,125990,1,0,0:0:0:0:
192,192,126021,1,2,0:0:0:0:
64,192,126052,1,0,0:0:0:0:
320,192,126084,1,2,0:0:0:0:
448,192,126084,1,0,0:0:0:0:
64,192,126146,1,2,0:0:0:0:
192,192,126146,1,0,0:0:0:0:
320,192,126209,1,2,0:0:0:0:
448,192,126209,1,0,0:0:0:0:
64,192,126334,1,2,0:0:0:0:
192,192,126334,1,0,0:0:0:0:
320,192,126396,1,2,0:0:0:0:
448,192,126396,1,0,0:0:0:0:
64,192,126459,128,2,126646:0:0:0:0:
192,192,126459,1,0,0:0:0:0:
320,192,126584,128,0,126646:0:0:0:0:
448,192,126584,128,0,126646:0:0:0:0:
64,192,126709,1,2,0:0:0:0:
192,192,126709,1,0,0:0:0:0:
448,192,126709,128,0,126896:0:0:0:0:
64,192,126834,128,0,126896:0:0:0:0:
192,192,126834,128,0,126896:0:0:0:0:
64,192,126959,128,2,127146:0:0:0:0:
192,192,126959,128,4,127146:0:0:0:0:
448,192,126959,1,0,0:0:0:0:
320,192,127084,128,0,127146:0:0:0:0:
448,192,127084,128,0,127146:0:0:0:0:
64,192,127209,1,2,0:0:0:0:
448,192,127209,1,0,0:0:0:0:
320,192,127271,1,0,0:0:0:0:
64,192,127334,1,2,0:0:0:0:
192,192,127334,1,0,0:0:0:0:
320,192,127396,1,2,0:0:0:0:
448,192,127396,1,0,0:0:0:0:
64,192,127459,128,2,127646:0:0:0:0:
192,192,127459,128,0,127646:0:0:0:0:
320,192,127584,128,0,127646:0:0:0:0:
448,192,127584,128,0,127646:0:0:0:0:
64,192,127709,1,2,0:0:0:0:
448,192,127709,1,0,0:0:0:0:
320,192,127771,1,0,0:0:0:0:
64,192,127834,1,2,0:0:0:0:
192,192,127834,1,0,0:0:0:0:
320,192,127896,1,2,0:0:0:0:
448,192,127896,1,0,0:0:0:0:
64,192,127959,128,2,128146:0:0:0:0:
192,192,127959,128,0,128146:0:0:0:0:
320,192,128084,128,0,128146:0:0:0:0:
448,192,128084,128,0,128146:0:0:0:0:
64,192,128209,1,2,0:0:0:0:
192,192,128209,1,0,0:0:0:0:
320,192,128271,1,2,0:0:0:0:
448,192,128271,1,0,0:0:0:0:
64,192,128334,1,2,0:0:0:0:
192,192,128334,1,0,0:0:0:0:
320,192,128396,1,2,0:0:0:0:
448,192,128396,1,0,0:0:0:0:
64,192,128459,1,2,0:0:0:0:
192,192,128459,1,0,0:0:0:0:
192,192,128584,1,2,0:0:0:0:
320,192,128584,1,4,0:0:0:0:
320,192,128709,1,2,0:0:0:0:
448,192,128709,1,0,0:0:0:0:
64,192,128771,1,2,0:0:0:0:
192,192,128771,1,0,0:0:0:0:
448,192,128834,1,2,0:0:0:0:
320,192,128865,1,0,0:0:0:0:
192,192,128896,1,2,0:0:0:0:
64,192,128927,1,0,0:0:0:0:
320,192,128959,1,2,0:0:0:0:
448,192,128959,1,4,0:0:0:0:
64,192,129021,1,2,0:0:0:0:
192,192,129021,1,0,0:0:0:0:
320,192,129084,1,2,0:0:0:0:
448,192,129084,1,0,0:0:0:0:
64,192,129209,128,2,129459:0:0:0:0:
192,192,129209,1,0,0:0:0:0:
448,192,129209,1,0,0:0:0:0:
320,192,129334,128,2,129459:0:0:0:0:
448,192,129334,128,0,129459:0:0:0:75:Crash 2.wav
192,192,129584,128,2,129709:0:0:0:0:
320,192,129584,128,0,129709:0:0:0:75:Crash 2.wav
64,192,129834,128,2,129959:0:0:0:0:
192,192,129834,128,4,129959:0:0:0:0:
448,192,129834,128,0,130084:0:0:0:0:
64,192,130084,1,2,0:0:0:0:
192,192,130084,1,0,0:0:0:0:
64,192,130209,1,2,0:0:0:0:
320,192,130209,1,0,0:0:0:0:
448,192,130209,1,0,0:0:0:0:
192,192,130334,1,2,0:0:0:0:
320,192,130334,1,0,0:0:0:0:
64,192,130459,1,2,0:0:0:0:
448,192,130459,1,0,0:0:0:0:
64,192,130584,1,2,0:0:0:0:
192,192,130584,1,0,0:0:0:0:
320,192,130646,1,2,0:0:0:0:
448,192,130646,1,0,0:0:0:0:
64,192,130709,1,2,0:0:0:0:
192,192,130709,1,0,0:0:0:0:
192,192,130834,1,2,0:0:0:0:
320,192,130834,1,0,0:0:0:0:
320,192,130959,128,2,131021:0:0:0:0:
448,192,130959,128,4,131021:0:0:0:0:
64,192,131021,1,2,0:0:0:0:
192,192,131021,1,0,0:0:0:0:
320,192,131084,1,2,0:0:0:0:
448,192,131084,1,0,0:0:0:0:
64,192,131209,1,2,0:0:0:0:
192,192,131209,1,0,0:0:0:0:
448,192,131209,1,0,0:0:0:0:
192,192,131334,1,2,0:0:0:0:
320,192,131334,1,0,0:0:0:0:
320,192,131459,128,2,131521:0:0:0:0:
448,192,131459,128,4,131521:0:0:0:0:
64,192,131521,1,2,0:0:0:0:
192,192,131521,1,0,0:0:0:0:
320,192,131584,1,2,0:0:0:0:
448,192,131584,1,0,0:0:0:0:
64,192,131709,1,2,0:0:0:0:
192,192,131709,1,0,0:0:0:0:
448,192,131709,1,0,0:0:0:0:
192,192,131834,1,2,0:0:0:0:
320,192,131834,1,0,0:0:0:0:
320,192,131959,128,2,132021:0:0:0:0:
448,192,131959,128,4,132021:0:0:0:0:
64,192,132021,1,2,0:0:0:0:
192,192,132021,1,0,0:0:0:0:
320,192,132084,1,2,0:0:0:0:
448,192,132084,1,0,0:0:0:0:
64,192,132209,1,2,0:0:0:0:
192,192,132209,1,0,0:0:0:0:
448,192,132209,1,0,0:0:0:0:
64,192,132334,128,2,132396:0:0:0:0:
320,192,132334,128,0,132396:0:0:0:0:
320,192,132459,1,2,0:0:0:0:
448,192,132459,1,4,0:0:0:0:
64,192,132521,1,2,0:0:0:0:
192,192,132521,1,0,0:0:0:0:
320,192,132584,1,2,0:0:0:0:
448,192,132584,1,0,0:0:0:0:
64,192,132709,1,2,0:0:0:0:
192,192,132740,1,2,0:0:0:0:
320,192,132771,1,2,0:0:0:0:
448,192,132802,1,2,0:0:0:0:
64,192,132834,1,2,0:0:0:0:
192,192,132865,1,2,0:0:0:0:
320,192,132896,1,2,0:0:0:0:
448,192,132927,1,2,0:0:0:0:
64,192,132959,1,2,0:0:0:0:
192,192,132959,1,4,0:0:0:0:
320,192,133021,1,2,0:0:0:0:
448,192,133021,1,0,0:0:0:0:
64,192,133084,1,2,0:0:0:0:
192,192,133084,1,0,0:0:0:0:
320,192,133146,1,2,0:0:0:0:
64,192,133209,1,2,0:0:0:0:
448,192,133209,1,0,0:0:0:0:
192,192,133271,1,2,0:0:0:0:
320,192,133271,1,0,0:0:0:0:
64,192,133334,1,2,0:0:0:0:
448,192,133334,1,0,0:0:0:0:
192,192,133396,1,2,0:0:0:0:
320,192,133459,1,2,0:0:0:0:
448,192,133459,1,4,0:0:0:0:
64,192,133521,1,2,0:0:0:0:
192,192,133521,1,0,0:0:0:0:
320,192,133584,1,2,0:0:0:0:
448,192,133584,1,0,0:0:0:0:
64,192,133646,1,2,0:0:0:0:
192,192,133646,1,0,0:0:0:0:
320,192,133709,1,2,0:0:0:0:
448,192,133709,1,0,0:0:0:0:
64,192,133771,1,2,0:0:0:0:
192,192,133771,1,0,0:0:0:0:
320,192,133834,1,2,0:0:0:0:
448,192,133834,1,0,0:0:0:0:
192,192,133896,1,2,0:0:0:0:
64,192,133959,1,0,0:0:0:0:
448,192,133959,1,0,0:0:0:0:
320,192,134021,1,0,0:0:0:0:
192,192,134084,1,0,0:0:0:0:
64,192,134146,1,0,0:0:0:0:
448,192,134209,1,0,0:0:0:0:
320,192,134271,1,0,0:0:0:0:
64,192,134334,1,0,0:0:0:0:
192,192,134396,1,0,0:0:0:0:
320,192,134459,1,8,0:0:0:0:
448,192,134521,1,0,0:0:0:0:
64,192,134584,1,0,0:0:0:0:
192,192,134646,1,0,0:0:0:0:
448,192,134709,1,0,0:0:0:0:
320,192,134771,1,0,0:0:0:0:
192,192,134834,1,0,0:0:0:0:
320,192,134896,1,0,0:0:0:0:
64,192,134959,1,2,0:0:0:0:
192,192,134959,1,0,0:0:0:0:
448,192,134959,1,0,0:0:0:0:
320,192,135209,1,0,0:0:0:0:
192,192,135334,1,0,0:0:0:0:
64,192,135459,1,0,0:0:0:0:
448,192,135459,1,0,0:0:0:0:
320,192,135709,1,0,0:0:0:0:
192,192,135834,1,0,0:0:0:0:
64,192,135959,1,0,0:0:0:0:
320,192,136209,1,0,0:0:0:0:
192,192,136334,1,0,0:0:0:0:
448,192,136584,128,0,136646:0:0:0:0:
192,192,136709,128,0,136771:0:0:0:0:
320,192,136834,128,0,136896:0:0:0:0:
64,192,136959,128,2,137146:0:0:0:0:
192,192,136959,128,4,137146:0:0:0:0:
448,192,136959,128,0,137146:0:0:0:0:
320,192,137084,128,0,137146:0:0:0:0:
64,192,137209,128,0,137396:0:0:0:0:
448,192,137209,128,0,137396:0:0:0:0:
320,192,137334,128,0,137396:0:0:0:0:
64,192,137459,128,2,137646:0:0:0:0:
320,192,137459,128,4,137646:0:0:0:0:
448,192,137459,128,0,137646:0:0:0:0:
192,192,137584,128,0,137646:0:0:0:0:
64,192,137709,128,0,137771:0:0:0:0:
448,192,137709,128,0,137771:0:0:0:0:
64,192,137834,128,0,137896:0:0:0:0:
448,192,137834,128,0,137896:0:0:0:0:
192,192,137896,128,0,137959:0:0:0:0:
320,192,137959,1,2,0:0:0:0:
448,192,137959,1,0,0:0:0:0:
64,192,138021,1,2,0:0:0:0:
192,192,138021,1,0,0:0:0:0:
320,192,138084,1,2,0:0:0:0:
448,192,138084,1,0,0:0:0:0:
64,192,138146,1,2,0:0:0:0:
192,192,138146,1,0,0:0:0:0:
448,192,138209,1,2,0:0:0:0:
320,192,138240,1,2,0:0:0:0:
64,192,138271,1,2,0:0:0:0:
192,192,138302,1,2,0:0:0:0:
448,192,138334,1,2,0:0:0:0:
320,192,138365,1,2,0:0:0:0:
64,192,138396,1,2,0:0:0:0:
192,192,138427,1,2,0:0:0:0:
320,192,138459,128,2,138959:0:0:0:0:
448,192,138459,128,0,138959:0:0:0:0:
