osu file format v14

[General]
AudioFilename: RESONANCE.ogg
AudioLeadIn: 0
PreviewTime: 84959
Countdown: 0
SampleSet: Soft
StackLeniency: 0.7
Mode: 3
LetterboxInBreaks: 0
SpecialStyle: 0
WidescreenStoryboard: 0

[Editor]
DistanceSpacing: 1.1
BeatDivisor: 4
GridSize: 4
TimelineZoom: 2.7

[Metadata]
Title:REKKA RESONANCE
TitleUnicode:烈華RESONANCE
Artist:REDALiCE vs. Kobaryo
ArtistUnicode:REDALiCE vs. Kobaryo
Creator:Syadow-
Version:PRESENT
Source:Arcaea
Tags:lowiro Memory Archive Video Game Electronic instrumental HARDCORE TANO*C Collaboration [RT]Alleyne [Crz]Alleyne Nami kanon matsubara Sound Collection MEMORIES OF WRATH IROCD-005
BeatmapID:3092996
BeatmapSetID:1507653

[Difficulty]
HPDrainRate:7
CircleSize:4
OverallDifficulty:7
ApproachRate:5
SliderMultiplier:1.4
SliderTickRate:1

[Events]
//Background and Video events
0,0,"Rekka.jpg",0,0
//Break Periods
//Storyboard Layer 0 (Background)
//Storyboard Layer 1 (Fail)
//Storyboard Layer 2 (Pass)
//Storyboard Layer 3 (Foreground)
//Storyboard Layer 4 (Overlay)
//Storyboard Sound Samples
Sample,113334,0,"Crash 2.wav",75
Sample,113584,0,"Crash 2.wav",75

[TimingPoints]
1959,250,4,2,1,90,1,0
15959,-100,4,2,1,50,0,0
16959,-100,4,2,1,45,0,0
17459,-100,4,2,1,40,0,0
17959,-100,4,2,1,50,0,0
19959,-100,4,2,1,80,0,0
44959,-100,4,2,1,85,0,0
52959,-100,4,2,1,50,0,0
60959,-100,4,2,1,70,0,0
86959,-100,4,2,1,95,0,1
102959,-100,4,2,1,75,0,0
118959,-100,4,2,1,95,0,1
134959,-100,4,2,1,80,0,0

[HitObjects]
320,192,709,128,0,1959:0:0:0:0:
64,192,1959,1,2,0:0:0:0:
448,192,1959,1,0,0:0:0:0:
64,192,2459,1,2,0:0:0:0:
192,192,2459,1,0,0:0:0:0:
64,192,2709,1,2,0:0:0:0:
192,192,2709,1,0,0:0:0:0:
320,192,3209,1,2,0:0:0:0:
448,192,3209,1,0,0:0:0:0:
192,192,3334,1,0,0:0:0:0:
320,192,3459,1,0,0:0:0:0:
64,192,3709,1,2,0:0:0:0:
192,192,3709,128,4,4209:0:0:0:0:
320,192,4209,128,0,4459:0:0:0:0:
448,192,4459,128,0,4709:0:0:0:0:
64,192,4709,128,2,4959:0:0:0:0:
192,192,4709,1,4,0:0:0:0:
320,192,4959,128,0,5209:0:0:0:0:
192,192,5209,128,0,5334:0:0:0:0:
448,192,5334,128,0,5459:0:0:0:0:
64,192,5459,128,0,5709:0:0:0:0:
320,192,5709,128,0,5959:0:0:0:0:
64,192,5959,1,2,0:0:0:0:
448,192,5959,1,4,0:0:0:0:
320,192,6459,1,2,0:0:0:0:
448,192,6459,1,0,0:0:0:0:
320,192,6709,1,2,0:0:0:0:
448,192,6709,1,0,0:0:0:0:
64,192,7209,1,2,0:0:0:0:
192,192,7209,1,0,0:0:0:0:
320,192,7334,1,0,0:0:0:0:
192,192,7459,1,0,0:0:0:0:
64,192,7709,1,2,0:0:0:0:
448,192,7709,128,4,8209:0:0:0:0:
64,192,8209,128,0,8459:0:0:0:0:
320,192,8459,128,0,8709:0:0:0:0:
192,192,8709,128,0,8959:0:0:0:0:
448,192,8959,1,0,0:0:0:0:
320,192,9084,1,0,0:0:0:0:
192,192,9209,1,0,0:0:0:0:
64,192,9334,1,0,0:0:0:0:
320,192,9459,1,0,0:0:0:0:
448,192,9584,1,0,0:0:0:0:
192,192,9709,1,0,0:0:0:0:
320,192,9834,1,0,0:0:0:0:
64,192,9959,1,2,0:0:0:0:
448,192,9959,1,4,0:0:0:0:
64,192,10334,1,2,0:0:0:0:
192,192,10334,1,0,0:0:0:0:
320,192,10459,1,8,0:0:0:0:
448,192,10459,1,0,0:0:0:0:
64,192,10709,1,2,0:0:0:0:
448,192,10709,1,0,0:0:0:0:
192,192,11209,1,2,0:0:0:0:
448,192,11209,1,0,0:0:0:0:
320,192,11334,1,0,0:0:0:0:
64,192,11459,1,8,0:0:0:0:
448,192,11459,1,0,0:0:0:0:
64,192,11709,1,2,0:0:0:0:
192,192,11709,1,0,0:0:0:0:
448,192,12209,1,2,0:0:0:0:
320,192,12209,1,0,0:0:0:0:
192,192,12334,1,0,0:0:0:0:
64,192,12459,1,8,0:0:0:0:
448,192,12459,1,0,0:0:0:0:
320,192,12709,1,2,0:0:0:0:
192,192,12709,1,4,0:0:0:0:
64,192,12959,1,0,0:0:0:0:
320,192,13209,1,2,0:0:0:0:
448,192,13209,1,0,0:0:0:0:
64,192,13459,1,8,0:0:0:0:
192,192,13459,1,0,0:0:0:0:
320,192,13709,1,8,0:0:0:0:
448,192,13709,1,0,0:0:0:0:
192,192,13834,1,8,0:0:0:0:
64,192,13959,1,2,0:0:0:0:
320,192,13959,1,0,0:0:0:0:
448,192,14084,1,8,0:0:0:0:
64,192,14209,1,2,0:0:0:0:
192,192,14209,1,8,0:0:0:0:
320,192,14334,1,8,0:0:0:0:
64,192,14459,1,8,0:0:0:0:
448,192,14459,1,2,0:0:0:0:
192,192,14584,1,8,0:0:0:0:
320,192,14709,1,8,0:0:0:0:
448,192,14709,1,2,0:0:0:0:
192,192,14834,1,8,0:0:0:0:
64,192,14959,1,8,0:0:0:0:
448,192,14959,1,2,0:0:0:0:
320,192,15084,1,8,0:0:0:0:
64,192,15209,1,2,0:0:0:0:
192,192,15209,1,8,0:0:0:0:
448,192,15334,1,8,0:0:0:0:
192,192,15459,1,2,0:0:0:0:
320,192,15459,1,8,0:0:0:0:
64,192,15584,1,8,0:0:0:0:
320,192,15709,1,8,0:0:0:0:
448,192,15709,1,2,0:0:0:0:
192,192,15834,1,8,0:0:0:0:
64,192,15959,1,8,0:0:0:0:
448,192,15959,128,2,16084:0:0:0:0:
320,192,16084,128,8,16209:0:0:0:0:
64,192,16209,1,2,0:0:0:0:
192,192,16209,128,8,16334:0:0:0:0:
448,192,16334,128,8,16459:0:0:0:0:
64,192,16459,128,2,16584:0:0:0:0:
320,192,16459,1,8,0:0:0:0:
192,192,16584,128,8,16709:0:0:0:0:
320,192,16709,128,2,16834:0:0:0:0:
448,192,16709,1,8,0:0:0:0:
64,192,16834,128,8,16959:0:0:0:0:
448,192,16959,1,2,0:0:0:0:
320,192,17021,1,2,0:0:0:0:
192,192,17084,1,2,0:0:0:0:
64,192,17146,1,2,0:0:0:0:
320,192,17209,1,2,0:0:0:0:
448,192,17271,1,2,0:0:0:0:
64,192,17334,1,2,0:0:0:0:
192,192,17396,1,2,0:0:0:0:
320,192,17459,1,2,0:0:0:0:
448,192,17521,1,2,0:0:0:0:
192,192,17584,1,2,0:0:0:0:
64,192,17646,1,2,0:0:0:0:
448,192,17709,1,2,0:0:0:0:
320,192,17771,1,2,0:0:0:0:
192,192,17834,1,2,0:0:0:0:
64,192,17896,1,2,0:0:0:0:
320,192,17959,1,2,0:0:0:0:
448,192,17959,1,0,0:0:0:0:
192,192,18209,1,0,0:0:0:0:
64,192,18459,1,0,0:0:0:0:
448,192,18709,1,0,0:0:0:0:
192,192,18834,1,0,0:0:0:0:
192,192,18959,1,0,0:0:0:0:
320,192,19084,1,0,0:0:0:0:
320,192,19209,1,0,0:0:0:0:
64,192,19334,1,0,0:0:0:0:
64,192,19459,1,0,0:0:0:0:
448,192,19584,1,0,0:0:0:0:
192,192,19709,1,8,0:0:0:0:
448,192,19709,1,0,0:0:0:0:
64,192,19959,1,2,0:0:0:0:
448,192,19959,1,4,0:0:0:0:
192,192,20209,1,2,0:0:0:0:
320,192,20209,1,0,0:0:0:0:
64,192,20459,1,2,0:0:0:0:
448,192,20459,1,0,0:0:0:0:
320,192,20709,1,2,0:0:0:0:
448,192,20709,1,0,0:0:0:0:
64,192,20834,1,0,0:0:0:0:
192,192,20959,1,2,0:0:0:0:
320,192,20959,1,0,0:0:0:0:
448,192,21084,1,0,0:0:0:0:
64,192,21209,1,2,0:0:0:0:
192,192,21209,1,0,0:0:0:0:
320,192,21334,1,0,0:0:0:0:
192,192,21459,1,2,0:0:0:0:
448,192,21459,1,0,0:0:0:0:
64,192,21709,1,2,0:0:0:0:
320,192,21709,1,0,0:0:0:0:
64,192,21959,1,2,0:0:0:0:
448,192,21959,1,0,0:0:0:0:
64,192,22209,1,2,0:0:0:0:
448,192,22209,1,0,0:0:0:0:
64,192,22459,1,2,0:0:0:0:
448,192,22459,1,0,0:0:0:0:
320,192,22709,1,2,0:0:0:0:
448,192,22709,1,0,0:0:0:0:
192,192,22834,1,0,0:0:0:0:
64,192,22959,1,2,0:0:0:0:
320,192,22959,1,0,0:0:0:0:
448,192,23084,1,0,0:0:0:0:
64,192,23209,1,2,0:0:0:0:
192,192,23271,1,2,0:0:0:0:
320,192,23334,1,2,0:0:0:0:
64,192,23459,1,0,0:0:0:0:
64,192,23709,1,0,0:0:0:0:
192,192,23959,1,2,0:0:0:0:
448,192,23959,1,4,0:0:0:0:
64,192,24209,1,2,0:0:0:0:
320,192,24209,1,0,0:0:0:0:
192,192,24459,1,2,0:0:0:0:
448,192,24459,1,0,0:0:0:0:
64,192,24709,1,2,0:0:0:0:
448,192,24709,1,0,0:0:0:0:
320,192,24834,1,0,0:0:0:0:
64,192,24959,1,2,0:0:0:0:
192,192,24959,1,0,0:0:0:0:
448,192,25084,1,0,0:0:0:0:
192,192,25209,1,2,0:0:0:0:
320,192,25209,1,0,0:0:0:0:
64,192,25334,1,0,0:0:0:0:
320,192,25459,1,2,0:0:0:0:
448,192,25459,1,0,0:0:0:0:
64,192,25709,1,2,0:0:0:0:
320,192,25709,1,0,0:0:0:0:
320,192,25834,1,2,0:0:0:0:
64,192,25959,1,2,0:0:0:0:
448,192,25959,1,0,0:0:0:75:Crash 2.wav
192,192,26209,1,2,0:0:0:0:
448,192,26209,1,0,0:0:0:75:Crash 2.wav
64,192,26459,1,8,0:0:0:0:
448,192,26459,1,0,0:0:0:75:Crash 2.wav
320,192,26709,1,2,0:0:0:0:
448,192,26709,1,0,0:0:0:75:Crash 2.wav
192,192,26834,1,0,0:0:0:0:
64,192,26959,1,0,0:0:0:70:SnareClap.wav
448,192,26959,1,0,0:0:0:0:
320,192,27021,1,0,0:0:0:70:SnareClap.wav
192,192,27084,1,0,0:0:0:70:SnareClap.wav
64,192,27146,1,0,0:0:0:70:SnareClap.wav
320,192,27209,1,0,0:0:0:70:SnareClap.wav
192,192,27334,1,0,0:0:0:60:SnareClap.wav
320,192,27396,1,0,0:0:0:50:SnareClap.wav
64,192,27459,1,0,0:0:0:45:SnareClap.wav
448,192,27459,128,0,27709:0:0:0:0:
192,192,27709,128,0,27959:0:0:0:30:SnareClap.wav
320,192,27959,1,2,0:0:0:0:
320,192,28084,1,2,0:0:0:0:
64,192,28209,1,6,0:0:0:0:
448,192,28209,1,8,0:0:0:0:
192,192,28334,1,0,0:0:0:0:
448,192,28459,1,2,0:0:0:0:
320,192,28584,1,0,0:0:0:0:
64,192,28709,1,2,0:0:0:0:
192,192,28709,1,8,0:0:0:0:
320,192,28834,1,0,0:0:0:0:
448,192,28959,1,2,0:0:0:0:
64,192,29084,1,0,0:0:0:0:
320,192,29209,1,2,0:0:0:0:
448,192,29209,1,8,0:0:0:0:
192,192,29334,1,0,0:0:0:0:
64,192,29459,1,2,0:0:0:0:
320,192,29584,1,0,0:0:0:0:
64,192,29709,1,2,0:0:0:0:
192,192,29709,1,8,0:0:0:0:
448,192,29834,1,0,0:0:0:0:
192,192,29959,1,2,0:0:0:0:
64,192,30084,1,0,0:0:0:0:
320,192,30209,1,2,0:0:0:0:
448,192,30209,1,8,0:0:0:0:
192,192,30334,1,0,0:0:0:0:
320,192,30459,1,2,0:0:0:0:
448,192,30584,1,0,0:0:0:0:
64,192,30709,1,2,0:0:0:0:
192,192,30709,128,8,30959:0:0:0:0:
320,192,30834,1,0,0:0:0:0:
64,192,30959,1,2,0:0:0:0:
448,192,30959,1,0,0:0:0:75:Crash 2.wav
320,192,31209,1,2,0:0:0:0:
448,192,31209,1,0,0:0:0:75:Crash 2.wav
64,192,31334,1,2,0:0:0:0:
192,192,31334,1,0,0:0:0:75:Crash 2.wav
64,192,31584,1,2,0:0:0:0:
448,192,31584,1,0,0:0:0:75:Crash 2.wav
192,192,31709,1,2,0:0:0:0:
320,192,31834,1,2,0:0:0:0:
192,192,31896,1,2,0:0:0:0:
64,192,31959,1,2,0:0:0:0:
448,192,31959,1,4,0:0:0:0:
320,192,32084,1,0,0:0:0:0:
64,192,32209,1,2,0:0:0:0:
192,192,32209,1,8,0:0:0:0:
320,192,32334,1,0,0:0:0:0:
448,192,32459,1,2,0:0:0:0:
192,192,32584,1,0,0:0:0:0:
320,192,32709,1,2,0:0:0:0:
448,192,32709,1,8,0:0:0:0:
64,192,32834,1,0,0:0:0:0:
192,192,32959,1,6,0:0:0:0:
320,192,33084,1,0,0:0:0:0:
64,192,33209,1,2,0:0:0:0:
192,192,33209,1,8,0:0:0:0:
448,192,33334,1,0,0:0:0:0:
320,192,33459,1,2,0:0:0:0:
192,192,33584,1,2,0:0:0:0:
320,192,33646,1,2,0:0:0:0:
64,192,33709,1,2,0:0:0:0:
448,192,33709,1,8,0:0:0:0:
192,192,33834,1,2,0:0:0:0:
320,192,33959,1,2,0:0:0:0:
448,192,33959,1,4,0:0:0:0:
320,192,34084,1,0,0:0:0:0:
64,192,34209,1,2,0:0:0:0:
192,192,34209,1,8,0:0:0:0:
192,192,34334,1,0,0:0:0:0:
320,192,34459,1,2,0:0:0:0:
448,192,34459,1,0,0:0:0:0:
192,192,34584,1,2,0:0:0:0:
64,192,34709,1,2,0:0:0:0:
448,192,34709,1,0,0:0:0:0:
320,192,34771,1,2,0:0:0:0:
192,192,34834,1,2,0:0:0:0:
64,192,34896,1,2,0:0:0:0:
320,192,34959,1,0,0:0:0:0:
64,192,35209,1,0,0:0:0:0:
448,192,35209,1,0,0:0:0:0:
320,192,35334,1,0,0:0:0:0:
192,192,35459,1,0,0:0:0:0:
320,192,35584,1,0,0:0:0:0:
64,192,35709,1,0,0:0:0:0:
448,192,35709,128,0,35959:0:0:0:0:
64,192,35959,1,0,0:0:0:85:Tom1.wav
320,192,36084,1,0,0:0:0:85:Tom2.wav
192,192,36209,1,0,0:0:0:85:Tom2.wav
448,192,36334,1,0,0:0:0:85:Tom2.wav
64,192,36459,1,0,0:0:0:85:Tom3.wav
448,192,36584,1,0,0:0:0:85:Tom3.wav
192,192,36709,1,0,0:0:0:85:Tom4.wav
320,192,36834,1,0,0:0:0:85:Tom4.wav
64,192,36959,1,2,0:0:0:0:
448,192,36959,1,4,0:0:0:0:
64,192,37334,1,2,0:0:0:0:
192,192,37334,1,0,0:0:0:0:
320,192,37459,1,0,0:0:0:80:Snare.wav
448,192,37459,1,0,0:0:0:0:
64,192,37709,1,2,0:0:0:0:
448,192,37709,1,0,0:0:0:0:
192,192,38084,1,2,0:0:0:0:
320,192,38084,1,0,0:0:0:0:
192,192,38209,1,2,0:0:0:0:
320,192,38209,1,0,0:0:0:0:
192,192,38459,1,0,0:0:0:80:Snare.wav
448,192,38459,1,0,0:0:0:0:
64,192,38709,1,2,0:0:0:0:
320,192,38709,1,0,0:0:0:0:
448,192,38959,1,0,0:0:0:0:
64,192,39209,1,2,0:0:0:0:
192,192,39209,1,0,0:0:0:0:
64,192,39334,1,2,0:0:0:0:
192,192,39334,1,0,0:0:0:0:
320,192,39459,1,0,0:0:0:80:Snare.wav
448,192,39459,1,0,0:0:0:0:
64,192,39709,1,2,0:0:0:0:
192,192,39709,1,0,0:0:0:0:
64,192,39959,1,2,0:0:0:0:
448,192,39959,1,0,0:0:0:0:
64,192,40334,1,2,0:0:0:0:
448,192,40334,1,0,0:0:0:0:
192,192,40459,1,0,0:0:0:80:Snare.wav
320,192,40459,1,0,0:0:0:0:
192,192,40709,1,2,0:0:0:0:
448,192,40709,1,0,0:0:0:0:
64,192,40834,1,0,0:0:0:80:Snare.wav
320,192,40834,1,0,0:0:0:0:
64,192,40959,1,2,0:0:0:0:
448,192,40959,1,0,0:0:0:0:
320,192,41334,1,2,0:0:0:0:
448,192,41334,1,0,0:0:0:0:
64,192,41459,1,0,0:0:0:80:Snare.wav
192,192,41459,1,0,0:0:0:0:
64,192,41709,1,2,0:0:0:0:
448,192,41709,1,0,0:0:0:0:
192,192,42084,1,2,0:0:0:0:
320,192,42084,1,0,0:0:0:0:
192,192,42209,1,2,0:0:0:0:
320,192,42209,1,0,0:0:0:0:
64,192,42459,1,0,0:0:0:80:Snare.wav
448,192,42459,1,0,0:0:0:0:
192,192,42709,1,2,0:0:0:0:
320,192,42709,1,0,0:0:0:0:
320,192,42959,1,2,0:0:0:0:
448,192,42959,1,0,0:0:0:85:Tom1.wav
448,192,43084,1,0,0:0:0:85:Tom1.wav
64,192,43334,1,0,0:0:0:85:Tom2.wav
192,192,43334,1,0,0:0:0:0:
64,192,43459,1,0,0:0:0:85:Tom2.wav
320,192,43709,1,0,0:0:0:85:Tom2.wav
448,192,43709,1,0,0:0:0:0:
448,192,43834,1,0,0:0:0:85:Tom2.wav
64,192,43959,1,0,0:0:0:85:Tom3.wav
192,192,43959,1,0,0:0:0:0:
320,192,44021,1,0,0:0:0:85:Tom3.wav
192,192,44084,1,0,0:0:0:85:Tom3.wav
320,192,44209,1,0,0:0:0:85:Tom3.wav
448,192,44209,1,0,0:0:0:0:
320,192,44334,1,0,0:0:0:85:Tom3.wav
64,192,44459,1,0,0:0:0:85:Tom3.wav
448,192,44459,1,0,0:0:0:0:
64,192,44584,1,0,0:0:0:85:Tom3.wav
192,192,44646,1,0,0:0:0:85:Tom4.wav
320,192,44709,1,0,0:0:0:85:Tom4.wav
448,192,44709,1,0,0:0:0:0:
448,192,44834,1,0,0:0:0:85:Tom4.wav
64,192,44959,128,2,45459:0:0:0:0:
192,192,44959,128,4,45459:0:0:0:0:
320,192,45459,128,8,45834:0:0:0:0:
448,192,45459,128,0,45834:0:0:0:0:
64,192,45834,1,2,0:0:0:0:
192,192,45834,1,0,0:0:0:0:
64,192,46209,1,2,0:0:0:0:
192,192,46209,1,0,0:0:0:0:
320,192,46459,128,8,46584:0:0:0:0:
448,192,46459,1,0,0:0:0:0:
64,192,46584,128,0,46709:0:0:0:0:
320,192,46709,1,0,0:0:0:0:
320,192,46959,128,2,47459:0:0:0:0:
448,192,46959,128,0,47459:0:0:0:0:
64,192,47459,128,8,47834:0:0:0:0:
192,192,47459,128,0,47834:0:0:0:0:
320,192,47834,1,2,0:0:0:0:
448,192,47834,1,0,0:0:0:0:
320,192,48209,1,2,0:0:0:0:
448,192,48209,1,0,0:0:0:0:
64,192,48459,1,8,0:0:0:0:
192,192,48459,128,0,48709:0:0:0:0:
320,192,48709,128,0,48959:0:0:0:0:
64,192,48959,1,2,0:0:0:0:
192,192,48959,1,0,0:0:0:0:
64,192,49125,1,2,0:0:0:0:
192,192,49125,1,0,0:0:0:0:
320,192,49292,1,2,0:0:0:0:
448,192,49292,1,0,0:0:0:0:
320,192,49459,1,2,0:0:0:0:
448,192,49459,1,0,0:0:0:0:
64,192,49625,1,2,0:0:0:0:
192,192,49625,1,0,0:0:0:0:
64,192,49792,1,2,0:0:0:0:
192,192,49792,1,0,0:0:0:0:
320,192,49959,1,2,0:0:0:0:
448,192,49959,1,0,0:0:0:0:
448,192,50084,1,2,0:0:0:0:
64,192,50209,1,2,0:0:0:0:
192,192,50209,1,0,0:0:0:0:
64,192,50334,1,2,0:0:0:0:
448,192,50459,1,2,0:0:0:0:
320,192,50521,1,2,0:0:0:0:
64,192,50584,1,2,0:0:0:0:
192,192,50646,1,2,0:0:0:0:
320,192,50709,1,2,0:0:0:0:
448,192,50771,1,2,0:0:0:0:
192,192,50834,1,2,0:0:0:0:
64,192,50896,1,2,0:0:0:0:
320,192,50959,1,6,0:0:0:0:
64,192,51084,1,8,0:0:0:0:
192,192,51084,1,0,0:0:0:0:
448,192,51209,1,2,0:0:0:0:
320,192,51271,1,2,0:0:0:0:
192,192,51334,1,2,0:0:0:0:
320,192,51459,1,8,0:0:0:0:
448,192,51459,1,0,0:0:0:0:
320,192,51584,1,2,0:0:0:0:
64,192,51709,1,8,0:0:0:0:
192,192,51709,1,0,0:0:0:0:
192,192,51834,1,2,0:0:0:0:
320,192,51959,128,0,52959:0:0:0:50:Drop.wav
64,192,52959,1,0,0:0:0:65:Boom.wav
448,192,52959,1,0,0:0:0:0:
192,192,53209,1,0,0:0:0:0:
320,192,53459,1,0,0:0:0:0:
192,192,53584,1,0,0:0:0:0:
64,192,53709,1,0,0:0:0:0:
448,192,54209,1,0,0:0:0:0:
192,192,54459,1,0,0:0:0:0:
320,192,54709,1,0,0:0:0:0:
64,192,54959,1,0,0:0:0:0:
448,192,54959,1,0,0:0:0:0:
192,192,55209,1,0,0:0:0:0:
320,192,55459,1,0,0:0:0:0:
192,192,55709,1,0,0:0:0:0:
64,192,55959,128,0,56959:0:0:0:0:
320,192,56959,1,0,0:0:0:0:
448,192,56959,1,0,0:0:0:0:
192,192,57209,1,0,0:0:0:0:
320,192,57459,1,0,0:0:0:0:
448,192,57709,1,0,0:0:0:0:
192,192,57959,1,0,0:0:0:0:
64,192,58209,1,0,0:0:0:0:
320,192,58459,1,0,0:0:0:0:
192,192,58709,1,0,0:0:0:0:
64,192,58959,1,0,0:0:0:0:
448,192,58959,1,0,0:0:0:0:
320,192,59209,1,0,0:0:0:0:
192,192,59459,1,0,0:0:0:0:
320,192,59709,1,0,0:0:0:0:
448,192,59959,128,0,60959:0:0:0:0:
64,192,60959,1,2,0:0:0:0:
320,192,60959,1,4,0:0:0:0:
64,192,61209,1,0,0:0:0:0:
192,192,61334,1,0,0:0:0:0:
320,192,61459,1,2,0:0:0:0:
64,192,61709,1,0,0:0:0:0:
320,192,61959,1,2,0:0:0:0:
448,192,61959,1,0,0:0:0:0:
192,192,62084,1,0,0:0:0:0:
448,192,62209,1,0,0:0:0:0:
192,192,62459,1,2,0:0:0:0:
320,192,62584,1,0,0:0:0:0:
448,192,62709,1,0,0:0:0:0:
64,192,62959,1,2,0:0:0:0:
192,192,62959,1,0,0:0:0:0:
320,192,63209,1,0,0:0:0:0:
192,192,63334,1,0,0:0:0:0:
448,192,63459,1,2,0:0:0:0:
64,192,63709,1,0,0:0:0:0:
320,192,63959,1,2,0:0:0:0:
448,192,63959,1,0,0:0:0:0:
192,192,64084,1,0,0:0:0:0:
320,192,64209,1,0,0:0:0:0:
448,192,64459,1,2,0:0:0:0:
192,192,64584,1,0,0:0:0:0:
64,192,64709,1,0,0:0:0:0:
192,192,64959,1,2,0:0:0:0:
448,192,64959,1,0,0:0:0:0:
448,192,65209,1,0,0:0:0:0:
320,192,65334,1,0,0:0:0:0:
192,192,65459,1,2,0:0:0:0:
448,192,65709,1,0,0:0:0:0:
64,192,65959,1,2,0:0:0:0:
192,192,65959,1,0,0:0:0:0:
320,192,66084,1,0,0:0:0:0:
64,192,66209,1,0,0:0:0:0:
320,192,66459,1,2,0:0:0:0:
192,192,66709,1,0,0:0:0:0:
320,192,66959,1,2,0:0:0:0:
448,192,66959,128,4,67209:0:0:0:0:
64,192,67209,128,0,67459:0:0:0:0:
192,192,67459,128,0,67709:0:0:0:0:
320,192,67709,128,0,67959:0:0:0:0:
64,192,67959,1,8,0:0:0:0:
192,192,67959,1,0,0:0:0:0:
320,192,68084,1,2,0:0:0:0:
320,192,68209,1,2,0:0:0:0:
64,192,68334,1,8,0:0:0:0:
192,192,68334,1,0,0:0:0:0:
448,192,68584,1,2,0:0:0:0:
64,192,68709,1,8,0:0:0:0:
320,192,68709,1,0,0:0:0:0:
320,192,68959,1,0,0:0:0:65:Boom.wav
448,192,68959,1,0,0:0:0:0:
64,192,69209,1,0,0:0:0:0:
192,192,69334,1,0,0:0:0:0:
320,192,69459,1,0,0:0:0:0:
448,192,69459,1,0,0:0:0:0:
64,192,69709,1,0,0:0:0:0:
192,192,69834,1,0,0:0:0:0:
320,192,69959,1,0,0:0:0:0:
448,192,69959,1,0,0:0:0:0:
448,192,70209,1,0,0:0:0:0:
320,192,70334,1,0,0:0:0:0:
64,192,70459,1,0,0:0:0:0:
192,192,70459,1,0,0:0:0:0:
448,192,70584,128,0,70959:0:0:0:0:
64,192,70959,1,0,0:0:0:65:Boom.wav
320,192,70959,1,0,0:0:0:0:
192,192,71209,1,0,0:0:0:0:
320,192,71334,1,0,0:0:0:0:
64,192,71459,1,0,0:0:0:0:
448,192,71459,1,0,0:0:0:0:
192,192,71584,1,0,0:0:0:0:
320,192,71834,1,0,0:0:0:0:
64,192,71959,1,0,0:0:0:0:
448,192,71959,128,0,72459:0:0:0:0:
64,192,72459,1,0,0:0:0:0:
320,192,72584,1,0,0:0:0:0:
192,192,72709,1,0,0:0:0:0:
448,192,72834,1,0,0:0:0:0:
64,192,72959,1,0,0:0:0:65:Boom.wav
192,192,72959,1,0,0:0:0:0:
448,192,73209,1,0,0:0:0:0:
320,192,73334,1,0,0:0:0:0:
64,192,73459,1,0,0:0:0:0:
192,192,73459,1,0,0:0:0:0:
448,192,73709,1,0,0:0:0:0:
320,192,73834,1,0,0:0:0:0:
64,192,73959,1,2,0:0:0:0:
192,192,73959,1,4,0:0:0:0:
64,192,74209,1,0,0:0:0:0:
192,192,74334,1,0,0:0:0:0:
320,192,74459,1,0,0:0:0:0:
448,192,74459,1,0,0:0:0:0:
192,192,74584,1,0,0:0:0:0:
448,192,74709,1,0,0:0:0:0:
320,192,74834,1,0,0:0:0:0:
64,192,74959,1,2,0:0:0:0:
192,192,74959,1,4,0:0:0:0:
64,192,75209,1,0,0:0:0:0:
320,192,75459,1,2,0:0:0:0:
448,192,75459,1,4,0:0:0:0:
448,192,75709,1,0,0:0:0:0:
64,192,75959,1,2,0:0:0:0:
192,192,75959,1,4,0:0:0:0:
320,192,76084,1,0,0:0:0:0:
192,192,76334,1,0,0:0:0:0:
320,192,76459,1,2,0:0:0:0:
448,192,76459,1,0,0:0:0:0:
192,192,76709,1,2,0:0:0:0:
320,192,76709,1,0,0:0:0:0:
64,192,76959,1,2,0:0:0:0:
192,192,76959,1,4,0:0:0:0:
64,192,77209,1,8,0:0:0:0:
192,192,77209,1,0,0:0:0:0:
64,192,77459,1,8,0:0:0:0:
192,192,77459,1,0,0:0:0:0:
64,192,77709,1,8,0:0:0:0:
192,192,77709,1,0,0:0:0:0:
320,192,77896,1,8,0:0:0:0:
64,192,77959,1,8,0:0:0:0:
192,192,77959,1,0,0:0:0:0:
448,192,78084,1,8,0:0:0:0:
320,192,78209,128,8,78459:0:0:0:0:
192,192,78209,1,0,0:0:0:0:
64,192,78584,1,0,0:0:0:0:
448,192,78709,1,0,0:0:0:0:
192,192,78834,1,0,0:0:0:0:
320,192,78959,1,10,0:0:0:0:
448,192,78959,1,4,0:0:0:0:
320,192,79209,1,8,0:0:0:0:
448,192,79209,1,0,0:0:0:0:
320,192,79459,1,8,0:0:0:0:
448,192,79459,1,0,0:0:0:0:
64,192,79584,1,8,0:0:0:0:
320,192,79709,1,8,0:0:0:0:
448,192,79709,1,0,0:0:0:0:
192,192,79834,1,8,0:0:0:0:
64,192,79959,1,2,0:0:0:0:
64,192,80084,1,2,0:0:0:0:
320,192,80209,1,8,0:0:0:0:
448,192,80209,1,0,0:0:0:0:
192,192,80334,1,2,0:0:0:0:
320,192,80459,1,0,0:0:0:70:SnareClap.wav
448,192,80521,1,0,0:0:0:70:SnareClap.wav
64,192,80584,1,0,0:0:0:70:SnareClap.wav
192,192,80646,1,0,0:0:0:70:SnareClap.wav
320,192,80709,128,0,80834:0:0:0:60:SnareClap.wav
192,192,80834,128,0,80959:0:0:0:40:SnareClap.wav
64,192,80959,1,2,0:0:0:0:
448,192,80959,1,4,0:0:0:0:
320,192,81084,1,2,0:0:0:0:
192,192,81209,1,8,0:0:0:0:
448,192,81334,1,2,0:0:0:0:
64,192,81459,1,8,0:0:0:0:
320,192,81459,1,0,0:0:0:0:
192,192,81584,1,2,0:0:0:0:
320,192,81709,1,2,0:0:0:0:
448,192,81834,1,2,0:0:0:0:
64,192,81959,1,8,0:0:0:0:
192,192,81959,1,2,0:0:0:0:
320,192,82084,1,2,0:0:0:0:
192,192,82209,1,8,0:0:0:0:
448,192,82334,1,2,0:0:0:0:
64,192,82459,1,8,0:0:0:0:
320,192,82459,1,0,0:0:0:0:
192,192,82584,1,2,0:0:0:0:
320,192,82709,1,2,0:0:0:0:
192,192,82834,1,2,0:0:0:0:
64,192,82959,1,2,0:0:0:0:
448,192,82959,1,0,0:0:0:0:
320,192,83042,1,2,0:0:0:0:
192,192,83125,1,2,0:0:0:0:
64,192,83209,1,2,0:0:0:0:
448,192,83292,1,2,0:0:0:0:
320,192,83375,1,2,0:0:0:0:
192,192,83459,1,2,0:0:0:0:
448,192,83542,1,2,0:0:0:0:
64,192,83625,1,2,0:0:0:0:
192,192,83709,1,2,0:0:0:0:
320,192,83792,1,2,0:0:0:0:
192,192,83875,1,2,0:0:0:0:
448,192,83959,1,2,0:0:0:0:
64,192,84021,1,2,0:0:0:0:
192,192,84084,1,2,0:0:0:0:
320,192,84146,1,2,0:0:0:0:
448,192,84209,1,2,0:0:0:0:
64,192,84271,1,2,0:0:0:0:
192,192,84334,1,2,0:0:0:0:
448,192,84396,1,2,0:0:0:0:
320,192,84459,1,2,0:0:0:0:
192,192,84521,1,2,0:0:0:0:
64,192,84584,1,2,0:0:0:0:
448,192,84646,1,2,0:0:0:0:
320,192,84709,1,2,0:0:0:0:
64,192,84771,1,2,0:0:0:0:
192,192,84834,1,2,0:0:0:0:
320,192,84896,1,2,0:0:0:0:
64,192,84959,1,2,0:0:0:0:
448,192,84959,1,0,0:0:0:0:
320,192,85209,1,0,0:0:0:0:
192,192,85459,1,0,0:0:0:0:
64,192,85709,1,0,0:0:0:0:
320,192,85834,1,0,0:0:0:0:
192,192,85896,1,0,0:0:0:0:
64,192,85959,1,2,0:0:0:0:
448,192,85959,128,4,86334:0:0:0:0:
64,192,86334,1,2,0:0:0:0:
192,192,86334,1,0,0:0:0:0:
320,192,86459,1,2,0:0:0:0:
448,192,86459,1,0,0:0:0:0:
64,192,86709,1,8,0:0:0:0:
320,192,86709,1,0,0:0:0:0:
64,192,86959,128,2,87209:0:0:0:0:
448,192,86959,1,4,0:0:0:0:
320,192,87209,1,2,0:0:0:0:
448,192,87209,1,8,0:0:0:0:
192,192,87334,1,0,0:0:0:0:
64,192,87459,128,2,87709:0:0:0:0:
320,192,87709,1,2,0:0:0:0:
448,192,87709,1,8,0:0:0:0:
192,192,87834,1,0,0:0:0:0:
64,192,87959,128,2,88209:0:0:0:0:
320,192,88209,1,2,0:0:0:0:
448,192,88209,1,8,0:0:0:0:
192,192,88334,1,0,0:0:0:0:
320,192,88459,1,2,0:0:0:0:
448,192,88584,1,0,0:0:0:0:
64,192,88709,1,2,0:0:0:0:
192,192,88709,1,8,0:0:0:0:
64,192,88834,1,2,0:0:0:0:
320,192,88959,128,2,89209:0:0:0:0:
448,192,88959,1,4,0:0:0:0:
64,192,89209,1,2,0:0:0:0:
192,192,89209,1,8,0:0:0:0:
448,192,89334,1,0,0:0:0:0:
64,192,89459,1,2,0:0:0:0:
320,192,89459,1,4,0:0:0:0:
192,192,89584,1,2,0:0:0:0:
448,192,89584,1,0,0:0:0:75:Crash 2.wav
64,192,89834,128,2,90084:0:0:0:0:
320,192,89834,1,4,0:0:0:0:
448,192,90084,1,2,0:0:0:0:
64,192,90209,1,2,0:0:0:0:
192,192,90209,1,8,0:0:0:0:
320,192,90334,1,0,0:0:0:0:
64,192,90459,1,2,0:0:0:0:
448,192,90459,1,4,0:0:0:0:
448,192,90584,1,2,0:0:0:0:
320,192,90709,1,2,0:0:0:0:
192,192,90771,1,2,0:0:0:0:
64,192,90834,1,2,0:0:0:0:
320,192,90959,1,2,0:0:0:0:
448,192,90959,128,4,91209:0:0:0:0:
64,192,91209,1,2,0:0:0:0:
192,192,91209,1,8,0:0:0:0:
320,192,91334,1,0,0:0:0:0:
448,192,91459,128,2,91709:0:0:0:0:
64,192,91709,1,2,0:0:0:0:
192,192,91709,1,8,0:0:0:0:
320,192,91834,1,0,0:0:0:0:
448,192,91959,128,2,92209:0:0:0:0:
64,192,92209,1,2,0:0:0:0:
192,192,92209,1,8,0:0:0:0:
320,192,92334,1,0,0:0:0:0:
448,192,92459,1,2,0:0:0:0:
192,192,92521,1,2,0:0:0:0:
448,192,92584,1,2,0:0:0:0:
64,192,92709,1,2,0:0:0:0:
192,192,92709,1,8,0:0:0:0:
64,192,92834,1,2,0:0:0:0:
320,192,92959,128,2,93209:0:0:0:0:
448,192,92959,1,4,0:0:0:0:
64,192,93209,1,2,0:0:0:0:
192,192,93209,128,0,93459:0:0:0:0:
320,192,93459,1,2,0:0:0:0:
448,192,93459,128,4,93709:0:0:0:0:
64,192,93709,1,2,0:0:0:0:
192,192,93771,1,2,0:0:0:0:
320,192,93834,1,2,0:0:0:0:
64,192,93959,1,2,0:0:0:0:
192,192,93959,128,4,94209:0:0:0:0:
320,192,94209,1,2,0:0:0:0:
448,192,94209,1,0,0:0:0:0:
448,192,94334,1,2,0:0:0:0:
64,192,94459,1,2,0:0:0:0:
192,192,94459,1,0,0:0:0:0:
448,192,94584,1,0,0:0:0:0:
64,192,94709,1,2,0:0:0:0:
192,192,94709,1,0,0:0:0:0:
320,192,94834,1,0,0:0:0:0:
64,192,94959,1,2,0:0:0:0:
448,192,94959,1,4,0:0:0:0:
320,192,95209,1,2,0:0:0:0:
448,192,95209,1,0,0:0:0:0:
192,192,95334,1,2,0:0:0:0:
64,192,95459,1,2,0:0:0:0:
320,192,95459,1,0,0:0:0:0:
64,192,95709,1,2,0:0:0:0:
192,192,95709,1,0,0:0:0:0:
320,192,95834,1,2,0:0:0:0:
64,192,95959,1,2,0:0:0:0:
448,192,95959,1,0,0:0:0:0:
320,192,96209,1,2,0:0:0:0:
448,192,96209,1,0,0:0:0:0:
192,192,96334,1,2,0:0:0:0:
64,192,96459,1,2,0:0:0:0:
448,192,96459,1,0,0:0:0:0:
320,192,96584,1,2,0:0:0:0:
64,192,96709,1,2,0:0:0:0:
192,192,96709,1,0,0:0:0:0:
320,192,96834,1,2,0:0:0:0:
192,192,96896,1,2,0:0:0:0:
64,192,96959,1,2,0:0:0:0:
448,192,96959,1,4,0:0:0:0:
320,192,97084,1,2,0:0:0:0:
64,192,97209,1,2,0:0:0:0:
192,192,97209,1,0,0:0:0:0:
320,192,97334,1,2,0:0:0:0:
448,192,97334,1,0,0:0:0:0:
192,192,97584,1,2,0:0:0:0:
448,192,97584,1,0,0:0:0:0:
64,192,97834,128,2,98084:0:0:0:0:
192,192,97834,1,0,0:0:0:0:
448,192,98084,1,2,0:0:0:0:
64,192,98209,1,2,0:0:0:0:
192,192,98209,1,0,0:0:0:0:
320,192,98334,1,2,0:0:0:0:
64,192,98459,1,2,0:0:0:0:
448,192,98459,1,0,0:0:0:0:
192,192,98584,1,2,0:0:0:0:
320,192,98646,1,2,0:0:0:0:
64,192,98709,1,2,0:0:0:0:
448,192,98709,1,0,0:0:0:0:
192,192,98834,1,2,0:0:0:0:
320,192,98959,1,2,0:0:0:0:
448,192,98959,1,4,0:0:0:0:
64,192,99209,1,2,0:0:0:0:
192,192,99209,1,0,0:0:0:0:
320,192,99334,1,2,0:0:0:0:
192,192,99459,1,2,0:0:0:0:
448,192,99459,1,0,0:0:0:0:
320,192,99709,1,2,0:0:0:0:
448,192,99709,1,0,0:0:0:0:
192,192,99834,1,2,0:0:0:0:
64,192,99959,1,2,0:0:0:0:
320,192,99959,1,0,0:0:0:0:
64,192,100209,1,2,0:0:0:0:
192,192,100209,1,0,0:0:0:0:
320,192,100334,1,2,0:0:0:0:
64,192,100459,1,2,0:0:0:0:
448,192,100459,1,0,0:0:0:0:
192,192,100584,1,2,0:0:0:0:
448,192,100709,1,2,0:0:0:0:
320,192,100771,1,2,0:0:0:0:
192,192,100834,1,2,0:0:0:0:
64,192,100896,1,2,0:0:0:0:
320,192,100959,1,2,0:0:0:0:
448,192,100959,1,4,0:0:0:0:
192,192,101084,1,2,0:0:0:0:
320,192,101209,1,0,0:0:0:0:
448,192,101209,1,0,0:0:0:0:
192,192,101334,1,0,0:0:0:0:
64,192,101459,1,2,0:0:0:0:
448,192,101459,1,4,0:0:0:0:
320,192,101584,1,2,0:0:0:0:
64,192,101709,1,0,0:0:0:0:
192,192,101709,1,0,0:0:0:0:
448,192,101834,1,0,0:0:0:0:
320,192,101896,1,0,0:0:0:0:
64,192,101959,128,2,102459:0:0:0:0:
192,192,101959,1,4,0:0:0:0:
192,192,102334,128,0,102459:0:0:0:0:
320,192,102459,128,8,102959:0:0:0:0:
64,192,102959,1,2,0:0:0:0:
448,192,102959,1,4,0:0:0:0:
320,192,103459,1,0,0:0:0:0:
320,192,103709,1,0,0:0:0:0:
192,192,103959,1,8,0:0:0:0:
448,192,103959,1,0,0:0:0:0:
64,192,104209,1,0,0:0:0:0:
192,192,104334,1,0,0:0:0:0:
320,192,104459,1,0,0:0:0:0:
192,192,104709,1,0,0:0:0:0:
64,192,104959,1,2,0:0:0:0:
448,192,104959,1,0,0:0:0:0:
320,192,105209,1,0,0:0:0:0:
192,192,105459,1,0,0:0:0:0:
64,192,105709,1,0,0:0:0:0:
320,192,105959,1,8,0:0:0:0:
448,192,105959,1,0,0:0:0:0:
192,192,106209,1,0,0:0:0:0:
320,192,106334,1,0,0:0:0:0:
64,192,106459,1,0,0:0:0:0:
64,192,106709,1,0,0:0:0:0:
320,192,106959,1,2,0:0:0:0:
448,192,106959,1,0,0:0:0:0:
448,192,107334,1,0,0:0:0:0:
192,192,107459,1,0,0:0:0:0:
192,192,107709,1,0,0:0:0:0:
64,192,107959,1,8,0:0:0:0:
320,192,107959,1,0,0:0:0:0:
448,192,108209,1,0,0:0:0:0:
320,192,108334,1,0,0:0:0:0:
192,192,108459,1,0,0:0:0:0:
320,192,108709,1,0,0:0:0:0:
64,192,108959,1,2,0:0:0:0:
448,192,108959,1,0,0:0:0:0:
64,192,109209,1,0,0:0:0:0:
320,192,109459,1,2,0:0:0:0:
448,192,109459,1,0,0:0:0:0:
320,192,109709,1,0,0:0:0:0:
64,192,109959,1,8,0:0:0:0:
192,192,109959,128,0,110209:0:0:0:0:
448,192,110209,128,2,110459:0:0:0:0:
64,192,110459,1,8,0:0:0:0:
192,192,110459,1,0,0:0:0:0:
320,192,110584,1,2,0:0:0:0:
192,192,110709,1,8,0:0:0:0:
192,192,110834,1,8,0:0:0:0:
320,192,110959,1,0,0:0:0:65:Boom.wav
448,192,110959,1,0,0:0:0:0:
320,192,111209,1,8,0:0:0:0:
448,192,111209,1,0,0:0:0:0:
64,192,111334,1,0,0:0:0:0:
192,192,111459,1,8,0:0:0:0:
320,192,111459,1,0,0:0:0:0:
192,192,111709,1,8,0:0:0:0:
320,192,111709,1,0,0:0:0:0:
448,192,111834,1,0,0:0:0:0:
64,192,111959,1,8,0:0:0:0:
192,192,111959,1,0,0:0:0:0:
64,192,112209,1,8,0:0:0:0:
192,192,112209,1,0,0:0:0:0:
320,192,112334,1,0,0:0:0:0:
64,192,112459,1,8,0:0:0:0:
448,192,112459,1,0,0:0:0:0:
320,192,112709,1,8,0:0:0:0:
448,192,112709,1,0,0:0:0:0:
64,192,112834,1,8,0:0:0:0:
192,192,112959,1,2,0:0:0:0:
320,192,112959,128,4,113209:0:0:0:0:
64,192,113209,1,8,0:0:0:0:
448,192,113209,1,0,0:0:0:0:
192,192,113334,1,2,0:0:0:0:
448,192,113459,1,8,0:0:0:0:
320,192,113584,1,2,0:0:0:0:
192,192,113709,1,8,0:0:0:0:
320,192,113834,1,2,0:0:0:0:
448,192,113834,1,4,0:0:0:0:
64,192,113959,1,8,0:0:0:0:
192,192,113959,1,0,0:0:0:0:
64,192,114209,1,8,0:0:0:0:
192,192,114209,1,0,0:0:0:0:
64,192,114459,1,2,0:0:0:0:
192,192,114459,1,8,0:0:0:0:
448,192,114646,1,8,0:0:0:0:
64,192,114709,1,2,0:0:0:0:
192,192,114834,1,8,0:0:0:0:
320,192,114959,1,2,0:0:0:0:
448,192,114959,1,4,0:0:0:0:
192,192,115084,1,2,0:0:0:0:
320,192,115209,1,2,0:0:0:0:
64,192,115334,1,2,0:0:0:0:
192,192,115459,1,2,0:0:0:0:
448,192,115459,1,0,0:0:0:0:
320,192,115584,1,2,0:0:0:0:
192,192,115709,1,2,0:0:0:0:
448,192,115834,1,2,0:0:0:0:
64,192,115959,1,2,0:0:0:0:
192,192,116021,1,2,0:0:0:0:
320,192,116084,1,2,0:0:0:0:
448,192,116146,1,2,0:0:0:0:
192,192,116209,1,2,0:0:0:0:
64,192,116271,1,2,0:0:0:0:
448,192,116334,1,2,0:0:0:0:
320,192,116396,1,2,0:0:0:0:
192,192,116459,1,2,0:0:0:0:
64,192,116521,1,2,0:0:0:0:
320,192,116584,1,2,0:0:0:0:
448,192,116646,1,2,0:0:0:0:
64,192,116709,1,2,0:0:0:0:
192,192,116771,1,2,0:0:0:0:
320,192,116834,1,2,0:0:0:0:
448,192,116896,1,2,0:0:0:0:
64,192,116959,1,2,0:0:0:0:
192,192,116959,1,0,0:0:0:75:Crash 2.wav
320,192,117209,1,0,0:0:0:0:
192,192,117459,1,0,0:0:0:0:
448,192,117709,1,0,0:0:0:0:
64,192,117834,1,0,0:0:0:0:
192,192,117896,1,0,0:0:0:0:
320,192,117959,1,2,0:0:0:0:
448,192,117959,1,0,0:0:0:0:
64,192,118146,1,2,0:0:0:0:
192,192,118146,1,0,0:0:0:0:
320,192,118334,1,2,0:0:0:0:
448,192,118334,1,0,0:0:0:0:
64,192,118459,1,2,0:0:0:0:
192,192,118521,1,2,0:0:0:0:
448,192,118584,1,2,0:0:0:0:
320,192,118646,1,2,0:0:0:0:
64,192,118709,1,8,0:0:0:0:
192,192,118709,1,0,0:0:0:0:
320,192,118959,1,2,0:0:0:0:
448,192,118959,128,4,119209:0:0:0:0:
64,192,119209,1,2,0:0:0:0:
192,192,119209,1,8,0:0:0:0:
320,192,119334,1,0,0:0:0:0:
448,192,119459,128,2,119709:0:0:0:0:
64,192,119709,1,2,0:0:0:0:
192,192,119709,1,8,0:0:0:0:
320,192,119834,1,0,0:0:0:0:
448,192,119959,128,2,120209:0:0:0:0:
64,192,120209,1,2,0:0:0:0:
192,192,120209,1,8,0:0:0:0:
320,192,120334,1,0,0:0:0:0:
192,192,120459,1,2,0:0:0:0:
64,192,120584,1,0,0:0:0:0:
320,192,120709,1,2,0:0:0:0:
448,192,120709,1,8,0:0:0:0:
320,192,120834,1,2,0:0:0:0:
64,192,120959,1,2,0:0:0:0:
192,192,120959,128,4,121209:0:0:0:0:
320,192,121209,1,2,0:0:0:0:
448,192,121209,1,8,0:0:0:0:
64,192,121334,1,0,0:0:0:0:
192,192,121459,1,2,0:0:0:0:
448,192,121459,1,0,0:0:0:0:
64,192,121584,1,2,0:0:0:0:
320,192,121584,1,0,0:0:0:75:Crash 2.wav
192,192,121834,1,2,0:0:0:0:
448,192,121834,128,4,122084:0:0:0:0:
64,192,122084,1,2,0:0:0:0:
320,192,122209,1,2,0:0:0:0:
448,192,122209,1,8,0:0:0:0:
192,192,122334,1,0,0:0:0:0:
64,192,122459,1,2,0:0:0:0:
448,192,122459,1,4,0:0:0:0:
64,192,122584,1,2,0:0:0:0:
192,192,122709,1,2,0:0:0:0:
320,192,122771,1,2,0:0:0:0:
448,192,122834,1,2,0:0:0:0:
64,192,122959,128,2,123209:0:0:0:0:
192,192,122959,1,4,0:0:0:0:
320,192,123209,1,2,0:0:0:0:
448,192,123209,1,8,0:0:0:0:
192,192,123334,1,0,0:0:0:0:
64,192,123459,128,2,123709:0:0:0:0:
320,192,123709,1,2,0:0:0:0:
448,192,123709,1,8,0:0:0:0:
192,192,123834,1,0,0:0:0:0:
64,192,123959,128,2,124209:0:0:0:0:
320,192,124209,1,2,0:0:0:0:
448,192,124209,1,8,0:0:0:0:
192,192,124334,1,0,0:0:0:0:
64,192,124459,1,2,0:0:0:0:
320,192,124521,1,2,0:0:0:0:
64,192,124584,1,2,0:0:0:0:
320,192,124709,1,2,0:0:0:0:
448,192,124709,1,8,0:0:0:0:
448,192,124834,1,2,0:0:0:0:
64,192,124959,1,2,0:0:0:0:
192,192,124959,128,4,125209:0:0:0:0:
320,192,125209,128,2,125459:0:0:0:0:
448,192,125209,1,4,0:0:0:0:
64,192,125459,1,2,0:0:0:0:
448,192,125459,1,4,0:0:0:0:
192,192,125584,1,2,0:0:0:0:
320,192,125646,1,2,0:0:0:0:
64,192,125709,1,2,0:0:0:0:
448,192,125709,1,0,0:0:0:0:
320,192,125834,1,2,0:0:0:0:
448,192,125896,1,2,0:0:0:0:
192,192,125959,1,6,0:0:0:0:
64,192,126021,1,2,0:0:0:0:
448,192,126084,1,2,0:0:0:0:
320,192,126146,1,2,0:0:0:0:
64,192,126209,1,2,0:0:0:0:
192,192,126209,1,0,0:0:0:0:
320,192,126334,1,2,0:0:0:0:
192,192,126396,1,2,0:0:0:0:
64,192,126459,1,2,0:0:0:0:
448,192,126459,1,0,0:0:0:0:
64,192,126584,1,0,0:0:0:0:
320,192,126709,1,2,0:0:0:0:
448,192,126709,1,0,0:0:0:0:
320,192,126834,1,0,0:0:0:0:
64,192,126959,1,2,0:0:0:0:
448,192,126959,128,4,127209:0:0:0:0:
64,192,127209,1,2,0:0:0:0:
320,192,127271,1,0,0:0:0:0:
192,192,127334,1,2,0:0:0:0:
64,192,127396,1,2,0:0:0:0:
320,192,127459,1,2,0:0:0:0:
448,192,127459,128,0,127709:0:0:0:0:
64,192,127709,1,2,0:0:0:0:
320,192,127771,1,0,0:0:0:0:
192,192,127834,1,2,0:0:0:0:
64,192,127896,1,2,0:0:0:0:
320,192,127959,1,2,0:0:0:0:
448,192,127959,128,0,128209:0:0:0:0:
192,192,128209,1,2,0:0:0:0:
320,192,128271,1,2,0:0:0:0:
64,192,128334,1,2,0:0:0:0:
192,192,128396,1,2,0:0:0:0:
320,192,128459,1,2,0:0:0:0:
448,192,128459,1,0,0:0:0:0:
64,192,128584,1,6,0:0:0:0:
448,192,128709,1,2,0:0:0:0:
320,192,128771,1,2,0:0:0:0:
192,192,128834,1,2,0:0:0:0:
64,192,128896,1,2,0:0:0:0:
320,192,128959,1,6,0:0:0:0:
448,192,129021,1,2,0:0:0:0:
192,192,129084,1,2,0:0:0:0:
320,192,129209,1,2,0:0:0:0:
448,192,129209,1,0,0:0:0:0:
64,192,129334,1,2,0:0:0:0:
320,192,129334,1,0,0:0:0:75:Crash 2.wav
64,192,129584,1,2,0:0:0:0:
448,192,129584,1,0,0:0:0:75:Crash 2.wav
320,192,129834,1,2,0:0:0:0:
448,192,129834,128,4,130084:0:0:0:0:
64,192,130084,1,2,0:0:0:0:
320,192,130209,1,2,0:0:0:0:
448,192,130209,1,0,0:0:0:0:
64,192,130334,1,2,0:0:0:0:
192,192,130459,1,2,0:0:0:0:
448,192,130459,1,0,0:0:0:0:
320,192,130584,1,2,0:0:0:0:
192,192,130646,1,2,0:0:0:0:
64,192,130709,1,2,0:0:0:0:
448,192,130709,1,0,0:0:0:0:
448,192,130834,1,2,0:0:0:0:
64,192,130959,1,2,0:0:0:0:
192,192,130959,1,4,0:0:0:0:
320,192,131021,1,2,0:0:0:0:
448,192,131084,1,2,0:0:0:0:
64,192,131209,1,2,0:0:0:0:
192,192,131334,1,2,0:0:0:0:
320,192,131459,1,2,0:0:0:0:
448,192,131459,1,4,0:0:0:0:
192,192,131521,1,2,0:0:0:0:
64,192,131584,1,2,0:0:0:0:
448,192,131709,1,2,0:0:0:0:
320,192,131834,1,2,0:0:0:0:
64,192,131959,1,2,0:0:0:0:
192,192,131959,1,4,0:0:0:0:
320,192,132021,1,2,0:0:0:0:
448,192,132084,1,2,0:0:0:0:
192,192,132209,1,2,0:0:0:0:
320,192,132334,1,2,0:0:0:0:
64,192,132459,1,2,0:0:0:0:
448,192,132459,1,4,0:0:0:0:
192,192,132521,1,2,0:0:0:0:
320,192,132584,1,2,0:0:0:0:
448,192,132709,128,2,132834:0:0:0:0:
64,192,132834,128,2,132959:0:0:0:0:
320,192,132959,1,6,0:0:0:0:
448,192,133021,1,2,0:0:0:0:
64,192,133084,1,2,0:0:0:0:
192,192,133146,1,2,0:0:0:0:
320,192,133209,1,2,0:0:0:0:
448,192,133271,1,2,0:0:0:0:
192,192,133334,1,2,0:0:0:0:
64,192,133396,1,2,0:0:0:0:
448,192,133459,1,6,0:0:0:0:
320,192,133521,1,2,0:0:0:0:
192,192,133584,1,2,0:0:0:0:
64,192,133646,1,2,0:0:0:0:
320,192,133709,1,2,0:0:0:0:
448,192,133771,1,2,0:0:0:0:
64,192,133834,1,2,0:0:0:0:
192,192,133896,1,2,0:0:0:0:
320,192,133959,1,0,0:0:0:0:
448,192,133959,128,0,134459:0:0:0:0:
320,192,134334,128,0,134459:0:0:0:0:
192,192,134459,128,8,134959:0:0:0:0:
64,192,134959,1,2,0:0:0:0:
448,192,134959,1,0,0:0:0:0:
192,192,135209,1,0,0:0:0:0:
320,192,135334,1,0,0:0:0:0:
448,192,135459,1,0,0:0:0:0:
64,192,135709,1,0,0:0:0:0:
192,192,135834,1,0,0:0:0:0:
320,192,135959,1,0,0:0:0:0:
64,192,136209,1,0,0:0:0:0:
448,192,136334,1,0,0:0:0:0:
192,192,136584,1,0,0:0:0:0:
320,192,136709,1,0,0:0:0:0:
192,192,136834,1,0,0:0:0:0:
64,192,136959,128,2,137209:0:0:0:0:
448,192,136959,1,4,0:0:0:0:
320,192,137209,1,0,0:0:0:0:
64,192,137459,1,2,0:0:0:0:
320,192,137459,128,4,137709:0:0:0:0:
448,192,137709,1,0,0:0:0:0:
192,192,137834,1,0,0:0:0:0:
320,192,137896,1,0,0:0:0:0:
448,192,137959,1,2,0:0:0:0:
64,192,138021,1,2,0:0:0:0:
192,192,138084,1,2,0:0:0:0:
320,192,138146,1,2,0:0:0:0:
64,192,138209,1,2,0:0:0:0:
448,192,138271,1,2,0:0:0:0:
320,192,138334,1,2,0:0:0:0:
192,192,138396,1,2,0:0:0:0:
64,192,138459,128,2,138959:0:0:0:0:
448,192,138459,128,0,138959:0:0:0:0:
