osu file format v14

[General]
AudioFilename: audio.mp3
AudioLeadIn: 0
PreviewTime: 85039
Countdown: 0
SampleSet: Soft
StackLeniency: 0.7
Mode: 2
LetterboxInBreaks: 0
WidescreenStoryboard: 1

[Editor]
Bookmarks: 38352
DistanceSpacing: 1.1
BeatDivisor: 4
GridSize: 32
TimelineZoom: 2.999999

[Metadata]
Title:REKKA RESONANCE
TitleUnicode:烈華RESONANCE
Artist:REDALiCE vs. Kobaryo
ArtistUnicode:REDALiCE vs. Kobaryo
Creator:Jemzuu
Version:SALAD
Source:Arcaea
Tags:ajamez rocma -momox -joakh -rustyy autofanboy alienflybot zirox afb lowiro Memory Archive Video Game Electronic instrumental HARDCORE TANO*C tanoc Collaboration
BeatmapID:3272146
BeatmapSetID:1530133

[Difficulty]
HPDrainRate:3
CircleSize:3
OverallDifficulty:7
ApproachRate:7
SliderMultiplier:1.15
SliderTickRate:1

[Events]
//Background and Video events
0,0,"e85684d8-f00d-4040-81aa-ef5bfbc418df.jpg",0,0
//Break Periods
2,53187,59087
//Storyboard Layer 0 (Background)
//Storyboard Layer 1 (Fail)
//Storyboard Layer 2 (Pass)
//Storyboard Layer 3 (Foreground)
//Storyboard Layer 4 (Overlay)
//Storyboard Sound Samples

[TimingPoints]
1987,250,4,2,1,60,1,0
7987,-100,4,2,2,60,0,0
9987,-100,4,2,1,65,0,0
16987,-100,4,2,1,60,0,0
17112,-100,4,2,1,55,0,0
17237,-100,4,2,1,50,0,0
17362,-100,4,2,1,46,0,0
17487,-100,4,2,1,42,0,0
17612,-100,4,2,1,38,0,0
17737,-100,4,2,1,35,0,0
17862,-100,4,2,1,31,0,0
17987,-100,4,2,1,60,0,0
19737,-100,4,2,1,80,0,0
19987,-100,4,2,1,70,0,0
36237,-100,4,2,2,70,0,0
36487,-100,4,2,3,70,0,0
36674,-100,4,2,4,70,0,0
36987,-100,4,2,1,65,0,0
42549,-100,4,2,2,65,0,0
42737,-100,4,2,1,65,0,0
43362,-100,4,2,2,65,0,0
43737,-100,4,2,3,65,0,0
44237,-100,4,2,4,65,0,0
44487,-100,4,2,3,65,0,0
44737,-100,4,2,4,65,0,0
44987,-100,4,2,1,70,0,0
47205,-100,4,2,1,5,0,0
47237,-100,4,2,1,70,0,0
47455,-100,4,2,1,5,0,0
47487,-100,4,2,1,70,0,0
48205,-100,4,2,1,5,0,0
48237,-100,4,2,1,70,0,0
48393,-100,4,2,1,5,0,0
48487,-100,4,2,1,70,0,0
53237,-100,4,2,2,60,0,0
55987,-100,4,2,1,60,0,0
56987,-100,4,2,2,60,0,0
59987,-100,4,2,1,70,0,0
60237,-100,4,2,1,10,0,0
60987,-100,4,2,1,65,0,0
67987,-100,4,2,1,70,0,0
70612,-100,4,2,1,70,0,0
71612,-100,4,2,1,70,0,0
72112,-100,4,2,1,60,0,0
74612,-100,4,2,1,70,0,0
82987,-100,4,2,2,70,0,0
84987,-100,4,2,1,70,0,0
85237,-100,4,2,2,70,0,0
85987,-100,4,2,1,70,0,0
86987,-100,4,2,1,80,0,1
102987,-100,4,2,1,60,0,0
103487,-100,4,2,2,60,0,0
110987,-100,4,2,1,60,0,0
112612,-100,4,2,1,60,0,0
113987,-100,4,2,99,60,0,0
114112,-100,4,2,1,60,0,0
115987,-100,4,2,1,55,0,0
116112,-100,4,2,1,50,0,0
116237,-100,4,2,1,46,0,0
116362,-100,4,2,1,42,0,0
116487,-100,4,2,1,39,0,0
116612,-100,4,2,1,35,0,0
116737,-100,4,2,1,32,0,0
116862,-100,4,2,1,29,0,0
116987,-100,4,2,1,60,0,0
117237,-100,4,2,2,60,0,0
117487,-100,4,2,1,60,0,0
117737,-100,4,2,2,60,0,0
117987,-100,4,2,1,60,0,0
118737,-100,4,2,1,90,0,0
118987,-100,4,2,1,80,0,1
134987,-100,4,2,1,60,0,0
135237,-100,4,2,2,60,0,0
135487,-100,4,2,1,60,0,0
135737,-100,4,2,2,60,0,0
136612,-100,4,2,1,60,0,0
138487,-100,4,2,1,60,0,0

[Colours]
Combo1 : 192,192,192
Combo2 : 255,128,128
Combo3 : 145,145,255

[HitObjects]
254,195,1987,5,2,3:2:0:0:
47,70,2487,2,0,L|173:67,1,115,2|2,3:2|3:2,0:0:0:0:
329,214,3237,1,2,3:2:0:0:
278,220,3362,1,2,0:2:0:0:
222,225,3487,1,2,0:2:0:0:
458,345,3737,6,0,P|467:282|332:192,1,230,4|2,3:2|0:2,0:0:0:0:
224,142,4487,1,8,0:1:0:0:
348,88,4737,1,4,3:2:0:0:
219,26,4987,2,0,L|83:15,1,115,8|2,0:1|0:0,0:0:0:0:
161,87,5362,1,2,0:0:0:0:
221,108,5487,1,2,0:0:0:0:
348,189,5737,1,2,0:0:0:0:
128,338,5987,5,4,3:2:0:0:
311,358,6487,2,0,L|322:219,1,115,2|2,3:2|3:2,0:0:0:0:
166,193,7237,1,0,3:0:0:0:
115,184,7362,1,2,0:2:0:0:
64,179,7487,1,2,0:2:0:0:
282,229,7737,6,0,P|294:179|152:78,1,230,4|10,3:2|0:1,0:0:0:0:
117,71,8362,1,2,0:1:0:0:
51,82,8487,2,0,L|37:212,1,115,10|2,0:1|0:1,0:0:0:0:
166,228,8987,5,10,0:1:0:0:
169,285,9112,1,2,0:1:0:0:
172,342,9237,1,2,0:1:0:0:
304,363,9487,1,10,0:1:0:0:
350,369,9612,1,2,0:1:0:0:
410,376,9737,1,10,0:1:0:0:
197,359,9987,6,0,P|180:305|277:243,1,172.5,4|0,3:2|3:0,0:0:0:0:
320,245,10487,1,10,3:2:0:0:
441,195,10737,2,0,P|365:123|219:116,1,230,2|2,3:2|3:2,0:0:0:0:
305,87,11362,1,2,0:0:0:0:
366,74,11487,1,10,0:0:0:0:
242,54,11737,6,0,P|219:93|322:236,1,230,2|2,3:2|3:2,0:0:0:0:
359,243,12362,1,2,0:2:0:0:
300,233,12487,1,10,0:2:0:0:
78,328,12737,5,6,3:2:0:0:
188,339,12987,2,0,L|311:299,2,115,2|2|10,0:0|3:2|0:0,0:0:0:0:
75,347,13737,2,0,L|65:269,1,57.5,10|10,3:2|3:2,0:0:0:0:
191,210,13987,6,0,L|316:184,1,115,14|10,3:2|3:2,0:0:0:0:
336,143,14362,1,10,3:2:0:0:
304,104,14487,1,10,3:2:0:0:
169,47,14737,2,0,L|296:37,1,115,14|8,3:2|3:2,0:0:0:0:
150,155,15237,1,10,3:2:0:0:
103,163,15362,1,10,3:2:0:0:
51,163,15487,1,10,3:2:0:0:
284,331,15737,6,0,L|292:202,1,115,14|8,3:2|3:2,0:0:0:0:
161,222,16237,1,10,3:2:0:0:
154,164,16362,1,8,3:2:0:0:
148,107,16487,1,10,3:2:0:0:
261,76,16737,1,10,3:2:0:0:
486,209,16987,5,2,3:2:0:0:
461,260,17112,1,0,3:2:0:0:
418,298,17237,1,0,3:2:0:0:
364,316,17362,1,0,3:2:0:0:
307,312,17487,1,0,3:2:0:0:
418,362,17737,1,0,3:2:0:0:
187,333,17987,6,0,L|69:317,2,115,6|2|2,3:2|0:0|0:0,0:0:0:0:
311,333,18737,2,0,L|343:271,2,57.5,2|2|8,0:0|0:0|0:1,0:0:0:0:
193,348,19237,1,2,3:2:0:0:
76,343,19487,1,8,0:1:0:0:
283,270,19737,1,8,0:0:0:0:
61,231,19987,6,0,L|57:109,1,115,4|2,3:2|3:2,0:0:0:0:
188,178,20487,2,0,L|198:56,1,115,2|2,3:1|3:2,0:0:0:0:
330,60,20987,2,0,L|189:173,1,172.5,2|2,3:2|1:2,0:0:0:0:
255,195,21487,1,2,3:2:0:0:
376,228,21737,1,0,3:0:0:0:
252,298,21987,6,0,L|113:288,2,115,2|2|2,3:2|3:2|3:2,0:0:0:0:
378,334,22737,1,2,3:2:0:0:
248,370,22987,2,0,L|123:368,1,115,2|0,3:2|3:0,0:0:0:0:
100,320,23362,1,0,3:0:0:0:
134,371,23487,1,10,0:0:0:0:
258,368,23737,1,2,3:2:0:0:
30,153,23987,6,0,L|152:86,1,115,6|2,3:2|3:2,0:0:0:0:
266,55,24487,2,0,L|143:24,1,115,2|2,3:1|3:2,0:0:0:0:
292,108,24987,2,0,P|316:175|223:227,1,172.5,2|0,3:2|1:0,0:0:0:0:
185,238,25487,1,2,3:2:0:0:
61,322,25737,2,0,L|135:336,1,57.5,0|0,3:0|3:0,0:0:0:0:
247,356,25987,6,0,L|368:340,1,115,6|2,3:2|3:2,0:0:0:0:
222,274,26487,2,0,L|212:139,1,115,10|2,3:2|3:2,0:0:0:0:
445,108,26987,2,0,L|327:97,1,115,2|2,1:3|1:3,0:0:0:0:
300,49,27362,1,2,1:3:0:0:
332,95,27487,1,6,3:2:0:0:
450,160,27737,1,2,0:3:0:0:
334,205,27987,2,0,L|267:214,1,57.5,0|2,3:0|3:2,0:0:0:0:
144,263,28237,5,6,3:2:0:0:
78,265,28362,2,0,L|62:133,1,115,2|2,1:2|1:2,0:0:0:0:
188,106,28862,2,0,L|323:89,1,115,2|2,1:2|1:2,0:0:0:0:
244,66,29237,1,10,3:2:0:0:
178,60,29362,6,0,L|53:49,1,115,2|2,1:2|1:2,0:0:0:0:
199,157,29862,2,0,L|214:293,1,115,2|2,1:2|1:2,0:0:0:0:
272,295,30237,1,10,3:2:0:0:
336,309,30362,1,2,1:2:0:0:
268,326,30487,2,0,L|135:316,1,115,2|10,3:2|3:2,0:0:0:0:
387,237,30987,6,0,L|509:207,1,115,6|2,3:2|3:2,0:0:0:0:
437,185,31362,1,2,3:2:0:0:
321,154,31612,2,0,L|293:99,2,57.5,2|0|0,3:2|3:0|3:0,0:0:0:0:
453,192,31987,6,0,L|460:322,1,115,4|10,3:2|3:2,0:0:0:0:
394,321,32362,2,0,L|271:300,1,115,2|2,1:2|1:2,0:0:0:0:
149,226,32862,2,0,L|283:199,1,115,2|2,1:2|1:2,0:0:0:0:
321,174,33237,1,10,3:2:0:0:
261,159,33362,5,2,1:2:0:0:
123,117,33612,2,0,L|88:68,2,57.5,2|8|2,3:2|3:2|3:2,0:0:0:0:
254,127,33987,6,0,L|378:149,2,115,6|10|2,3:2|3:2|3:2,0:0:0:0:
118,170,34737,2,0,L|46:177,2,57.5,8|0|0,3:2|3:0|3:0,0:0:0:0:
237,256,35237,1,2,1:2:0:0:
360,298,35487,1,2,1:3:0:0:
232,348,35737,1,2,0:0:0:0:
361,342,35987,6,0,L|488:326,1,115,8|8,0:3|0:3,0:0:0:0:
415,286,36362,1,8,0:3:0:0:
348,272,36487,1,8,0:3:0:0:
221,268,36737,2,0,L|216:196,1,57.5,8|8,0:3|0:3,0:0:0:0:
351,168,36987,6,0,L|500:63,1,172.5,4|0,3:2|3:0,0:0:0:0:
428,46,37487,1,8,0:1:0:0:
295,47,37737,2,0,L|276:229,1,172.5,0|0,3:0|3:0,0:0:0:0:
209,241,38237,1,0,3:0:0:0:
75,269,38487,1,8,0:1:0:0:
213,316,38737,6,0,P|252:318|297:162,1,230,0|0,3:0|3:0,0:0:0:0:
243,148,39362,1,0,3:0:0:0:
181,140,39487,1,8,0:1:0:0:
53,77,39737,1,0,3:0:0:0:
184,49,39987,2,0,L|201:247,1,172.5,0|0,3:0|3:0,0:0:0:0:
257,242,40487,1,8,0:1:0:0:
384,304,40737,2,0,L|304:326,1,57.5,0|8,3:0|0:1,0:0:0:0:
262,332,40987,6,0,P|245:287|352:225,1,172.5,0|0,3:0|3:0,0:0:0:0:
388,216,41487,1,8,0:1:0:0:
261,131,41737,2,0,P|181:149|177:232,1,172.5,0|0,3:0|3:0,0:0:0:0:
237,256,42237,1,0,3:0:0:0:
363,307,42487,1,8,0:1:0:0:
234,353,42737,6,0,L|107:333,1,115,0|8,3:0|3:0,0:0:0:0:
59,328,43112,1,8,0:3:0:0:
183,278,43362,2,0,L|189:200,1,57.5,8|8,0:3|0:3,0:0:0:0:
311,184,43737,2,0,L|375:182,2,57.5,8|8|8,0:3|0:3|0:3,0:0:0:0:
183,151,44237,5,8,0:3:0:0:
127,146,44362,1,8,0:3:0:0:
101,97,44487,1,8,0:3:0:0:
128,49,44612,1,8,0:3:0:0:
183,44,44737,1,8,0:3:0:0:
413,68,44987,6,0,P|428:113|326:189,1,172.5,4|2,3:2|1:2,0:0:0:0:
281,211,45487,2,0,L|406:241,1,115,10|2,3:2|1:2,0:0:0:0:
173,331,45987,2,0,L|35:313,1,115,2|0,1:2|3:2,0:0:0:0:
123,286,46362,2,0,L|258:270,1,115,2|2,1:2|0:0,0:0:0:0:
301,271,46737,1,2,1:2:0:0:
71,201,46987,6,0,L|61:76,1,115,6|2,3:2|0:0,0:0:0:0:
197,71,47487,2,0,L|68:61,1,115,10|2,3:2|0:0,0:0:0:0:
317,168,47987,2,0,L|452:145,1,115,2|0,0:0|3:0,0:0:0:0:
294,248,48487,2,0,L|185:314,1,115,10|2,3:2|1:2,0:0:0:0:
436,359,48987,5,2,3:2:0:0:
479,289,49153,1,2,3:2:0:0:
437,214,49320,1,2,3:2:0:0:
356,186,49487,1,2,3:2:0:0:
274,173,49653,1,2,3:2:0:0:
357,162,49820,1,2,3:2:0:0:
272,121,49987,6,0,L|142:145,1,115,2|2,3:2|3:2,0:0:0:0:
221,188,50362,1,2,3:2:0:0:
348,257,50487,2,0,L|381:199,2,57.5,2|2|2,3:2|3:2|3:2,0:0:0:0:
120,313,50987,6,0,L|83:250,2,57.5,2|10|0,3:2|3:2|3:0,0:0:0:0:
247,344,51487,1,8,3:2:0:0:
119,351,51737,1,8,3:2:0:0:
351,369,51987,6,0,P|404:362|419:244,1,172.5,4|2,3:0|0:0,0:0:0:0:
363,223,52487,2,0,L|247:149,1,115,2|0,0:0|0:0,0:0:0:0:
22,75,52987,5,4,3:1:0:0:
256,192,59987,12,0,60737,0:0:0:0:
261,164,60987,6,0,L|402:145,1,115,4|0,3:2|1:0,0:0:0:0:
249,107,61487,1,0,3:0:0:0:
245,164,61612,1,0,1:0:0:0:
241,221,61737,1,2,1:2:0:0:
114,246,61987,2,0,L|101:383,1,115,0|2,3:0|0:0,0:0:0:0:
233,356,62487,2,0,L|111:323,1,115,2|0,3:2|1:0,0:0:0:0:
259,260,62987,6,0,L|385:238,1,115,2|0,3:2|1:0,0:0:0:0:
237,170,63487,2,0,L|230:47,1,115,0|2,3:0|1:2,0:0:0:0:
356,36,63987,2,0,L|364:177,1,115,0|2,3:0|0:0,0:0:0:0:
491,247,64487,2,0,L|361:253,1,115,2|2,3:2|1:2,0:0:0:0:
237,316,64987,6,0,L|230:182,1,115,0|2,3:0|1:2,0:0:0:0:
357,155,65487,2,0,L|237:138,1,115,0|2,3:0|0:0,0:0:0:0:
109,162,65987,2,0,L|102:32,1,115,0|2,3:0|1:2,0:0:0:0:
236,43,66487,2,0,L|366:34,1,115,2|2,3:2|1:2,0:0:0:0:
114,93,66987,6,0,P|75:151|308:358,1,460,4|8,3:2|0:1,0:0:0:0:
240,314,68112,1,0,3:0:0:0:
182,297,68237,1,0,3:0:0:0:
115,288,68362,1,8,0:1:0:0:
323,215,68612,2,0,L|395:210,1,57.5,0|8,3:0|3:2,0:0:0:0:
140,46,68987,6,0,B|26:70|26:70|25:191,2,230,4|8|8,3:2|0:1|0:1,0:0:0:0:
359,202,70487,2,0,L|238:211,1,115,8|2,0:1|1:2,0:0:0:0:
188,215,70862,1,2,1:2:0:0:
323,134,70987,6,0,B|437:158|437:158|438:279,2,230,6|8|8,3:2|0:1|0:1,0:0:0:0:
93,233,72487,2,0,L|95:94,1,115,2|2,1:2|0:0,0:0:0:0:
157,100,72862,1,2,0:0:0:0:
290,69,72987,6,0,L|492:224,1,230,4|8,3:2|0:1,0:0:0:0:
94,359,73987,6,0,L|88:111,1,230,4|8,3:2|0:1,0:0:0:0:
446,324,74987,6,0,L|461:188,1,115,6|2,3:2|0:0,0:0:0:0:
321,172,75487,2,0,L|192:155,1,115,2|2,3:2|0:0,0:0:0:0:
433,325,75987,2,0,P|443:267|310:171,1,230,2|2,3:2|3:2,0:0:0:0:
445,134,76737,1,0,3:0:0:0:
221,62,76987,6,0,L|106:106,2,115,12|8|8,3:2|3:2|3:2,0:0:0:0:
348,97,77737,1,8,3:2:0:0:
222,166,77987,1,8,3:2:0:0:
215,223,78112,1,8,3:2:0:0:
209,280,78237,1,8,3:2:0:0:
70,338,78487,2,0,L|65:213,1,115,2|2,3:2|1:2,0:0:0:0:
305,172,78987,6,0,L|421:217,2,115,12|8|8,3:2|3:2|3:2,0:0:0:0:
246,151,79612,1,8,3:2:0:0:
183,149,79737,1,8,3:2:0:0:
317,266,79987,2,0,L|353:200,2,57.5,0|0|8,3:0|3:0|3:2,0:0:0:0:
195,284,80487,1,2,3:3:0:0:
71,299,80737,1,2,3:3:0:0:
309,355,80987,6,0,L|439:346,1,115,12|8,3:2|3:2,0:0:0:0:
298,263,81487,1,8,3:2:0:0:
248,251,81612,1,8,3:2:0:0:
198,247,81737,1,8,3:2:0:0:
415,225,81987,6,0,L|422:90,1,115,8|8,3:2|3:2,0:0:0:0:
291,73,82487,1,8,3:2:0:0:
341,63,82612,1,8,3:2:0:0:
396,64,82737,1,8,3:2:0:0:
177,136,82987,6,0,L|81:127,2,76.6666666666667,8|8|8,3:2|3:2|3:2,0:0:0:0:
257,189,83487,2,0,L|352:203,2,76.6666666666667,8|8|8,3:2|3:2|3:2,0:0:0:0:
105,213,83987,6,0,L|23:315,1,115,2|2,3:3|3:3,0:0:0:0:
160,346,84487,1,2,3:3:0:0:
213,342,84612,1,2,3:3:0:0:
266,340,84737,1,2,3:3:0:0:
323,340,84862,1,2,3:3:0:0:
199,265,84987,6,0,L|139:158,2,115,4|2|2,3:2|0:0|0:0,0:0:0:0:
330,271,85737,1,2,0:0:0:0:
88,341,85987,6,0,P|77:274|162:222,1,172.5,4|0,3:2|3:0,0:0:0:0:
219,215,86487,2,0,L|94:200,1,115,0|10,3:0|3:2,0:0:0:0:
350,88,86987,6,0,L|362:226,1,115,4|2,3:1|3:2,0:0:0:0:
301,224,87362,1,2,1:2:0:0:
240,258,87487,2,0,L|358:280,1,115,2|10,3:2|3:2,0:0:0:0:
412,294,87862,1,2,1:2:0:0:
347,314,87987,6,0,L|219:315,1,115,2|10,3:2|3:2,0:0:0:0:
170,302,88362,1,2,1:2:0:0:
297,274,88612,2,0,L|326:216,2,57.5,2|8|2,1:2|3:2|3:2,0:0:0:0:
167,229,88987,6,0,L|46:197,1,115,6|0,3:2|3:0,0:0:0:0:
115,166,89362,1,2,1:2:0:0:
235,149,89612,1,2,3:2:0:0:
473,61,89862,6,0,L|481:192,1,115,6|0,3:2|3:0,0:0:0:0:
421,198,90237,1,8,3:2:0:0:
294,242,90487,2,0,L|370:266,1,57.5,2|2,3:2|3:2,0:0:0:0:
414,291,90737,2,0,L|352:307,1,57.5,2|2,3:2|3:2,0:0:0:0:
228,346,90987,6,0,L|96:329,1,115,6|8,3:2|3:2,0:0:0:0:
173,302,91362,1,2,1:2:0:0:
234,291,91487,2,0,L|359:276,1,115,2|8,3:2|3:2,0:0:0:0:
286,234,91862,1,2,1:2:0:0:
217,234,91987,6,0,L|206:113,1,115,2|10,3:2|3:2,0:0:0:0:
269,106,92362,1,2,1:2:0:0:
397,99,92612,2,0,L|432:30,2,57.5,2|10|2,3:2|3:2|3:2,0:0:0:0:
269,96,92987,6,0,L|147:68,1,115,6|10,3:2|3:2,0:0:0:0:
291,48,93487,2,0,L|303:172,1,115,2|8,3:2|3:2,0:0:0:0:
241,172,93862,1,0,3:0:0:0:
109,184,93987,6,0,L|97:308,1,115,6|8,3:2|3:2,0:0:0:0:
158,320,94362,1,2,3:2:0:0:
221,332,94487,2,0,L|350:319,1,115,2|0,3:2|3:0,0:0:0:0:
95,366,94987,6,0,L|90:234,1,115,4|2,3:1|3:2,0:0:0:0:
151,236,95362,1,2,3:2:0:0:
213,207,95487,2,0,L|77:184,1,115,2|2,3:2|3:2,0:0:0:0:
163,158,95862,1,2,3:2:0:0:
227,138,95987,6,0,L|368:122,1,115,2|2,3:2|3:2,0:0:0:0:
402,106,96362,1,2,3:2:0:0:
270,56,96612,2,0,L|261:178,1,115,2|2,3:2|3:2,0:0:0:0:
397,215,96987,6,0,L|506:282,1,115,6|2,3:2|3:2,0:0:0:0:
432,307,97362,1,2,3:2:0:0:
321,331,97612,1,2,3:2:0:0:
78,351,97862,6,0,L|74:231,1,115,6|0,3:2|3:0,0:0:0:0:
141,215,98237,2,0,L|277:189,1,115,0|2,3:0|3:2,0:0:0:0:
284,133,98612,1,2,3:2:0:0:
255,195,98737,1,2,3:2:0:0:
196,214,98862,1,2,3:2:0:0:
65,224,98987,6,0,L|57:94,1,115,6|2,3:2|3:2,0:0:0:0:
117,84,99362,1,2,3:2:0:0:
179,82,99487,2,0,L|304:71,1,115,2|2,3:2|3:2,0:0:0:0:
357,107,99862,1,2,3:2:0:0:
294,117,99987,6,0,L|160:138,1,115,2|2,3:2|3:2,0:0:0:0:
242,179,100362,1,2,3:2:0:0:
374,213,100612,2,0,L|409:153,2,57.5,2|2|2,3:2|3:2|3:2,0:0:0:0:
241,253,100987,6,0,L|100:275,1,115,6|2,3:2|3:2,0:0:0:0:
257,351,101487,2,0,L|383:348,1,115,6|2,3:2|3:2,0:0:0:0:
123,375,101987,6,0,P|106:321|200:266,1,172.5,6|2,3:2|0:0,0:0:0:0:
253,259,102487,2,0,L|384:248,1,115,2|8,0:0|0:1,0:0:0:0:
126,341,102987,6,0,L|105:100,1,230,4|2,3:2|0:0,0:0:0:0:
228,78,103737,1,2,0:0:0:0:
355,79,103987,6,0,L|228:95,1,115,8|2,0:1|0:0,0:0:0:0:
210,153,104362,1,2,0:0:0:0:
242,91,104487,1,2,0:0:0:0:
361,179,104737,1,2,0:0:0:0:
487,210,104987,6,0,L|368:262,1,115,0|2,3:0|0:0,0:0:0:0:
263,331,105487,2,0,L|257:202,1,115,2|2,0:0|0:0,0:0:0:0:
128,163,105987,2,0,L|252:146,1,115,8|2,0:1|0:0,0:0:0:0:
272,93,106362,1,2,0:0:0:0:
242,147,106487,1,2,0:0:0:0:
115,171,106737,1,2,0:0:0:0:
243,204,106987,6,0,L|418:237,1,172.5,2|0,3:2|0:0,0:0:0:0:
354,272,107487,1,2,0:0:0:0:
224,311,107737,1,2,0:0:0:0:
354,355,107987,6,0,L|354:226,1,115,8|2,0:1|0:0,0:0:0:0:
293,220,108362,1,2,0:0:0:0:
229,217,108487,1,2,0:0:0:0:
357,149,108737,1,2,0:0:0:0:
226,122,108987,6,0,L|106:103,1,115,0|2,3:0|0:0,0:0:0:0:
248,51,109487,2,0,L|254:184,1,115,2|2,3:2|0:0,0:0:0:0:
114,205,109987,2,0,L|103:330,1,115,8|0,3:1|3:0,0:0:0:0:
238,354,110487,2,0,L|163:353,1,57.5,8|0,3:1|3:0,0:0:0:0:
114,316,110737,2,0,L|184:308,1,57.5,8|8,3:1|3:1,0:0:0:0:
303,245,110987,6,0,L|429:224,1,115,6|10,3:2|0:0,0:0:0:0:
289,144,111487,2,0,L|168:115,1,115,10|8,0:0|0:0,0:0:0:0:
52,69,111987,2,0,L|192:43,1,115,10|10,0:0|0:0,0:0:0:0:
292,77,112487,2,0,L|299:211,1,115,10|10,0:0|0:0,0:0:0:0:
235,204,112862,1,2,0:0:0:0:
107,210,112987,6,0,L|101:333,1,115,4|10,3:2|0:0,0:0:0:0:
165,341,113362,1,2,3:2:0:0:
280,352,113612,1,2,3:2:0:0:
61,377,113862,6,0,P|45:318|142:261,1,172.5,6|8,3:2|0:0,0:0:0:0:
250,200,114487,1,10,3:2:0:0:
207,161,114612,1,2,0:0:0:0:
154,140,114737,1,10,3:2:0:0:
97,138,114862,1,10,0:0:0:0:
223,75,114987,6,0,L|358:95,1,115,6|2,3:2|3:2,0:0:0:0:
463,138,115487,2,0,L|474:272,1,115,2|2,3:2|3:2,0:0:0:0:
336,304,115987,5,0,3:3:0:0:
281,298,116112,1,0,3:3:0:0:
255,249,116237,1,0,3:3:0:0:
281,200,116362,1,0,3:3:0:0:
403,180,116612,2,0,L|474:173,2,57.5,0|0|0,3:3|3:3|3:3,0:0:0:0:
278,105,116987,6,0,L|152:82,1,115,4|2,3:2|0:0,0:0:0:0:
290,55,117487,2,0,L|297:181,1,115,2|2,0:1|0:0,0:0:0:0:
70,204,117987,6,0,L|66:304,1,86.25,2|2,3:2|3:2,0:0:0:0:
158,331,118362,1,2,3:2:0:0:
221,348,118487,2,0,L|105:368,1,115,2|8,3:2|3:2,0:0:0:0:
349,350,118987,6,0,L|475:334,1,115,4|2,3:1|3:2,0:0:0:0:
404,290,119362,1,2,1:2:0:0:
341,275,119487,2,0,L|201:248,1,115,2|10,3:2|3:2,0:0:0:0:
199,187,119862,1,2,1:2:0:0:
228,253,119987,6,0,L|354:258,1,115,2|10,3:2|3:2,0:0:0:0:
405,252,120362,1,2,1:2:0:0:
277,151,120612,2,0,L|241:86,2,57.5,2|8|2,1:2|3:2|3:2,0:0:0:0:
407,158,120987,6,0,L|485:261,1,115,6|0,3:2|3:0,0:0:0:0:
415,275,121362,1,2,1:2:0:0:
291,313,121612,1,2,3:2:0:0:
58,291,121862,6,0,L|48:164,1,115,6|0,3:2|3:0,0:0:0:0:
111,158,122237,1,8,3:2:0:0:
239,157,122487,2,0,L|243:88,1,57.5,2|2,3:2|3:2,0:0:0:0:
174,96,122737,2,0,L|170:35,1,57.5,2|2,3:2|3:2,0:0:0:0:
301,36,122987,6,0,L|426:60,1,115,6|8,3:2|3:2,0:0:0:0:
446,107,123362,1,2,1:2:0:0:
415,58,123487,2,0,L|281:75,1,115,2|8,3:2|3:2,0:0:0:0:
241,115,123862,1,2,1:2:0:0:
305,117,123987,6,0,L|429:134,1,115,2|10,3:2|3:2,0:0:0:0:
354,166,124362,1,2,1:2:0:0:
234,185,124612,2,0,L|205:238,2,57.5,2|10|2,3:2|3:2|3:2,0:0:0:0:
366,202,124987,6,0,L|373:330,1,115,6|10,3:2|3:2,0:0:0:0:
235,352,125487,2,0,L|302:324,1,57.5,2|0,3:2|3:0,0:0:0:0:
350,324,125737,1,8,3:2:0:0:
119,314,125987,6,0,L|106:183,1,115,6|8,3:2|3:2,0:0:0:0:
166,175,126362,1,2,3:2:0:0:
230,168,126487,1,2,3:2:0:0:
107,106,126737,1,2,3:2:0:0:
337,45,126987,6,0,L|223:47,1,115,4|2,3:1|3:2,0:0:0:0:
284,80,127362,1,2,3:2:0:0:
417,115,127487,6,0,L|423:233,1,115,4|2,3:1|3:2,0:0:0:0:
365,242,127862,1,2,3:2:0:0:
232,236,127987,6,0,L|226:354,1,115,4|2,3:1|3:2,0:0:0:0:
284,363,128362,1,2,3:2:0:0:
409,357,128612,2,0,L|441:301,2,57.5,2|0|2,3:2|3:0|3:2,0:0:0:0:
276,337,128987,6,0,L|152:319,1,115,6|2,3:2|3:2,0:0:0:0:
225,291,129362,1,2,3:2:0:0:
337,278,129612,1,2,3:2:0:0:
114,241,129862,6,0,L|110:117,1,115,6|0,3:2|3:0,0:0:0:0:
175,111,130237,1,0,3:0:0:0:
308,111,130487,2,0,L|340:60,2,57.5,2|2|2,3:2|3:2|3:2,0:0:0:0:
250,114,130862,1,2,3:2:0:0:
112,142,130987,6,0,L|15:218,1,115,4|2,3:1|3:2,0:0:0:0:
80,238,131362,1,2,3:2:0:0:
218,286,131487,2,0,L|341:306,1,115,4|2,3:1|3:2,0:0:0:0:
271,336,131862,1,2,3:2:0:0:
135,366,131987,6,0,L|126:240,1,115,4|2,3:1|3:2,0:0:0:0:
186,235,132362,1,2,3:2:0:0:
314,202,132612,2,0,L|392:197,2,57.5,2|2|2,3:2|3:2|3:2,0:0:0:0:
180,135,132987,6,0,L|53:101,1,115,6|2,3:2|3:2,0:0:0:0:
204,42,133487,2,0,L|275:51,1,57.5,6|0,3:2|3:0,0:0:0:0:
201,71,133737,2,0,L|137:80,1,57.5,2|2,3:2|3:2,0:0:0:0:
272,152,133987,6,0,L|455:192,1,172.5,6|2,3:2|0:0,0:0:0:0:
374,232,134487,2,0,L|242:253,1,115,2|8,3:2|3:1,0:0:0:0:
487,349,134987,6,0,L|493:234,1,115,4|2,3:2|0:0,0:0:0:0:
434,220,135362,1,2,0:0:0:0:
368,215,135487,1,2,0:1:0:0:
342,120,135737,5,2,0:0:0:0:
401,105,135862,1,2,0:0:0:0:
468,98,135987,1,2,0:0:0:0:
459,37,136237,2,0,L|392:36,1,57.5,2|2,0:0|0:0,0:0:0:0:
285,89,136612,5,2,0:0:0:0:
342,93,136737,1,2,0:0:0:0:
399,98,136862,1,2,0:0:0:0:
268,181,136987,6,0,L|131:199,1,115,6|2,3:2|3:2,0:0:0:0:
375,350,137487,2,0,L|383:226,1,115,6|2,3:2|3:2,0:0:0:0:
143,330,137987,2,0,L|112:277,2,57.5,6|0|0,3:2|3:0|3:0,0:0:0:0:
198,349,138362,1,2,3:2:0:0:
342,363,138487,5,6,3:2:0:0:
