osu file format v14

[General]
AudioFilename: audio.mp3
AudioLeadIn: 0
PreviewTime: 85039
Countdown: 0
SampleSet: Soft
StackLeniency: 0.7
Mode: 2
LetterboxInBreaks: 0
WidescreenStoryboard: 1

[Editor]
Bookmarks: 77102
DistanceSpacing: 1.1
BeatDivisor: 4
GridSize: 32
TimelineZoom: 2.999999

[Metadata]
Title:REKKA RESONANCE
TitleUnicode:烈華RESONANCE
Artist:REDALiCE vs. Kobaryo
ArtistUnicode:REDALiCE vs. Kobaryo
Creator:Jemzuu
Version:RAIN
Source:Arcaea
Tags:ajamez rocma -momox -joakh -rustyy autofanboy alienflybot zirox afb lowiro Memory Archive Video Game Electronic instrumental HARDCORE TANO*C tanoc Collaboration
BeatmapID:3303728
BeatmapSetID:1530133

[Difficulty]
HPDrainRate:5
CircleSize:3.6
OverallDifficulty:9
ApproachRate:9
SliderMultiplier:1.5
SliderTickRate:1

[Events]
//Background and Video events
0,0,"e85684d8-f00d-4040-81aa-ef5bfbc418df.jpg",0,0
//Break Periods
//Storyboard Layer 0 (Background)
//Storyboard Layer 1 (Fail)
//Storyboard Layer 2 (Pass)
//Storyboard Layer 3 (Foreground)
//Storyboard Layer 4 (Overlay)
//Storyboard Sound Samples

[TimingPoints]
1987,250,4,2,1,60,1,0
1987,-100,4,2,1,60,0,0
7987,-100,4,2,2,60,0,0
9987,-100,4,2,1,65,0,0
16987,-100,4,2,1,60,0,0
17112,-100,4,2,1,55,0,0
17237,-100,4,2,1,50,0,0
17362,-100,4,2,1,46,0,0
17487,-100,4,2,1,42,0,0
17612,-100,4,2,1,38,0,0
17737,-100,4,2,1,35,0,0
17862,-100,4,2,1,31,0,0
17987,-100,4,2,1,60,0,0
19737,-100,4,2,1,80,0,0
19987,-100,4,2,1,70,0,0
36237,-100,4,2,2,70,0,0
36487,-100,4,2,3,70,0,0
36674,-100,4,2,4,70,0,0
36987,-100,4,2,1,65,0,0
41737,-100,4,2,1,65,0,0
42112,-100,4,2,1,65,0,0
42549,-100,4,2,2,65,0,0
42737,-100,4,2,1,65,0,0
43362,-100,4,2,2,65,0,0
43737,-100,4,2,3,65,0,0
44237,-100,4,2,4,65,0,0
44487,-100,4,2,3,65,0,0
44737,-100,4,2,4,65,0,0
44987,-100,4,2,1,70,0,0
47205,-100,4,2,1,5,0,0
47237,-100,4,2,1,70,0,0
47455,-100,4,2,1,5,0,0
47487,-100,4,2,1,70,0,0
48205,-100,4,2,1,5,0,0
48237,-100,4,2,1,70,0,0
48393,-100,4,2,1,5,0,0
48487,-100,4,2,1,70,0,0
52987,-100,4,2,1,70,0,0
53237,-100,4,2,2,60,0,0
55987,-100,4,2,1,60,0,0
56987,-100,4,2,2,60,0,0
59987,-100,4,2,1,70,0,0
60237,-100,4,2,1,10,0,0
60987,-100,4,2,1,65,0,0
66987,-100,4,2,1,65,0,0
67987,-100,4,2,1,70,0,0
70612,-100,4,2,1,70,0,0
71612,-100,4,2,1,70,0,0
71987,-100,4,2,98,60,0,0
72112,-100,4,2,1,60,0,0
74612,-100,4,2,1,70,0,0
82987,-100,4,2,2,70,0,0
84987,-100,4,2,1,70,0,0
85237,-100,4,2,2,70,0,0
85862,-100,4,2,2,70,0,0
85987,-100,4,2,1,70,0,0
86987,-100,4,2,1,80,0,1
102987,-100,4,2,1,60,0,0
103487,-100,4,2,2,60,0,0
108987,-100,4,2,2,60,0,0
110987,-100,4,2,1,60,0,0
112612,-100,4,2,1,60,0,0
112737,-100,4,2,99,60,0,0
112862,-100,4,2,1,60,0,0
113987,-100,4,2,99,60,0,0
114112,-100,4,2,1,60,0,0
115987,-100,4,2,1,55,0,0
116112,-100,4,2,1,50,0,0
116237,-100,4,2,1,46,0,0
116362,-100,4,2,1,42,0,0
116487,-100,4,2,1,39,0,0
116612,-100,4,2,1,35,0,0
116737,-100,4,2,1,32,0,0
116862,-100,4,2,1,29,0,0
116987,-100,4,2,1,60,0,0
117237,-100,4,2,2,60,0,0
117487,-100,4,2,1,60,0,0
117737,-100,4,2,2,60,0,0
117987,-100,4,2,1,60,0,0
118737,-100,4,2,1,90,0,0
118987,-100,4,2,1,80,0,1
134987,-100,4,2,1,60,0,0
135237,-100,4,2,2,60,0,0
135487,-100,4,2,1,60,0,0
135737,-100,4,2,2,60,0,0
136612,-100,4,2,1,60,0,0
136987,-100,4,2,1,60,0,0
138487,-100,4,2,1,60,0,0

[Colours]
Combo1 : 192,192,192
Combo2 : 255,128,128
Combo3 : 145,145,255

[HitObjects]
256,191,1987,5,2,3:2:0:0:
42,89,2487,1,2,3:2:0:0:
246,63,2737,1,2,3:2:0:0:
486,184,3237,1,2,3:2:0:0:
452,253,3362,1,2,0:2:0:0:
377,291,3487,1,2,0:2:0:0:
49,320,3737,6,0,P|32:240|212:122,1,300,4|2,3:2|0:2,0:0:0:0:
271,122,4362,1,8,0:1:0:0:
182,118,4487,1,8,0:1:0:0:
400,63,4737,1,4,3:2:0:0:
176,28,4987,2,0,L|168:213,1,150,8|2,0:1|0:0,0:0:0:0:
253,202,5362,1,2,0:0:0:0:
342,212,5487,2,0,L|349:306,1,75,2|0,0:0|0:0,0:0:0:0:
248,287,5737,2,0,L|240:369,1,75,2|0,0:0|0:0,0:0:0:0:
458,360,5987,5,4,3:2:0:0:
184,268,6487,1,2,3:2:0:0:
401,230,6737,1,2,3:2:0:0:
75,180,7237,1,0,3:0:0:0:
40,94,7362,1,2,0:2:0:0:
75,180,7487,1,2,0:2:0:0:
444,93,7737,6,0,L|276:71,1,150,4|2,3:2|0:1,0:0:0:0:
199,86,8112,1,2,0:1:0:0:
295,73,8237,1,10,0:1:0:0:
330,79,8299,1,2,0:1:0:0:
347,111,8362,1,2,0:1:0:0:
331,143,8424,1,2,0:1:0:0:
295,150,8487,1,10,0:1:0:0:
201,174,8612,1,2,0:1:0:0:
106,197,8737,2,0,L|105:288,1,75,2|2,0:1|0:1,0:0:0:0:
318,354,8987,5,10,0:1:0:0:
329,318,9049,1,2,0:1:0:0:
319,283,9112,1,2,0:1:0:0:
290,260,9174,1,2,0:1:0:0:
253,256,9237,1,2,0:1:0:0:
173,258,9362,1,2,0:1:0:0:
366,118,9487,5,10,0:1:0:0:
403,122,9550,1,2,0:1:0:0:
432,145,9612,1,2,0:1:0:0:
442,180,9675,1,2,0:1:0:0:
431,216,9737,1,10,0:1:0:0:
349,240,9862,1,2,0:1:0:0:
127,359,9987,6,0,P|114:306|237:212,1,225,4|0,3:2|3:0,0:0:0:0:
312,213,10487,1,10,3:2:0:0:
87,235,10737,2,0,L|70:78,1,150,2|0,3:2|1:0,0:0:0:0:
303,70,11237,2,0,L|213:119,1,75,2|2,3:2|0:0,0:0:0:0:
148,115,11487,1,10,0:0:0:0:
466,92,11737,6,0,L|472:269,1,150,2|0,3:2|1:0,0:0:0:0:
248,300,12237,2,0,L|338:349,1,75,2|2,3:2|0:2,0:0:0:0:
403,345,12487,1,10,0:2:0:0:
87,358,12737,6,0,L|75:183,1,150,2|2,3:2|0:0,0:0:0:0:
272,173,13237,1,2,3:2:0:0:
65,96,13487,1,10,0:0:0:0:
279,44,13737,2,0,L|361:44,1,75,10|10,3:2|3:2,0:0:0:0:
144,284,13987,5,14,3:2:0:0:
72,272,14112,1,8,3:2:0:0:
39,208,14237,1,10,3:2:0:0:
71,143,14362,1,10,3:2:0:0:
149,129,14487,1,10,3:2:0:0:
71,143,14612,1,8,3:2:0:0:
271,272,14737,5,14,3:2:0:0:
343,260,14862,1,8,3:2:0:0:
376,196,14987,1,8,3:2:0:0:
344,131,15112,1,8,3:2:0:0:
266,117,15237,1,10,3:2:0:0:
344,131,15362,1,10,3:2:0:0:
431,132,15487,2,0,L|437:42,1,75,10|8,3:2|3:2,0:0:0:0:
219,237,15737,6,0,L|207:138,1,75,14|8,3:2|3:2,0:0:0:0:
323,166,15987,1,8,3:2:0:0:
356,152,16049,1,0,3:2:0:0:
370,118,16112,1,8,3:2:0:0:
356,85,16174,1,0,3:2:0:0:
322,72,16237,2,0,L|241:62,1,75,10|8,3:2|3:2,0:0:0:0:
131,68,16487,2,0,L|119:157,1,75,10|8,3:2|3:2,0:0:0:0:
240,178,16737,2,0,L|255:263,1,75,10|8,3:2|3:2,0:0:0:0:
43,322,16987,5,2,3:2:0:0:
30,286,17049,1,0,3:2:0:0:
31,249,17112,1,0,3:2:0:0:
45,215,17174,1,0,3:2:0:0:
71,188,17237,1,0,3:2:0:0:
105,172,17299,1,0,3:2:0:0:
142,170,17362,1,0,3:2:0:0:
179,167,17424,1,0,3:2:0:0:
212,150,17487,1,0,3:2:0:0:
234,120,17549,1,0,3:2:0:0:
242,84,17612,1,0,3:2:0:0:
233,47,17674,1,0,3:2:0:0:
210,18,17737,1,0,3:2:0:0:
177,2,17799,1,0,3:2:0:0:
139,1,17862,1,0,3:2:0:0:
405,49,17987,5,6,3:2:0:0:
405,49,18237,1,2,0:0:0:0:
405,49,18487,1,2,0:0:0:0:
405,49,18737,1,2,0:0:0:0:
333,71,18862,1,2,0:0:0:0:
240,84,18987,2,0,L|235:188,1,75,8|2,0:1|0:2,0:0:0:0:
338,187,19237,2,0,L|348:280,1,75,2|8,3:2|0:1,0:0:0:0:
235,269,19487,2,0,L|225:373,1,75,8|8,0:1|0:1,0:0:0:0:
445,365,19737,5,8,0:0:0:0:
234,373,19987,6,0,L|223:198,1,150,4|2,3:2|3:2,0:0:0:0:
29,124,20487,2,0,L|199:99,1,150,2|2,3:1|3:2,0:0:0:0:
397,50,20987,6,0,L|235:32,1,150,2|0,3:2|3:0,0:0:0:0:
172,108,21362,1,2,1:2:0:0:
256,57,21487,2,0,L|437:96,1,150,2|0,3:2|3:0,0:0:0:0:
167,280,21987,2,0,L|160:200,1,75,2|0,3:2|1:0,0:0:0:0:
262,217,22237,2,0,L|272:125,1,75,2|0,3:2|1:0,0:0:0:0:
379,166,22487,2,0,L|396:64,1,75,2|0,3:2|1:0,0:0:0:0:
268,117,22737,2,0,L|263:11,1,75,2|0,3:2|1:0,0:0:0:0:
404,21,22987,6,0,P|432:74|354:126,1,150,2|0,3:2|3:0,0:0:0:0:
337,146,23299,1,0,3:0:0:0:
296,148,23362,1,0,3:0:0:0:
82,162,23487,1,10,0:0:0:0:
82,162,23737,1,2,3:2:0:0:
408,281,23987,6,0,L|261:209,1,150,6|2,3:2|3:2,0:0:0:0:
192,216,24362,1,0,1:0:0:0:
281,180,24487,2,0,L|358:168,1,75,2|0,3:1|1:0,0:0:0:0:
234,116,24737,2,0,L|229:25,1,75,2|0,3:2|1:0,0:0:0:0:
365,24,24987,6,0,P|381:74|293:128,1,150,2|0,3:2|3:0,0:0:0:0:
235,149,25362,1,0,1:0:0:0:
135,202,25487,2,0,L|215:226,1,75,2|0,3:2|1:0,0:0:0:0:
329,298,25737,2,0,L|244:306,1,75,0|0,3:0|3:0,0:0:0:0:
47,315,25987,6,0,L|33:147,1,150,6|2,3:2|3:2,0:0:0:0:
268,103,26487,2,0,L|98:85,1,150,10|2,3:2|3:2,0:0:0:0:
200,64,26862,1,0,1:0:0:0:
330,58,26987,5,2,1:3:0:0:
365,64,27049,1,2,1:3:0:0:
381,96,27112,1,2,1:3:0:0:
365,129,27174,1,2,1:3:0:0:
329,135,27237,1,2,1:3:0:0:
250,141,27362,1,2,1:3:0:0:
470,179,27487,5,6,3:2:0:0:
485,212,27549,1,2,0:3:0:0:
477,248,27612,1,2,0:3:0:0:
449,272,27674,1,2,0:3:0:0:
412,274,27737,1,2,0:3:0:0:
329,275,27862,1,0,1:0:0:0:
410,318,27987,2,0,L|494:322,1,75,0|2,3:0|3:2,0:0:0:0:
242,366,28237,5,6,3:2:0:0:
155,346,28362,2,0,L|148:245,1,75,2|2,1:2|3:1,0:0:0:0:
259,261,28612,2,0,L|263:176,1,75,2|8,1:2|3:2,0:0:0:0:
142,164,28862,2,0,L|14:73,1,150,2|2,1:2|1:2,0:0:0:0:
102,48,29237,1,10,3:2:0:0:
313,44,29362,6,0,L|320:142,1,75,2|0,1:2|3:0,0:0:0:0:
210,131,29612,2,0,L|205:215,1,75,2|10,1:2|3:2,0:0:0:0:
317,237,29862,2,0,L|477:197,1,150,2|2,1:2|1:2,0:0:0:0:
377,181,30237,1,10,3:2:0:0:
167,342,30362,1,2,1:2:0:0:
76,338,30487,2,0,L|66:156,1,150,2|10,3:2|3:2,0:0:0:0:
388,77,30987,6,0,L|204:49,1,150,6|2,3:2|3:2,0:0:0:0:
115,114,31362,2,0,L|277:149,1,150,2|2,3:2|3:2,0:0:0:0:
346,171,31737,1,0,3:0:0:0:
438,248,31862,2,0,L|370:257,1,37.5,0|0,3:0|3:0,0:0:0:0:
249,325,31987,6,0,L|65:295,1,150,4|10,3:2|3:2,0:0:0:0:
205,290,32362,2,0,L|210:195,1,75,2|2,1:2|3:1,0:0:0:0:
98,206,32612,2,0,L|91:113,1,75,2|8,1:2|3:2,0:0:0:0:
206,119,32862,2,0,P|216:68|125:16,1,150,2|2,1:2|1:2,0:0:0:0:
52,27,33237,5,10,3:2:0:0:
267,181,33362,2,0,L|353:195,1,75,2|0,1:2|3:0,0:0:0:0:
221,270,33612,1,2,3:2:0:0:
183,267,33674,1,0,3:0:0:0:
146,264,33737,1,8,3:2:0:0:
234,215,33862,1,2,3:2:0:0:
456,219,33987,6,0,L|468:113,1,75,6|0,3:2|1:0,0:0:0:0:
347,153,34237,2,0,L|337:65,1,75,10|2,3:2|1:2,0:0:0:0:
219,46,34487,2,0,L|297:30,1,75,2|0,3:2|3:0,0:0:0:0:
414,62,34737,2,0,L|447:10,2,37.5,8|0|0,3:2|3:0|3:0,0:0:0:0:
178,190,34987,5,0,3:0:0:0:
368,281,35237,1,2,1:2:0:0:
175,348,35487,2,0,L|150:300,2,37.5,2|2|2,1:3|1:3|1:3,0:0:0:0:
258,352,35737,2,0,L|340:342,1,75,2|0,0:0|0:0,0:0:0:0:
110,240,35987,6,0,L|84:194,2,37.5,8|8|8,0:3|0:3|0:3,0:0:0:0:
217,207,36237,2,0,L|220:107,1,75,8|8,0:3|0:3,0:0:0:0:
326,111,36487,1,8,0:3:0:0:
279,31,36612,1,8,0:3:0:0:
241,32,36674,1,8,0:3:0:0:
204,34,36737,1,8,0:3:0:0:
116,81,36862,1,8,0:3:0:0:
353,237,36987,6,0,P|433:222|431:79,1,225,4|0,3:2|3:0,0:0:0:0:
363,73,37487,1,8,0:1:0:0:
132,294,37737,2,0,P|113:205|227:137,1,225,0|0,3:0|3:0,0:0:0:0:
299,140,38237,1,0,3:0:0:0:
78,55,38487,2,0,L|63:149,1,75,8|0,0:1|1:0,0:0:0:0:
163,127,38737,6,0,P|235:129|241:331,1,300,0|0,3:0|3:0,0:0:0:0:
185,338,39362,1,0,3:0:0:0:
83,331,39487,2,0,L|79:226,1,75,8|0,0:1|1:0,0:0:0:0:
190,245,39737,2,0,L|194:140,1,75,0|0,3:0|1:0,0:0:0:0:
67,165,39987,6,0,P|51:95|181:31,1,225,0|0,3:0|3:0,0:0:0:0:
256,28,40487,1,8,0:1:0:0:
42,163,40737,2,0,L|36:273,1,75,0|8,3:0|0:1,0:0:0:0:
247,311,40987,6,0,L|459:231,1,225,0|0,3:0|3:0,0:0:0:0:
377,203,41487,1,8,0:1:0:0:
155,235,41737,2,0,P|142:158|208:123,1,150,0|0,3:0|1:0,0:0:0:0:
278,108,42112,1,0,3:0:0:0:
366,100,42237,1,0,3:0:0:0:
137,18,42487,2,0,L|119:112,1,75,8|2,0:1|0:1,0:0:0:0:
341,202,42737,5,0,3:0:0:0:
158,354,42987,2,0,L|66:344,1,75,8|8,3:0|0:3,0:0:0:0:
264,331,43362,2,0,L|269:249,1,75,8|8,0:3|0:3,0:0:0:0:
450,202,43737,2,0,L|348:189,1,75,8|8,0:3|0:3,0:0:0:0:
154,175,43987,6,0,L|124:128,2,37.5,8|8|8,0:3|0:3|0:3,0:0:0:0:
239,206,44237,2,0,L|334:209,1,75,8|8,0:3|0:3,0:0:0:0:
211,281,44487,1,8,0:3:0:0:
104,319,44612,1,8,0:3:0:0:
141,319,44674,1,8,0:3:0:0:
179,319,44737,1,8,0:3:0:0:
281,344,44862,1,8,0:3:0:0:
40,358,44987,6,0,L|32:188,1,150,4|0,3:2|1:0,0:0:0:0:
147,168,45362,2,0,L|38:161,1,75,2|10,1:2|3:2,0:0:0:0:
186,92,45612,1,2,1:2:0:0:
223,88,45674,1,0,1:0:0:0:
260,84,45737,1,2,1:2:0:0:
345,82,45862,1,0,3:0:0:0:
135,272,45987,6,0,P|119:209|199:165,1,150,2|0,1:2|3:2,0:0:0:0:
280,163,46362,1,2,1:2:0:0:
178,152,46487,2,0,L|172:54,1,75,8|2,3:2|0:0,0:0:0:0:
284,56,46737,2,0,L|206:42,1,75,2|0,1:2|1:0,0:0:0:0:
437,110,46987,6,0,L|450:207,1,75,6|0,3:2|0:0,0:0:0:0:
341,209,47237,2,0,L|332:293,1,75,2|0,0:0|0:0,0:0:0:0:
214,313,47487,2,0,L|298:324,1,75,10|2,3:2|1:2,0:0:0:0:
386,372,47737,2,0,L|288:369,1,75,2|0,0:0|3:0,0:0:0:0:
88,369,47987,6,0,P|79:316|158:264,1,150,2|0,0:0|3:0,0:0:0:0:
237,259,48362,1,2,0:0:0:0:
144,233,48487,2,0,L|43:222,1,75,10|2,3:2|1:2,0:0:0:0:
286,157,48737,2,0,L|373:144,1,75,2|0,1:2|1:0,0:0:0:0:
128,117,48987,5,2,3:2:0:0:
23,64,49153,1,2,3:2:0:0:
132,81,49320,1,2,3:2:0:0:
257,113,49487,1,2,3:2:0:0:
154,189,49653,1,2,3:2:0:0:
28,213,49820,1,2,3:2:0:0:
290,279,49987,6,0,L|381:291,1,75,2|2,3:2|3:2,0:0:0:0:
244,360,50237,2,0,L|241:281,1,75,2|2,3:2|3:2,0:0:0:0:
454,264,50487,1,2,3:2:0:0:
469,230,50549,1,0,3:0:0:0:
460,194,50612,1,2,3:2:0:0:
431,172,50674,1,0,3:0:0:0:
394,172,50737,1,2,3:2:0:0:
310,168,50862,1,2,3:2:0:0:
89,82,50987,6,0,L|171:78,1,75,2|10,3:2|3:2,0:0:0:0:
274,81,51237,2,0,L|299:40,2,37.5,0|0|0,3:0|3:0|3:0,0:0:0:0:
71,174,51487,2,0,L|57:271,1,75,8|0,3:2|3:0,0:0:0:0:
264,272,51737,2,0,L|365:280,1,75,8|0,3:2|3:0,0:0:0:0:
121,358,51987,6,0,P|52:346|94:211,1,225,4|2,3:0|0:0,0:0:0:0:
176,194,52487,2,0,L|434:159,1,225,2|0,0:0|0:0,0:0:0:0:
152,80,52987,5,4,3:1:0:0:
83,215,53237,1,2,0:0:0:0:
166,345,53487,1,2,0:0:0:0:
250,351,53612,1,2,0:0:0:0:
336,352,53737,1,2,0:0:0:0:
458,323,54237,1,2,0:0:0:0:
455,187,54487,1,2,0:0:0:0:
449,75,54737,1,2,0:0:0:0:
214,51,54987,5,2,0:0:0:0:
196,176,55237,1,2,0:0:0:0:
398,288,55487,1,2,0:0:0:0:
406,153,55737,1,2,0:0:0:0:
198,343,55987,1,2,0:1:0:0:
49,99,56987,5,2,0:0:0:0:
15,233,57237,1,2,0:0:0:0:
66,347,57487,1,2,0:0:0:0:
270,355,57737,1,2,0:0:0:0:
66,347,57987,1,2,0:0:0:0:
56,110,58487,1,2,0:0:0:0:
66,225,58737,1,2,0:0:0:0:
281,224,58987,5,2,0:0:0:0:
289,107,59237,1,2,0:0:0:0:
94,98,59487,1,2,0:0:0:0:
79,239,59737,1,2,0:0:0:0:
290,293,59987,5,2,0:1:0:0:
256,192,60112,12,0,60737,0:0:0:0:
244,261,60987,6,0,L|245:97,1,150,4|0,3:2|1:0,0:0:0:0:
414,65,61487,2,0,L|451:145,2,75,0|0|2,3:0|1:0|1:2,0:0:0:0:
208,80,61987,2,0,L|375:144,1,150,0|2,3:0|0:0,0:0:0:0:
120,179,62487,2,0,L|106:334,1,150,2|0,3:2|1:0,0:0:0:0:
357,357,62987,6,0,L|182:326,1,150,2|0,3:2|1:0,0:0:0:0:
436,295,63487,2,0,L|450:131,1,150,0|2,3:0|1:2,0:0:0:0:
237,259,63987,2,0,L|228:83,1,150,0|2,3:0|0:0,0:0:0:0:
20,63,64487,2,0,L|102:20,1,75,2|0,3:2|1:0,0:0:0:0:
175,34,64737,1,2,1:2:0:0:
421,78,64987,6,0,L|427:242,1,150,0|2,3:0|1:2,0:0:0:0:
350,266,65362,1,0,1:0:0:0:
264,279,65487,1,0,3:0:0:0:
459,355,65737,1,2,0:0:0:0:
229,366,65987,2,0,L|221:201,1,150,0|2,3:0|1:2,0:0:0:0:
457,209,66487,2,0,L|469:51,1,150,2|2,3:2|1:2,0:0:0:0:
85,303,66987,6,0,P|62:213|323:269,1,525,4|0,3:2|0:0,0:0:0:0:
108,343,67987,6,0,L|33:353,2,75,8|0|0,0:1|3:0|3:0,0:0:0:0:
222,306,68362,2,0,L|61:286,1,150,8|0,0:1|3:0,0:0:0:0:
292,215,68737,2,0,L|396:209,1,75,8|0,3:2|0:0,0:0:0:0:
136,208,68987,6,0,P|111:141|190:96,1,150,4|2,3:2|0:0,0:0:0:0:
259,88,69362,1,2,0:0:0:0:
364,89,69487,2,0,P|395:135|318:201,1,150,8|2,0:1|0:0,0:0:0:0:
250,220,69862,1,2,0:0:0:0:
145,241,69987,6,0,L|312:291,1,150,8|2,0:1|0:0,0:0:0:0:
390,316,70362,2,0,L|230:345,1,150,2|2,0:0|0:0,0:0:0:0:
127,348,70737,2,0,L|104:307,2,37.5,2|0|2,1:2|1:0|1:2,0:0:0:0:
165,376,70924,1,0,1:0:0:0:
319,369,70987,6,0,L|500:345,1,150,6|0,3:2|0:0,0:0:0:0:
380,293,71362,2,0,L|211:279,1,150,2|2,0:0|0:0,0:0:0:0:
470,243,71862,2,0,P|480:174|303:53,1,300,2|0,0:0|0:0,0:0:0:0:
199,76,72487,2,0,L|175:123,2,37.5,2|0|2,1:2|1:0|1:2,0:0:0:0:
286,118,72737,1,2,0:0:0:0:
383,144,72862,1,2,0:0:0:0:
162,269,72987,6,0,L|-4:231,1,150,4|2,3:2|0:0,0:0:0:0:
100,205,73362,1,2,0:0:0:0:
201,193,73487,2,0,L|365:168,1,150,8|2,0:1|0:0,0:0:0:0:
267,139,73862,1,2,0:0:0:0:
41,349,73987,6,0,P|29:275|92:226,1,150,4|2,3:2|0:0,0:0:0:0:
197,229,74362,2,0,P|206:183|119:109,1,150,2|2,0:0|0:0,0:0:0:0:
33,54,74737,2,0,L|134:42,1,75,2|2,0:0|0:0,0:0:0:0:
324,99,74987,6,0,L|336:188,1,75,6|0,3:2|0:0,0:0:0:0:
231,185,75237,2,0,L|217:272,1,75,2|0,0:0|0:0,0:0:0:0:
428,244,75487,2,0,L|441:328,1,75,2|0,3:2|0:0,0:0:0:0:
330,342,75737,2,0,L|231:351,1,75,2|0,0:0|0:0,0:0:0:0:
470,371,75987,6,0,P|492:311|363:235,1,225,2|2,3:2|0:0,0:0:0:0:
267,225,76487,2,0,L|259:121,1,75,2|0,3:2|0:0,0:0:0:0:
375,136,76737,2,0,L|386:38,1,75,0|0,3:0|0:0,0:0:0:0:
146,44,76987,6,0,L|313:86,1,150,12|8,3:2|3:2,0:0:0:0:
64,144,77487,2,0,L|47:326,1,150,8|8,3:2|3:2,0:0:0:0:
248,345,77924,1,8,3:2:0:0:
292,346,77987,5,8,3:2:0:0:
329,281,78112,1,8,3:2:0:0:
292,346,78237,1,8,3:2:0:0:
56,365,78487,2,0,P|32:298|119:253,1,150,2|2,3:2|1:2,0:0:0:0:
123,244,78799,1,0,1:0:0:0:
163,244,78862,1,2,1:2:0:0:
387,128,78987,6,0,L|208:106,1,150,12|8,3:2|3:2,0:0:0:0:
459,53,79487,1,8,3:2:0:0:
492,155,79612,1,8,3:2:0:0:
459,53,79737,1,8,3:2:0:0:
374,40,79862,2,0,L|306:48,1,37.5,8|8,3:2|3:2,0:0:0:0:
181,191,79987,6,0,L|174:276,1,75,0|0,3:0|3:0,0:0:0:0:
380,340,80237,2,0,L|288:342,1,75,8|0,3:2|3:0,0:0:0:0:
186,370,80487,2,0,L|163:336,2,37.5,2|2|2,3:3|0:3|3:3,0:0:0:0:
223,373,80674,1,2,0:3:0:0:
263,373,80737,1,2,3:3:0:0:
303,363,80799,1,2,0:3:0:0:
263,373,80862,1,2,3:3:0:0:
45,228,80987,6,0,L|36:143,1,75,12|8,3:2|3:2,0:0:0:0:
148,156,81237,2,0,L|156:75,1,75,8|8,3:2|3:2,0:0:0:0:
267,56,81487,1,8,3:2:0:0:
229,50,81549,1,0,0:0:0:0:
192,44,81612,1,8,3:2:0:0:
79,63,81737,2,0,L|70:145,1,75,8|8,3:2|3:2,0:0:0:0:
282,188,81987,6,0,L|363:197,1,75,8|8,3:2|3:2,0:0:0:0:
247,281,82237,2,0,L|239:199,1,75,8|8,3:2|3:2,0:0:0:0:
353,226,82487,2,0,L|374:172,2,37.5,8|0|8,3:2|0:0|3:2,0:0:0:0:
256,272,82737,2,0,L|155:278,1,75,8|8,3:2|3:2,0:0:0:0:
407,342,82987,6,0,L|475:335,1,50,8|0,3:2|3:0,0:0:0:0:
383,301,83153,2,0,L|318:291,1,50,8|0,3:2|3:0,0:0:0:0:
257,266,83320,2,0,L|326:258,1,50,8|0,3:2|3:0,0:0:0:0:
473,250,83487,2,0,L|482:195,1,50,8|0,3:2|3:0,0:0:0:0:
409,169,83653,2,0,L|340:153,1,50,8|0,3:2|3:0,0:0:0:0:
435,126,83820,2,0,L|493:112,1,50,8|0,3:2|3:0,0:0:0:0:
309,25,83987,5,8,3:2:0:0:
272,33,84049,1,2,3:3:0:0:
256,66,84112,1,8,3:2:0:0:
272,99,84174,1,2,3:3:0:0:
308,107,84237,2,0,L|374:107,2,37.5,8|2|8,3:2|3:3|3:2,0:0:0:0:
109,212,84487,5,8,3:2:0:0:
133,241,84549,1,2,3:3:0:0:
165,261,84612,1,8,3:2:0:0:
201,270,84674,1,2,3:3:0:0:
241,281,84737,2,0,L|299:283,2,37.5,8|2|8,3:2|3:3|3:2,0:0:0:0:
30,320,84987,5,4,3:2:0:0:
30,320,85237,1,2,0:0:0:0:
198,356,85487,2,0,L|375:335,1,150,2|2,0:0|0:0,0:0:0:0:
346,247,85862,2,0,L|287:245,1,37.5,2|2,0:0|0:0,0:0:0:0:
155,257,85987,6,0,P|140:204|265:107,1,225,4|0,3:2|3:0,0:0:0:0:
368,132,86487,2,0,L|374:48,1,75,0|0,3:0|0:0,0:0:0:0:
136,37,86737,2,0,L|28:46,1,75,10|0,3:2|0:0,0:0:0:0:
306,233,86987,6,0,L|483:267,1,150,4|2,3:1|3:2,0:0:0:0:
373,292,87362,1,2,1:2:0:0:
168,356,87487,2,0,P|155:305|235:251,1,150,2|10,3:2|3:2,0:0:0:0:
316,255,87862,1,2,1:2:0:0:
105,239,87987,6,0,L|100:56,1,150,2|10,3:2|3:2,0:0:0:0:
187,62,88362,1,2,1:2:0:0:
275,60,88487,1,0,3:0:0:0:
186,41,88612,1,2,1:2:0:0:
98,27,88737,1,8,3:2:0:0:
181,18,88862,1,2,3:2:0:0:
396,162,88987,6,0,L|239:189,1,150,6|0,3:2|3:0,0:0:0:0:
160,204,89362,1,2,1:2:0:0:
370,306,89487,2,0,L|473:311,1,75,0|2,3:0|3:2,0:0:0:0:
108,361,89862,6,0,L|98:195,1,150,6|0,3:2|3:0,0:0:0:0:
304,153,90237,2,0,L|142:140,1,150,8|2,3:2|3:2,0:0:0:0:
72,117,90612,1,2,3:2:0:0:
186,62,90737,1,2,3:2:0:0:
223,64,90799,1,0,3:0:0:0:
260,66,90862,1,2,3:2:0:0:
39,240,90987,6,0,P|37:184|126:130,1,150,6|8,3:2|3:2,0:0:0:0:
185,123,91362,1,2,1:2:0:0:
395,145,91487,2,0,P|397:201|308:255,1,150,2|8,3:2|3:2,0:0:0:0:
249,262,91862,1,2,1:2:0:0:
465,335,91987,2,0,L|472:174,1,150,2|10,3:2|3:2,0:0:0:0:
378,160,92362,1,2,1:2:0:0:
276,140,92487,2,0,L|252:102,2,37.5,0|0|2,3:0|3:0|3:2,0:0:0:0:
476,63,92737,2,0,L|393:49,1,75,10|2,3:2|3:2,0:0:0:0:
185,177,92987,6,0,L|179:275,1,75,6|0,3:2|1:0,0:0:0:0:
294,265,93237,2,0,L|304:358,1,75,10|0,3:2|1:0,0:0:0:0:
87,360,93487,2,0,L|79:264,1,75,2|0,3:2|1:0,0:0:0:0:
197,265,93737,1,8,3:2:0:0:
234,259,93799,1,0,3:0:0:0:
271,253,93862,1,0,3:0:0:0:
53,197,93987,6,0,P|39:130|118:86,1,150,6|8,3:2|3:2,0:0:0:0:
187,75,94362,1,2,3:2:0:0:
432,92,94487,2,0,L|442:260,1,150,2|0,3:2|3:0,0:0:0:0:
93,356,94987,6,0,L|276:336,1,150,4|2,3:1|3:2,0:0:0:0:
330,340,95362,1,2,3:2:0:0:
117,266,95487,2,0,L|110:178,1,75,2|0,3:2|3:0,0:0:0:0:
225,169,95737,2,0,L|300:165,1,75,2|2,3:2|3:2,0:0:0:0:
70,104,95987,6,0,L|66:3,1,75,2|0,3:2|3:0,0:0:0:0:
162,23,96237,1,2,3:2:0:0:
370,92,96362,2,0,L|280:106,1,75,2|0,3:2|3:0,0:0:0:0:
189,173,96612,2,0,L|285:196,1,75,2|0,3:2|3:0,0:0:0:0:
356,211,96862,2,0,L|406:211,1,37.5,2|0,3:2|3:0,0:0:0:0:
244,349,96987,6,0,L|151:343,1,75,6|0,3:2|3:0,0:0:0:0:
257,308,97237,1,2,3:2:0:0:
477,300,97362,2,0,L|482:131,1,150,2|2,3:2|3:2,0:0:0:0:
147,76,97862,6,0,L|323:64,1,150,6|0,3:2|3:0,0:0:0:0:
191,113,98237,2,0,L|180:199,1,75,0|0,3:0|3:0,0:0:0:0:
298,196,98487,2,0,L|314:285,1,75,2|2,3:2|3:2,0:0:0:0:
94,328,98737,2,0,L|15:324,1,75,2|2,3:2|3:2,0:0:0:0:
246,360,98987,6,0,P|259:305|169:255,1,150,6|2,3:2|3:2,0:0:0:0:
106,244,99362,1,2,3:2:0:0:
310,200,99487,2,0,L|400:188,1,75,2|0,3:2|3:0,0:0:0:0:
269,177,99737,2,0,L|260:84,1,75,2|2,3:2|3:2,0:0:0:0:
481,33,99987,6,0,L|490:119,1,75,2|0,3:2|3:0,0:0:0:0:
395,117,100237,1,2,3:2:0:0:
177,220,100362,2,0,L|279:239,1,75,2|0,3:2|3:0,0:0:0:0:
341,244,100612,1,2,3:2:0:0:
128,347,100737,1,2,3:2:0:0:
88,355,100799,2,0,L|65:311,2,37.5,0|2|0,3:0|3:2|3:0,0:0:0:0:
245,361,100987,6,0,L|337:353,1,75,6|0,3:2|3:0,0:0:0:0:
208,292,101237,2,0,L|189:248,2,37.5,2|0|0,3:2|3:0|3:0,0:0:0:0:
442,199,101487,6,0,L|361:185,1,75,6|0,3:2|3:0,0:0:0:0:
138,160,101737,2,0,L|114:124,2,37.5,2|0|2,3:2|3:0|3:2,0:0:0:0:
177,166,101924,1,0,3:0:0:0:
333,75,101987,6,0,L|499:101,1,150,6|8,3:2|0:1,0:0:0:0:
398,137,102362,1,2,0:0:0:0:
178,269,102487,2,0,L|3:235,1,150,2|8,0:0|0:1,0:0:0:0:
404,347,102987,6,0,P|419:274|243:131,1,300,4|2,3:2|0:0,0:0:0:0:
85,108,103737,1,2,0:0:0:0:
278,53,103987,2,0,L|294:211,1,150,8|2,0:1|0:0,0:0:0:0:
378,231,104362,1,2,0:0:0:0:
465,251,104487,1,2,0:0:0:0:
272,351,104737,1,2,0:0:0:0:
71,355,104987,6,0,L|57:184,1,150,0|2,3:0|0:0,0:0:0:0:
285,174,105487,2,0,L|104:150,1,150,2|2,0:0|0:0,0:0:0:0:
377,66,105987,2,0,L|390:221,1,150,8|2,0:1|0:0,0:0:0:0:
310,247,106362,1,2,0:0:0:0:
223,259,106487,1,2,0:0:0:0:
413,351,106737,1,2,0:0:0:0:
167,371,106987,6,0,P|145:302|320:179,1,300,2|2,3:2|0:0,0:0:0:0:
493,171,107737,1,2,0:0:0:0:
260,40,107987,2,0,L|99:51,1,150,8|2,0:1|0:0,0:0:0:0:
186,113,108362,1,2,0:0:0:0:
278,128,108487,1,2,0:0:0:0:
73,240,108737,1,2,0:0:0:0:
306,348,108987,6,0,L|316:193,1,150,0|2,3:0|0:0,0:0:0:0:
95,143,109487,2,0,L|58:74,2,75,2|0|2,3:2|0:0|0:0,0:0:0:0:
330,39,109987,6,0,L|161:61,1,150,8|0,3:1|3:0,0:0:0:0:
408,141,110487,2,0,L|499:157,1,75,8|0,3:1|3:0,0:0:0:0:
266,312,110737,2,0,L|254:213,1,75,8|8,3:1|3:1,0:0:0:0:
481,273,110987,6,0,P|481:208|386:164,1,150,6|10,3:2|0:0,0:0:0:0:
329,157,111362,1,2,0:0:0:0:
226,163,111487,2,0,P|208:118|296:61,1,150,10|8,0:0|0:0,0:0:0:0:
364,55,111862,1,2,0:0:0:0:
273,55,111987,6,0,L|94:82,1,150,10|10,0:0|0:0,0:0:0:0:
214,117,112362,2,0,L|372:134,2,150,2|2|2,0:0|0:0|0:0,0:0:0:0:
13,243,112987,6,0,L|179:272,1,150,4|10,3:2|0:0,0:0:0:0:
274,306,113362,2,0,L|285:218,1,75,2|8,3:2|3:2,0:0:0:0:
163,188,113612,2,0,L|149:108,1,75,2|8,3:2|3:2,0:0:0:0:
369,177,113862,6,0,P|386:135|310:70,1,150,6|0,3:2|0:0,0:0:0:0:
234,65,114237,1,8,0:0:0:0:
476,33,114487,1,10,3:2:0:0:
481,128,114612,1,2,0:0:0:0:
442,146,114674,1,8,0:0:0:0:
401,150,114737,1,10,3:2:0:0:
313,171,114862,1,10,0:0:0:0:
95,336,114987,5,6,3:2:0:0:
50,230,115112,1,0,3:0:0:0:
95,140,115237,1,2,3:2:0:0:
192,115,115362,1,2,3:2:0:0:
95,140,115487,1,2,3:2:0:0:
50,230,115612,1,0,3:0:0:0:
95,336,115737,1,2,3:2:0:0:
192,115,115862,1,2,3:2:0:0:
316,173,115987,5,0,3:3:0:0:
326,137,116049,1,0,3:3:0:0:
316,102,116112,1,0,3:3:0:0:
287,78,116174,1,0,3:3:0:0:
251,73,116237,1,0,3:3:0:0:
139,43,116362,5,0,3:3:0:0:
102,47,116425,1,0,3:3:0:0:
74,71,116487,1,0,3:3:0:0:
63,107,116550,1,0,3:3:0:0:
74,142,116612,1,0,3:3:0:0:
156,193,116737,1,0,3:3:0:0:
240,223,116862,1,0,3:3:0:0:
472,336,116987,6,0,L|480:178,1,150,4|2,3:2|0:0,0:0:0:0:
260,350,117487,2,0,L|246:182,1,150,2|2,0:1|0:0,0:0:0:0:
24,98,117987,6,0,L|157:97,2,112.5,2|2|2,3:2|3:2|3:2,0:0:0:0:
147,200,118487,1,2,3:2:0:0:
192,200,118549,2,0,L|214:155,2,37.5,0|0|0,3:0|3:0|3:0,0:0:0:0:
41,275,118737,6,0,L|35:195,1,75,8|0,3:2|0:0,0:0:0:0:
287,78,118987,6,0,L|462:92,1,150,4|2,3:1|3:2,0:0:0:0:
352,144,119362,1,2,1:2:0:0:
132,231,119487,2,0,P|116:167|193:129,1,150,2|10,3:2|3:2,0:0:0:0:
257,123,119862,1,2,1:2:0:0:
468,278,119987,2,0,L|290:305,1,150,2|10,3:2|3:2,0:0:0:0:
215,316,120362,2,0,L|205:212,1,75,2|0,1:2|3:0,0:0:0:0:
320,211,120612,2,0,L|404:202,1,75,2|8,1:2|3:2,0:0:0:0:
290,174,120862,1,2,3:2:0:0:
82,232,120987,6,0,P|65:167|152:123,1,150,6|0,3:2|3:0,0:0:0:0:
210,101,121362,1,2,1:2:0:0:
424,34,121487,2,0,L|349:26,1,75,0|2,3:0|3:2,0:0:0:0:
24,360,121862,6,0,L|202:333,1,150,6|0,3:2|3:0,0:0:0:0:
281,269,122237,2,0,L|119:251,1,150,8|2,3:2|3:2,0:0:0:0:
44,260,122612,1,2,3:2:0:0:
266,177,122737,2,0,L|305:124,2,37.5,2|0|2,3:2|3:0|3:2,0:0:0:0:
43,172,122987,6,0,P|24:114|94:73,1,150,6|8,3:2|3:2,0:0:0:0:
168,72,123362,1,2,1:2:0:0:
378,246,123487,2,0,L|198:224,1,150,2|8,3:2|3:2,0:0:0:0:
142,244,123862,1,2,1:2:0:0:
372,356,123987,6,0,P|393:295|299:263,1,150,2|10,3:2|3:2,0:0:0:0:
241,240,124362,1,2,1:2:0:0:
134,224,124487,2,0,L|108:175,2,37.5,0|0|2,3:0|3:0|3:2,0:0:0:0:
363,168,124737,2,0,L|454:163,1,75,10|2,3:2|3:2,0:0:0:0:
200,148,124987,6,0,L|194:70,1,75,6|0,3:2|1:0,0:0:0:0:
307,55,125237,2,0,L|406:47,1,75,10|0,3:2|1:0,0:0:0:0:
138,284,125487,6,0,L|50:271,1,75,2|0,3:2|3:0,0:0:0:0:
107,243,125674,1,0,3:0:0:0:
152,239,125737,2,0,L|245:231,1,75,8|0,3:2|3:0,0:0:0:0:
448,251,125987,6,0,L|468:214,2,37.5,6|0|0,3:2|3:0|3:0,0:0:0:0:
373,287,126237,1,8,3:2:0:0:
283,304,126362,1,2,3:2:0:0:
58,341,126487,2,0,L|43:159,1,150,2|2,3:2|3:2,0:0:0:0:
374,128,126987,6,0,L|216:112,1,150,4|2,3:1|3:2,0:0:0:0:
130,56,127362,2,0,L|195:33,1,37.5,2|0,3:2|3:0,0:0:0:0:
327,51,127487,6,0,L|486:74,1,150,4|2,3:1|3:2,0:0:0:0:
388,142,127862,2,0,L|324:146,1,37.5,2|0,3:2|3:0,0:0:0:0:
186,276,127987,6,0,P|177:220|265:186,1,150,4|2,3:1|3:2,0:0:0:0:
337,124,128362,2,0,L|277:120,1,37.5,2|0,3:2|3:0,0:0:0:0:
150,59,128487,2,0,L|61:59,1,75,0|2,3:0|3:2,0:0:0:0:
283,231,128737,2,0,L|306:193,2,37.5,0|0|2,3:0|3:0|3:2,0:0:0:0:
245,244,128924,1,0,3:0:0:0:
90,271,128987,6,0,L|38:277,2,37.5,6|0|0,3:2|3:0|3:0,0:0:0:0:
175,323,129237,1,2,3:2:0:0:
396,353,129362,2,0,L|406:173,1,150,2|2,3:2|3:2,0:0:0:0:
72,104,129862,6,0,L|250:78,1,150,6|0,3:2|3:0,0:0:0:0:
312,82,130237,1,0,3:0:0:0:
222,172,130362,1,0,3:0:0:0:
122,188,130487,1,2,3:2:0:0:
332,259,130612,2,0,L|359:210,2,37.5,2|0|2,3:2|3:0|3:2,0:0:0:0:
243,269,130862,1,2,3:2:0:0:
460,303,130987,6,0,L|501:308,2,37.5,4|0|0,3:1|3:0|3:0,0:0:0:0:
355,231,131237,1,2,3:2:0:0:
458,301,131362,1,2,3:2:0:0:
240,152,131487,6,0,L|199:157,2,37.5,4|0|0,3:1|3:0|3:0,0:0:0:0:
345,80,131737,1,2,3:2:0:0:
242,150,131862,1,2,3:2:0:0:
23,93,131987,6,0,L|65:69,1,37.5,4|0,3:1|3:0,0:0:0:0:
97,71,132112,1,0,3:0:0:0:
190,73,132237,1,2,3:2:0:0:
419,212,132362,1,2,3:2:0:0:
426,329,132487,5,0,3:0:0:0:
388,331,132549,1,0,3:0:0:0:
351,333,132612,1,2,3:2:0:0:
117,258,132737,2,0,L|88:209,2,37.5,2|0|2,3:2|3:0|3:2,0:0:0:0:
158,266,132924,1,0,3:0:0:0:
316,176,132987,6,0,L|345:127,2,37.5,6|0|0,3:2|3:0|3:0,0:0:0:0:
275,184,133174,1,0,3:0:0:0:
225,183,133237,2,0,L|196:134,2,37.5,2|0|0,3:2|3:0|3:0,0:0:0:0:
266,191,133424,1,0,3:0:0:0:
416,291,133487,6,0,L|445:242,2,37.5,6|0|0,3:2|3:0|3:0,0:0:0:0:
375,299,133674,1,0,3:0:0:0:
327,310,133737,1,2,3:2:0:0:
364,315,133799,1,0,3:0:0:0:
401,320,133862,1,2,3:2:0:0:
438,326,133924,1,0,3:0:0:0:
276,377,133987,6,0,L|46:283,1,225,6|2,3:2|0:0,0:0:0:0:
170,259,134487,2,0,L|417:211,1,225,2|0,3:2|0:0,0:0:0:0:
114,161,134987,5,4,3:2:0:0:
103,57,135237,1,2,0:0:0:0:
186,46,135362,1,2,0:0:0:0:
287,52,135487,5,2,0:1:0:0:
137,171,135737,1,2,0:0:0:0:
217,194,135862,1,2,0:0:0:0:
310,213,135987,5,2,0:0:0:0:
334,339,136237,1,2,0:0:0:0:
227,349,136362,6,0,L|69:322,1,150,2|2,0:0|0:0,0:0:0:0:
168,278,136737,1,2,0:0:0:0:
270,270,136862,1,2,0:0:0:0:
45,223,136987,6,0,L|38:63,1,150,6|2,3:2|3:2,0:0:0:0:
130,62,137362,1,0,3:0:0:0:
353,126,137487,2,0,L|191:152,1,150,6|2,3:2|3:2,0:0:0:0:
112,156,137862,1,2,3:2:0:0:
343,249,137987,6,0,L|426:262,1,75,6|0,3:2|3:0,0:0:0:0:
197,345,138237,2,0,L|180:310,2,37.5,0|0|2,3:0|3:0|3:2,0:0:0:0:
239,353,138424,1,0,3:0:0:0:
404,359,138487,5,6,3:2:0:0:
