osu file format v14

[General]
AudioFilename: audio.mp3
AudioLeadIn: 0
PreviewTime: 165626
Countdown: 0
SampleSet: Soft
StackLeniency: 0.7
Mode: 0
LetterboxInBreaks: 0
WidescreenStoryboard: 1

[Editor]
Bookmarks: 24971,51200,73495,83987,93167,110216,132512,144315,166610,188905
DistanceSpacing: 1
BeatDivisor: 4
GridSize: 8
TimelineZoom: 2.5

[Metadata]
Title:Little Star (Full ver.)
TitleUnicode:Little Star (Full ver.)
Artist:REDALiCE feat. Ayumi Nomiya
ArtistUnicode:REDALiCE feat. Ayumi Nomiya
Creator:Enon
Version:Collab Insane
Source:beatmania IIDX 20 tricoro
Tags:j-core jubeat jukebeat plus saucer 野宮あゆみ omc 8 osu fan cafe mapping contest Kaguya_Sama Riana Cellina Reana mayle_5 Sonnyc japanese electronic
BeatmapID:3203389
BeatmapSetID:1567641

[Difficulty]
HPDrainRate:5
CircleSize:4
OverallDifficulty:7
ApproachRate:9
SliderMultiplier:1.75
SliderTickRate:1

[Events]
//Background and Video events
0,0,"Little Star.jpg",0,0
//Break Periods
2,84186,92567
2,133823,143715
//Storyboard Layer 0 (Background)
//Storyboard Layer 1 (Fail)
//Storyboard Layer 2 (Pass)
//Storyboard Layer 3 (Foreground)
//Storyboard Layer 4 (Overlay)
//Storyboard Sound Samples

[TimingPoints]
53,327.868852459016,4,2,2,60,1,0
1036,-133.333333333333,4,2,2,60,0,0
2675,-116.279069767442,4,2,2,60,0,0
12512,-200,4,2,2,60,0,0
13331,-90.9090909090909,4,2,2,60,0,0
14151,-90.9090909090909,4,2,2,70,0,0
14479,-90.9090909090909,4,2,2,90,0,0
18413,-83.3333333333333,4,2,2,90,0,0
19069,-90.9090909090909,4,2,2,90,0,0
23659,-111.111111111111,4,2,2,90,0,0
24315,-133.333333333333,4,2,2,90,0,0
24971,-133.333333333333,4,2,2,75,0,0
25626,-111.111111111111,4,2,2,75,0,0
26282,-133.333333333333,4,2,2,75,0,0
28249,-111.111111111111,4,2,2,75,0,0
28905,-133.333333333333,4,2,2,75,0,0
30872,-111.111111111111,4,2,2,75,0,0
31528,-133.333333333333,4,2,2,75,0,0
33495,-111.111111111111,4,2,2,75,0,0
34151,-86.9565217391304,4,2,2,75,0,0
34807,-100,4,2,2,75,0,0
35462,-100,4,2,2,85,0,0
39397,-83.3333333333333,4,2,2,85,0,0
40708,-100,4,2,2,85,0,0
43331,-76.9230769230769,4,2,2,85,0,0
50216,-76.9230769230769,4,2,2,70,0,0
50544,-76.9230769230769,4,2,2,75,0,0
50872,-76.9230769230769,4,2,2,80,0,0
51200,-90.9090909090909,4,2,2,100,0,1
59069,-76.9230769230769,4,2,2,100,0,1
61200,-111.111111111111,4,2,2,100,0,1
61692,-90.9090909090909,4,2,2,100,0,1
72184,-90.9090909090909,4,2,2,70,0,1
73495,-90.9090909090909,4,2,2,90,0,0
77430,-83.3333333333333,4,2,2,90,0,0
78741,-90.9090909090909,4,2,2,90,0,0
82675,-83.3333333333333,4,2,2,90,0,0
83331,-133.333333333333,4,2,2,90,0,0
83987,-133.333333333333,4,2,2,60,0,0
88577,-133.333333333333,4,2,2,75,0,0
89233,-133.333333333333,4,2,2,70,0,0
93167,-86.9565217391304,4,2,2,70,0,0
93823,-111.111111111111,4,2,2,70,0,0
94479,-86.9565217391304,4,2,2,85,0,0
98413,-86.9565217391304,4,2,2,75,0,0
99725,-83.3333333333333,4,2,2,75,0,0
102348,-76.9230769230769,4,2,2,75,0,0
104315,-76.9230769230769,4,2,2,85,0,0
106282,-76.9230769230769,4,2,2,80,0,0
107020,-76.9230769230769,4,2,2,85,0,0
109233,-76.9230769230769,4,2,2,70,0,0
109561,-76.9230769230769,4,2,2,75,0,0
109889,-76.9230769230769,4,2,2,80,0,0
110216,-133.333333333333,4,2,2,80,0,1
110217,-133.333333333333,4,2,2,100,0,1
111200,-90.9090909090909,4,2,2,100,0,1
118085,-76.9230769230769,4,2,2,100,0,1
120216,-111.111111111111,4,2,2,100,0,1
120708,-90.9090909090908,4,2,2,100,0,1
131200,-90.9090909090908,4,2,2,70,0,1
132512,-90.9090909090908,4,2,2,70,0,0
144315,-200,4,2,2,75,0,0
153331,-111.111111111111,4,2,2,80,0,0
153659,-90.9090909090909,4,2,2,80,0,0
154807,-111.111111111111,4,2,2,80,0,0
158741,-86.9565217391304,4,2,2,80,0,0
160052,-111.111111111111,4,2,2,75,0,0
161364,-111.111111111111,4,2,2,85,0,0
165626,-111.111111111111,4,2,2,70,0,0
165954,-111.111111111111,4,2,2,75,0,0
166282,-111.111111111111,4,2,2,80,0,0
166610,-90.9090909090908,4,2,2,85,0,1
174479,-76.9230769230769,4,2,2,100,0,1
174807,-90.9090909090908,4,2,2,100,0,1
176446,-90.9090909090908,4,2,2,85,0,1
176610,-111.111111111111,4,2,2,85,0,1
177102,-133.333333333333,4,2,2,85,0,1
177430,-90.9090909090909,4,2,2,100,0,1
187593,-90.9090909090909,4,2,2,70,0,1
188905,-200,4,2,2,90,0,0
189397,-90.9090909090909,4,2,2,90,0,0

[Colours]
Combo1 : 252,177,146
Combo2 : 251,79,108
Combo3 : 225,47,128
Combo4 : 251,176,188

[HitObjects]
259,60,1036,6,0,P|130:83|109:80,2,131.25000500679
383,15,2020,2,0,P|365:66|362:96,1,65.6250025033952,0|0,0:0|0:0,0:0:0:0:
369,142,2348,2,0,P|333:100|309:83,1,65.6250025033952,0|0,0:0|0:0,0:0:0:0:
260,61,2675,6,0,P|192:91|207:183,1,150.500002296448,6|2,3:2|0:0,0:0:0:0:
162,230,3167,2,0,P|230:260|215:352,1,150.500002296448,2|2,0:0|0:0,0:0:0:0:
378,372,3823,1,0,0:0:0:0:
437,325,3987,2,0,P|446:270|453:238,1,75.2500011482239,2|0,0:0|0:0,0:0:0:0:
382,216,4315,2,0,P|376:178|368:141,1,75.2500011482239,2|0,0:0|0:0,0:0:0:0:
404,75,4643,2,0,P|317:83|242:47,1,150.500002296448,2|2,0:0|0:0,0:0:0:0:
113,20,5298,6,0,P|62:33|55:86,2,112.875001722336,2|2|2,0:0|0:0|0:0,0:0:0:0:
189,30,5954,2,0,L|159:200,1,150.500002296448,2|2,0:0|0:0,0:0:0:0:
202,242,6446,1,2,0:0:0:0:
143,289,6610,2,0,L|3:275,2,112.875001722336,2|2|2,0:0|0:0|0:0,0:0:0:0:
179,355,7266,1,2,0:0:0:0:
179,355,7921,6,0,P|229:299|310:281,1,150.500002296448,2|2,0:0|0:0,0:0:0:0:
373,262,8413,2,0,P|299:246|243:185,1,150.500002296448,2|2,0:0|0:0,0:0:0:0:
175,61,9069,1,0,0:0:0:0:
155,133,9233,2,0,P|169:204|167:243,1,75.2500011482239,2|0,0:0|0:0,0:0:0:0:
247,194,9561,2,0,P|233:123|235:84,1,75.2500011482239,2|0,0:0|0:0,0:0:0:0:
307,107,9889,2,0,P|354:117|401:16,1,150.500002296448,2|2,0:0|0:0,0:0:0:0:
492,169,10544,6,0,P|485:206|482:244,1,75.2500011482239,2|0,0:0|0:0,0:0:0:0:
482,320,10872,2,0,P|445:313|407:310,1,75.2500011482239,2|0,0:0|0:0,0:0:0:0:
341,272,11200,2,0,P|278:283|223:352,1,150.500002296448,2|2,0:0|0:0,0:0:0:0:
144,218,11856,2,0,P|141:161|135:105,2,112.875001722336,2|2|2,0:0|0:0|0:0,0:0:0:0:
178,245,12512,6,0,P|98:273|17:218,1,175,2|0,0:0|0:0,0:0:0:0:
27,134,13331,6,0,P|24:77|18:21,1,96.250002937317,0|0,3:0|0:0,0:0:0:0:
111,3,13659,1,0,3:0:0:0:
135,105,13823,1,0,3:0:0:0:
135,105,13905,1,0,3:0:0:0:
135,105,13987,2,0,P|131:153|129:202,2,96.250002937317,0|0|0,3:0|3:0|3:0,0:0:0:0:
213,48,14479,6,0,P|245:84|394:92,1,192.500005874634,4|8,3:2|0:0,0:0:0:0:
472,66,14971,1,0,0:0:0:0:
401,173,15134,1,0,3:0:0:0:
512,251,15298,1,0,0:0:0:0:
512,251,15380,1,0,0:0:0:0:
512,251,15462,2,0,P|497:317|492:369,1,96.250002937317,8|2,0:0|0:0,0:0:0:0:
337,249,15790,6,0,P|330:201|318:154,1,96.250002937317,2|0,3:2|0:0,0:0:0:0:
472,66,16118,2,0,P|460:112|453:160,1,96.250002937317,8|0,0:0|0:0,0:0:0:0:
262,84,16446,2,0,P|168:75|110:2,1,192.500005874634,0|8,3:0|0:0,0:0:0:0:
20,38,16938,1,0,0:0:0:0:
20,38,17020,1,0,0:0:0:0:
20,38,17102,6,0,P|30:89|35:159,1,96.250002937317,0|2,3:0|0:0,0:0:0:0:
25,154,17348,2,0,P|76:144|146:139,1,96.250002937317,2|0,0:0|0:0,0:0:0:0:
132,120,17593,1,0,0:0:0:0:
211,200,17757,2,0,P|279:262|266:353,1,192.500005874634,0|8,3:0|0:0,0:0:0:0:
187,297,18249,1,0,0:0:0:0:
32,384,18413,6,0,B|95:389|95:389|129:376|129:376|192:382,2,157.499995193482,8|8|8,0:0|0:0|0:0,0:0:0:0:
25,311,19069,2,0,P|72:232|24:153,1,192.500005874634,8|0,0:0|3:0,0:0:0:0:
24,153,19479,1,0,3:0:0:0:
24,153,19561,1,0,3:0:0:0:
24,153,19643,1,0,3:0:0:0:
24,153,19725,6,0,P|105:143|157:45,1,192.500005874634,4|8,3:2|0:0,0:0:0:0:
240,5,20216,1,0,0:0:0:0:
170,131,20380,1,0,3:0:0:0:
306,112,20544,1,0,0:0:0:0:
306,112,20626,1,0,0:0:0:0:
306,112,20708,2,0,P|292:173|280:235,1,96.250002937317,8|2,0:0|0:0,0:0:0:0:
258,369,21036,6,0,P|249:322|220:284,1,96.250002937317,2|0,3:2|0:0,0:0:0:0:
403,137,21364,2,0,P|374:175|365:222,1,96.250002937317,8|0,0:0|0:0,0:0:0:0:
188,207,21692,2,0,P|96:218|23:124,1,192.500005874634,0|8,3:0|0:0,0:0:0:0:
7,58,22184,1,0,0:0:0:0:
105,23,22348,5,0,3:0:0:0:
105,23,22430,1,0,3:0:0:0:
105,23,22512,1,0,3:0:0:0:
105,23,22593,1,0,3:0:0:0:
105,23,22675,2,0,L|98:119,1,96.250002937317,8|0,3:2|3:0,0:0:0:0:
41,331,23003,6,0,P|18:253|-9:223,1,96.250002937317,0|0,3:0|3:0,0:0:0:0:
219,117,23331,2,0,P|195:158|187:206,1,96.250002937317,8|0,3:2|3:0,0:0:0:0:
122,381,23659,6,0,L|130:263,2,118.124996395111,8|8|8,0:0|0:0|0:0,0:0:0:0:
41,331,24315,1,8,0:0:0:0:
187,206,24643,1,0,3:0:0:0:
187,206,24725,1,0,3:0:0:0:
187,206,24807,1,0,3:0:0:0:
187,206,24889,1,0,3:0:0:0:
187,206,24971,6,0,P|256:196|301:240,1,131.25000500679,6|0,3:2|0:0,0:0:0:0:
442,217,25462,2,0,L|448:264,1,32.8125012516976,2|0,3:2|0:0,0:0:0:0:
387,299,25626,2,0,P|405:225|421:139,1,157.499995193482,8|2,0:0|0:0,0:0:0:0:
146,64,26282,6,0,P|136:20|126:-16,1,65.6250025033952,2|0,3:2|0:0,0:0:0:0:
205,129,26528,2,0,P|248:142|284:151,1,65.6250025033952,0|0,3:0|0:0,0:0:0:0:
123,148,26774,2,0,P|89:178|63:205,1,65.6250025033952,0|10,3:0|0:0,0:0:0:0:
211,121,27102,5,0,0:0:0:0:
140,68,27266,1,2,3:2:0:0:
131,151,27430,1,2,3:2:0:0:
271,253,27593,6,0,P|202:243|157:287,1,131.25000500679,2|0,3:2|3:0,0:0:0:0:
16,264,28085,2,0,L|10:311,1,32.8125012516976,2|0,0:2|0:0,0:0:0:0:
71,346,28249,2,0,P|52:272|37:186,1,157.499995193482,8|2,0:0|0:0,0:0:0:0:
187,47,28905,5,8,0:0:0:0:
175,161,29069,1,8,0:0:0:0:
165,269,29233,1,8,0:0:0:0:
344,357,29561,6,0,L|379:351,1,32.8125012516976,0|0,3:0|0:0,0:0:0:0:
424,296,29725,1,0,3:0:0:0:
424,296,29807,1,0,3:0:0:0:
424,296,29889,2,0,L|459:290,1,32.8125012516976,0|0,3:0|0:0,0:0:0:0:
507,233,30052,2,0,P|510:210|513:198,1,32.8125012516976,0|0,3:0|0:0,0:0:0:0:
429,199,30216,6,0,P|360:189|289:179,1,131.25000500679,6|0,3:2|0:0,0:0:0:0:
266,36,30708,2,0,L|219:30,1,32.8125012516976,2|0,3:2|0:0,0:0:0:0:
184,91,30872,2,0,P|257:72|344:57,1,157.499995193482,10|2,0:0|0:0,0:0:0:0:
139,316,31528,6,0,P|149:360|159:396,1,65.6250025033952,2|0,3:2|0:0,0:0:0:0:
80,251,31774,2,0,P|36:237|0:228,1,65.6250025033952,0|0,3:0|0:0,0:0:0:0:
162,232,32020,2,0,P|195:201|221:174,1,65.6250025033952,0|10,3:0|0:0,0:0:0:0:
83,237,32347,5,0,0:0:0:0:
167,244,32511,1,2,3:2:0:0:
123,314,32675,1,2,3:2:0:0:
243,371,32839,6,0,P|312:361|383:351,1,131.25000500679,2|0,3:2|3:0,0:0:0:0:
406,208,33331,2,0,L|453:202,1,32.8125012516976,2|0,0:0|0:0,0:0:0:0:
488,263,33495,2,0,P|414:244|328:229,1,157.499995193482,8|2,0:0|0:0,0:0:0:0:
239,254,33987,5,2,3:2:0:0:
162,193,34151,2,0,P|114:103|81:25,2,150.937502878904,8|8|8,0:0|0:0|0:0,0:0:0:0:
261,160,34807,2,0,P|282:104|305:60,1,87.5,0|0,3:0|3:0,0:0:0:0:
407,0,35134,5,2,3:2:0:0:
407,0,35216,1,0,3:0:0:0:
407,0,35298,1,2,3:2:0:0:
407,0,35380,1,0,3:0:0:0:
407,0,35462,2,0,P|420:65|475:189,1,175,6|10,3:2|0:0,0:0:0:0:
510,284,35954,1,0,0:0:0:0:
394,279,36118,6,0,P|346:223|315:219,1,87.5,0|2,3:0|0:0,0:0:0:0:
254,243,36364,1,2,0:0:0:0:
254,243,36446,2,0,P|205:332|193:343,1,87.5,10|2,0:0|0:0,0:0:0:0:
73,221,36774,6,0,P|164:190|204:160,1,131.25,2|0,3:2|0:0,0:0:0:0:
224,88,37102,2,0,P|267:131|277:176,1,87.5,10|2,0:2|0:0,0:0:0:0:
251,245,37430,5,0,3:0:0:0:
351,292,37593,1,2,0:0:0:0:
351,292,37675,1,2,0:0:0:0:
351,292,37757,2,0,P|398:257|456:245,1,87.5,10|2,0:0|0:0,0:0:0:0:
493,163,38085,6,0,P|509:70|517:37,1,87.5,2|0,3:2|0:0,0:0:0:0:
507,76,38331,1,0,0:0:0:0:
507,76,38413,1,10,0:0:0:0:
389,202,38577,6,0,P|330:128|240:126,1,175,2|0,0:0|0:0,0:0:0:0:
167,189,39069,1,10,0:0:0:0:
167,189,39151,1,0,0:0:0:0:
167,189,39233,1,0,0:0:0:0:
263,317,39397,6,0,P|347:302|484:275,1,209.999993591309,14|10,0:0|0:0,0:0:0:0:
362,339,39889,2,0,P|277:324|131:302,1,209.999993591309,2|0,3:2|3:0,0:0:0:0:
0,320,40380,5,2,3:2:0:0:
0,320,40462,1,0,3:0:0:0:
0,320,40544,1,2,3:2:0:0:
0,320,40626,1,0,3:0:0:0:
0,320,40708,2,0,P|61:296|112:187,1,175,6|10,3:2|0:0,0:0:0:0:
13,105,41200,1,2,0:0:0:0:
160,71,41364,6,0,P|96:130|100:159,1,87.5,0|2,3:0|0:0,0:0:0:0:
180,146,41610,1,2,0:0:0:0:
180,146,41692,2,0,P|269:195|287:212,1,87.5,10|2,0:0|0:0,0:0:0:0:
437,176,42020,6,0,P|490:185|507:187,3,43.75,2|0|0|0,3:2|3:0|3:0|3:0,0:0:0:0:
371,127,42348,2,0,P|347:131|322:135,3,43.75,2|0|2|0,3:2|3:0|3:2|3:0,0:0:0:0:
448,97,42675,2,0,P|501:106|518:108,3,43.75,0|0|0|0,3:0|3:0|3:0|3:0,0:0:0:0:
377,43,43003,5,2,3:2:0:0:
315,146,43167,1,0,3:0:0:0:
236,45,43331,6,0,P|207:117|138:168,1,113.749994792938,10|0,0:0|0:0,0:0:0:0:
130,192,43577,2,0,P|208:180|287:214,1,113.749994792938,10|0,0:0|0:0,0:0:0:0:
317,231,43823,1,10,0:0:0:0:
200,384,43987,6,0,P|206:356|213:328,6,56.8749973964692,2|2|2|2|2|2|2,0:0|0:0|0:0|0:0|0:0|0:0|0:0,0:0:0:0:
345,180,44643,6,0,P|397:238|480:262,1,113.749994792938,10|0,0:0|0:0,0:0:0:0:
495,282,44889,2,0,P|419:298|357:357,1,113.749994792938,10|0,0:0|0:0,0:0:0:0:
333,383,45135,1,10,0:0:0:0:
224,253,45298,6,0,P|187:238|148:230,2,56.8749973964692,0|0|0,3:0|3:0|3:0,0:0:0:0:
144,308,45544,1,0,3:0:0:0:
144,308,45626,2,0,P|170:319|197:327,2,56.8749973964692,8|8|0,0:0|0:0|3:0,0:0:0:0:
335,203,45954,6,0,P|387:145|470:121,1,113.749994792938,10|0,0:0|0:0,0:0:0:0:
485,101,46200,2,0,P|408:85|346:26,1,113.749994792938,10|0,0:0|0:0,0:0:0:0:
323,0,46446,1,10,0:0:0:0:
193,33,46610,6,0,P|187:61|180:89,3,56.8749973964692,0|0|0|0,3:0|0:0|3:0|0:0,0:0:0:0:
97,111,46938,2,0,P|103:139|110:167,1,56.8749973964692,8|0,0:0|0:0,0:0:0:0:
188,210,47102,5,0,3:0:0:0:
188,210,47184,1,0,0:0:0:0:
188,210,47266,6,0,P|265:166|315:155,1,113.749994792938,10|0,0:0|0:0,0:0:0:0:
303,57,47512,6,0,P|369:116|394:160,1,113.749994792938,8|0,0:0|0:0,0:0:0:0:
487,118,47757,6,0,P|451:198|417:236,1,113.749994792938,10|0,0:0|0:0,0:0:0:0:
478,312,48003,6,0,P|391:302|344:281,1,113.749994792938,8|0,0:0|0:0,0:0:0:0:
267,384,48249,6,0,P|259:340|261:315,1,56.8749973964692,10|0,0:0|0:0,0:0:0:0:
258,306,48413,2,0,P|277:265|294:246,1,56.8749973964692,2|0,3:2|0:0,0:0:0:0:
256,192,48577,12,2,49889,3:2:0:0:
75,80,50216,5,2,0:0:0:0:
154,90,50544,1,2,0:0:0:0:
233,100,50872,1,2,0:0:0:0:
312,110,51200,6,0,P|362:117|420:123,1,96.250002937317,6|2,3:2|0:0,0:0:0:0:
407,121,51446,1,0,0:0:0:0:
407,121,51528,1,8,0:0:0:0:
319,295,51692,2,0,P|297:247|316:195,1,96.250002937317,2|2,0:0|3:2,0:0:0:0:
456,316,52020,5,2,0:0:0:0:
382,244,52184,1,10,0:0:0:0:
481,215,52348,1,2,0:0:0:0:
376,371,52512,5,2,3:2:0:0:
376,371,52675,2,0,P|305:381|241:391,1,96.250002937317,2|8,0:0|0:0,0:0:0:0:
102,303,53003,2,0,P|173:313|237:323,1,96.250002937317,2|0,0:0|3:0,0:0:0:0:
264,191,53331,1,2,0:0:0:0:
200,133,53495,2,0,P|168:187|184:243,1,96.250002937317,10|0,0:0|0:0,0:0:0:0:
264,191,53823,6,0,P|223:92|253:38,1,144.375004405975,2|0,3:2|0:0,0:0:0:0:
233,62,54151,1,10,0:0:0:0:
377,25,54315,2,0,P|334:64|331:122,1,96.250002937317,2|0,0:0|3:0,0:0:0:0:
433,206,54643,5,2,0:0:0:0:
408,105,54807,1,10,0:0:0:0:
507,134,54971,1,2,0:0:0:0:
433,206,55134,5,0,3:0:0:0:
431,225,55216,1,0,0:0:0:0:
429,244,55298,1,2,0:0:0:0:
427,263,55380,1,2,0:0:0:0:
425,282,55462,2,0,P|421:306|419:346,3,48.1250014686585,10|0|0|0,0:0|0:0|0:0|0:0,0:0:0:0:
343,373,55790,2,0,P|339:349|337:309,3,48.1250014686585,2|2|2|2,3:2|0:0|0:0|0:0,0:0:0:0:
348,300,56118,1,10,0:0:0:0:
188,365,56282,1,2,3:2:0:0:
246,289,56446,6,0,P|237:216|233:166,1,96.250002937317,2|2,3:2|0:0,0:0:0:0:
234,193,56692,1,0,0:0:0:0:
234,193,56774,1,8,0:0:0:0:
188,28,56938,2,0,P|158:68|165:125,1,96.250002937317,2|2,0:0|3:2,0:0:0:0:
345,182,57266,5,2,0:0:0:0:
385,86,57430,1,10,0:0:0:0:
283,99,57594,1,2,0:0:0:0:
345,182,57757,5,2,3:2:0:0:
408,236,57921,2,0,P|464:226|525:220,1,96.250002937317,2|8,0:0|0:0,0:0:0:0:
345,182,58249,2,0,P|259:197|190:206,1,144.375004405975,2|0,0:0|0:0,0:0:0:0:
181,209,58577,1,2,0:0:0:0:
284,328,58741,2,0,P|302:274|273:232,1,96.250002937317,10|0,0:0|0:0,0:0:0:0:
189,132,59069,6,0,P|107:165|110:251,1,170.624992189408,14|0,0:0|0:0,0:0:0:0:
169,283,59397,1,2,3:2:0:0:
285,241,59561,5,2,3:2:0:0:
75,149,59889,1,2,3:2:0:0:
320,4,60216,5,10,0:0:0:0:
310,83,60544,1,10,0:0:0:0:
300,162,60872,1,10,0:0:0:0:
307,166,61200,6,0,P|352:162|419:157,2,78.7499975967408,2|2|2,0:0|0:0|0:0,0:0:0:0:
228,132,61692,5,6,3:2:0:0:
152,245,61856,1,2,0:0:0:0:
152,245,61938,1,0,0:0:0:0:
152,245,62020,1,8,0:0:0:0:
72,203,62184,2,0,P|63:143|49:92,1,96.250002937317,2|2,0:0|3:2,0:0:0:0:
188,36,62512,5,2,0:0:0:0:
290,49,62676,1,10,0:0:0:0:
228,132,62839,1,2,0:0:0:0:
385,159,63003,5,2,3:2:0:0:
445,223,63167,2,0,P|471:181|466:130,1,96.250002937317,2|8,0:0|0:0,0:0:0:0:
372,257,63495,2,0,P|446:265|482:345,1,144.375004405975,2|0,0:0|0:0,0:0:0:0:
471,331,63823,1,2,0:0:0:0:
301,300,63987,2,0,P|287:244|317:188,1,96.250002937317,10|0,0:0|0:0,0:0:0:0:
350,384,64315,6,0,L|253:377,1,96.250002937317,2|2,3:2|0:0,0:0:0:0:
139,231,64643,1,10,0:0:0:0:
200,161,64807,2,0,P|176:254|173:332,1,144.375004405975,2|0,0:0|0:0,0:0:0:0:
186,323,65134,1,2,0:0:0:0:
55,231,65298,2,0,P|64:177|71:119,1,96.250002937317,8|2,0:0|0:0,0:0:0:0:
101,33,65626,5,2,3:2:0:0:
129,36,65708,1,0,0:0:0:0:
157,39,65790,1,2,0:0:0:0:
185,42,65872,1,2,0:0:0:0:
213,45,65954,2,0,P|237:49|262:50,3,48.1250014686585,10|0|0|0,0:0|0:0|0:0|0:0,0:0:0:0:
347,26,66282,1,2,3:2:0:0:
347,26,66364,1,2,0:0:0:0:
347,26,66446,1,2,0:0:0:0:
347,26,66528,1,2,0:0:0:0:
347,26,66610,2,0,P|356:88|363:138,1,96.250002937317,8|0,0:0|0:0,0:0:0:0:
422,170,66938,5,10,0:0:0:0:
351,299,67102,2,0,P|288:287|217:281,1,96.250002937317,10|0,0:0|0:0,0:0:0:0:
134,117,67430,5,10,0:0:0:0:
260,73,67593,2,0,P|248:138|242:185,1,96.250002937317,10|0,0:0|0:0,0:0:0:0:
175,340,67921,5,10,0:0:0:0:
72,247,68085,2,0,P|57:187|38:135,1,96.250002937317,10|0,0:0|0:0,0:0:0:0:
169,31,68413,5,10,0:0:0:0:
220,183,68577,1,10,0:0:0:0:
347,80,68741,1,0,0:0:0:0:
482,186,68905,2,0,P|370:210|303:226,1,144.375004405975,0|0,3:0|0:0,0:0:0:0:
319,209,69233,1,10,0:0:0:0:
296,375,69397,1,2,3:2:0:0:
211,321,69561,6,0,P|149:341|111:351,1,96.250002937317,4|0,3:2|3:0,0:0:0:0:
191,114,69889,2,0,P|207:173|224:228,1,96.250002937317,0|0,3:0|3:0,0:0:0:0:
392,384,70216,2,0,P|378:337|365:291,1,96.250002937317,0|0,3:0|3:0,0:0:0:0:
357,119,70544,2,0,P|419:99|457:89,1,96.250002937317,2|0,3:2|3:0,0:0:0:0:
371,17,70872,5,2,3:2:0:0:
371,17,71036,1,0,3:0:0:0:
319,209,71200,1,2,3:2:0:0:
319,209,71364,1,0,3:0:0:0:
191,114,71528,2,0,L|141:124,3,48.1250014686585,2|0|2|0,3:2|3:0|3:2|3:0,0:0:0:0:
124,107,71856,2,0,L|74:117,3,48.1250014686585,0|0|2|0,3:0|3:0|3:2|3:0,0:0:0:0:
45,97,72184,6,0,P|72:187|80:261,1,144.375004405975,12|0,3:2|0:0,0:0:0:0:
64,327,72512,1,2,0:0:0:0:
64,327,72593,1,2,0:0:0:0:
64,327,72675,2,0,L|118:316,1,48.1250014686585,2|0,0:0|0:0,0:0:0:0:
187,384,72839,6,0,P|160:294|235:208,1,192.500005874634,2|2,0:0|0:0,0:0:0:0:
446,95,73495,6,0,P|473:185|398:271,1,192.500005874634,4|8,3:2|0:0,0:0:0:0:
340,208,73987,1,0,0:0:0:0:
461,332,74151,1,0,3:0:0:0:
295,384,74315,1,0,0:0:0:0:
295,384,74397,1,0,0:0:0:0:
295,384,74479,2,0,P|288:317|282:266,1,96.250002937317,8|2,0:0|0:0,0:0:0:0:
350,38,74807,6,0,P|317:101|315:145,1,96.250002937317,2|0,3:2|0:0,0:0:0:0:
211,321,75134,2,0,P|201:274|175:233,1,96.250002937317,8|0,0:0|0:0,0:0:0:0:
340,208,75462,2,0,P|400:172|531:147,1,192.500005874634,0|8,3:0|0:0,0:0:0:0:
480,246,75954,1,0,0:0:0:0:
480,246,76036,1,0,0:0:0:0:
480,246,76118,6,0,P|472:319|471:379,1,96.250002937317,0|2,3:0|0:0,0:0:0:0:
490,359,76364,2,0,P|417:351|357:350,1,96.250002937317,2|0,0:0|0:0,0:0:0:0:
373,364,76610,1,0,0:0:0:0:
263,208,76774,2,0,P|216:128|260:47,1,192.500005874634,0|8,3:0|0:0,0:0:0:0:
314,125,77266,1,0,0:0:0:0:
500,41,77430,6,0,B|430:44|430:44|423:42|423:42|343:46,2,157.499995193482,8|8|8,0:0|0:0|0:0,0:0:0:0:
485,140,78085,2,0,P|388:122|339:207,1,209.999993591309,8|0,0:0|3:0,0:0:0:0:
339,207,78495,1,0,3:0:0:0:
339,207,78577,1,0,3:0:0:0:
339,207,78659,1,0,3:0:0:0:
338,207,78741,6,0,P|242:195|144:190,1,192.500005874634,4|8,3:2|0:0,0:0:0:0:
88,247,79233,1,0,0:0:0:0:
0,100,79397,1,0,3:0:0:0:
155,23,79561,1,0,0:0:0:0:
155,23,79643,1,0,0:0:0:0:
155,23,79725,2,0,P|135:95|133:131,1,96.250002937317,8|2,0:0|0:0,0:0:0:0:
26,366,80052,6,0,P|19:308|2:236,1,96.250002937317,2|0,3:2|0:0,0:0:0:0:
216,141,80380,2,0,P|206:188|201:236,1,96.250002937317,8|0,0:0|0:0,0:0:0:0:
0,151,80708,2,0,P|-23:94|80:10,1,192.500005874634,0|8,3:0|0:0,0:0:0:0:
155,23,81200,1,0,0:0:0:0:
88,96,81364,5,0,3:0:0:0:
88,96,81446,1,0,3:0:0:0:
88,96,81528,1,0,3:0:0:0:
88,96,81610,1,0,3:0:0:0:
88,96,81692,2,0,L|97:202,1,96.250002937317,8|0,3:2|3:0,0:0:0:0:
26,366,82020,2,0,P|88:335|141:336,1,96.250002937317,0|0,3:0|3:0,0:0:0:0:
303,174,82348,2,0,P|255:165|215:140,1,96.250002937317,8|0,3:2|3:0,0:0:0:0:
101,262,82675,6,0,L|268:242,2,157.499995193482,8|8|8,0:0|0:0|0:0,0:0:0:0:
8,288,83331,6,0,B|41:221|8:162|8:162|-25:103|8:36,1,262.500010013581,8|6,0:0|3:2,0:0:0:0:
112,190,93167,6,0,P|163:160|254:122,2,150.937502878904,8|8|8,0:0|0:0|0:0,0:0:0:0:
185,66,93823,6,0,P|237:95|327:161,1,157.499995193482,0|10,3:0|0:0,0:0:0:0:
408,209,94315,5,10,0:0:0:0:
408,209,94397,1,0,3:0:0:0:
408,209,94479,2,0,P|414:139|418:69,1,100.62500191927,6|0,3:2|0:0,0:0:0:0:
316,259,94807,2,0,P|326:365|329:400,1,100.62500191927,10|0,0:0|0:0,0:0:0:0:
225,218,95134,1,0,3:0:0:0:
137,264,95298,5,2,3:2:0:0:
137,264,95380,1,0,3:0:0:0:
137,264,95462,2,0,P|68:241|41:159,1,150.937502878904,10|0,0:0|0:0,0:0:0:0:
102,117,95790,6,0,P|121:29|126:-1,1,100.62500191927,2|0,3:2|0:0,0:0:0:0:
229,207,96118,2,0,P|248:295|253:325,1,100.62500191927,10|2,0:2|0:0,0:0:0:0:
320,131,96446,1,0,3:0:0:0:
421,178,96610,1,2,3:2:0:0:
421,178,96692,1,0,3:0:0:0:
421,178,96774,2,0,P|474:167|552:154,1,100.62500191927,10|2,0:0|0:0,0:0:0:0:
480,294,97102,6,0,P|392:275|319:263,1,150.937502878904,2|0,3:2|0:0,0:0:0:0:
249,305,97430,1,10,0:0:0:0:
183,205,97593,1,2,0:0:0:0:
183,205,97757,2,0,P|172:152|159:74,1,100.62500191927,0|0,3:0|3:2,0:0:0:0:
19,118,98085,2,0,P|59:210|80:286,1,150.937502878904,10|0,0:0|0:0,0:0:0:0:
109,370,98413,6,0,P|158:316|261:329,1,150.937502878904,14|0,0:0|0:0,0:0:0:0:
232,312,98741,1,10,0:0:0:0:
406,267,98905,2,0,P|332:263|282:209,1,150.937502878904,2|0,3:2|0:0,0:0:0:0:
282,209,99233,1,0,3:0:0:0:
255,109,99397,1,2,3:2:0:0:
255,109,99479,1,0,3:0:0:0:
255,109,99561,2,0,P|252:69|250:36,1,50.3125009596348,2|0,3:2|3:0,0:0:0:0:
160,44,99725,6,0,P|154:114|150:184,1,104.999996795654,6|0,3:2|0:0,0:0:0:0:
340,40,100052,2,0,P|350:146|353:181,1,104.999996795654,10|2,0:0|0:0,0:0:0:0:
254,247,100380,1,0,3:0:0:0:
340,345,100544,5,2,3:2:0:0:
340,345,100626,1,0,3:0:0:0:
340,345,100708,2,0,P|409:322|440:219,1,157.499995193482,10|0,0:0|0:0,0:0:0:0:
406,154,101036,6,0,P|403:137|399:83,3,52.4999983978272,2|0|0|0,3:2|3:0|3:0|3:0,0:0:0:0:
308,158,101364,2,0,P|305:175|301:229,3,52.4999983978272,10|0|2|0,3:2|3:0|3:2|3:0,0:0:0:0:
206,131,101692,2,0,P|203:114|199:60,3,52.4999983978272,0|0|0|0,3:0|3:0|3:0|3:0,0:0:0:0:
118,162,102020,2,0,P|115:179|111:233,3,52.4999983978272,2|0|0|0,3:2|3:0|3:0|3:0,0:0:0:0:
235,294,102348,6,0,P|311:310|373:369,1,113.749994792938,10|0,0:0|0:0,0:0:0:0:
398,372,102594,2,0,P|373:297|393:214,1,113.749994792938,10|0,0:0|0:0,0:0:0:0:
404,182,102840,1,10,0:0:0:0:
311,31,103004,6,0,P|305:59|298:87,6,56.8749973964692,2|0|0|0|0|0|0,0:0|0:0|0:0|0:0|0:0|0:0|0:0,0:0:0:0:
168,204,103660,6,0,P|116:146|33:122,1,113.749994792938,10|0,0:0|0:0,0:0:0:0:
18,102,103906,2,0,P|94:86|156:27,1,113.749994792938,10|0,0:0|0:0,0:0:0:0:
180,1,104152,1,10,0:0:0:0:
389,67,104315,6,0,P|404:104|412:143,2,56.8749973964692,0|0|0,3:0|3:0|3:0,0:0:0:0:
334,147,104561,1,0,3:0:0:0:
334,147,104643,2,0,P|323:121|315:94,2,56.8749973964692,8|8|0,0:0|0:0|3:0,0:0:0:0:
183,174,104971,6,0,P|131:232|58:253,1,113.749994792938,10|0,0:0|0:0,0:0:0:0:
33,276,105217,2,0,P|110:292|172:351,1,113.749994792938,10|0,0:0|0:0,0:0:0:0:
195,377,105463,1,10,0:0:0:0:
252,113,105627,6,0,P|258:85|265:57,3,56.8749973964692,0|0|0|0,3:0|0:0|3:0|0:0,0:0:0:0:
187,174,105954,5,8,0:0:0:0:
187,174,106036,1,0,3:0:0:0:
187,174,106118,1,0,3:0:0:0:
187,174,106201,1,0,3:0:0:0:
187,174,106283,6,0,P|264:218|314:229,1,113.749994792938,10|0,0:0|0:0,0:0:0:0:
302,327,106529,6,0,P|368:268|393:224,1,113.749994792938,8|0,0:0|0:0,0:0:0:0:
486,266,106774,6,0,P|450:186|416:148,1,113.749994792938,10|0,0:0|0:0,0:0:0:0:
477,72,107020,6,0,P|390:82|343:103,1,113.749994792938,8|0,0:0|0:0,0:0:0:0:
266,0,107266,6,0,P|258:44|260:69,1,56.8749973964692,10|0,0:0|0:0,0:0:0:0:
257,78,107430,2,0,P|276:119|293:138,1,56.8749973964692,2|0,3:2|0:0,0:0:0:0:
256,192,107594,12,0,108906,0:0:0:0:
337,181,109233,5,2,0:0:0:0:
258,191,109561,1,2,0:0:0:0:
179,201,109889,1,2,0:0:0:0:
100,211,110216,6,0,P|68:218|27:222,1,65.6250025033952,6|2,3:2|0:0,0:0:0:0:
335,344,110708,1,2,0:0:0:0:
164,370,111036,1,2,3:2:0:0:
249,379,111200,1,10,3:2:0:0:
251,364,111282,1,0,3:2:0:0:
253,349,111364,1,2,3:2:0:0:
255,334,111446,1,0,3:2:0:0:
257,319,111528,5,6,3:2:0:0:
407,295,111692,2,0,P|426:348|411:389,1,96.250002937317,2|8,0:0|0:0,0:0:0:0:
344,247,112020,2,0,P|420:250|465:179,1,144.375004405975,2|0,0:0|0:0,0:0:0:0:
461,201,112348,1,2,0:0:0:0:
283,185,112512,2,0,P|256:250|267:287,1,96.250002937317,10|0,0:0|0:0,0:0:0:0:
344,247,112839,6,0,P|321:142|311:61,1,144.375004405975,2|0,3:2|0:0,0:0:0:0:
314,86,113167,1,10,0:0:0:0:
152,70,113331,2,0,P|199:112|253:107,1,96.250002937317,2|0,0:0|3:0,0:0:0:0:
455,117,113659,5,2,0:0:0:0:
480,16,113823,1,10,0:0:0:0:
381,45,113987,1,2,0:0:0:0:
462,204,114151,5,0,3:0:0:0:
461,218,114233,1,0,0:0:0:0:
460,232,114315,1,2,0:0:0:0:
459,246,114397,1,2,0:0:0:0:
458,260,114479,2,0,P|455:284|457:332,3,48.1250014686585,10|0|0|0,0:0|0:0|0:0|0:0,0:0:0:0:
364,368,114807,1,2,3:2:0:0:
364,368,114889,1,2,0:0:0:0:
364,368,114971,1,2,0:0:0:0:
364,368,115052,1,2,0:0:0:0:
364,368,115134,2,0,P|351:314|344:251,1,96.250002937317,10|2,0:0|3:2,0:0:0:0:
358,115,115462,5,2,3:2:0:0:
408,46,115626,2,0,P|441:87|442:130,1,96.250002937317,2|8,0:0|0:0,0:0:0:0:
307,186,115954,2,0,P|274:145|273:102,1,96.250002937317,2|2,0:0|3:2,0:0:0:0:
247,260,116282,5,2,0:0:0:0:
278,360,116446,1,10,0:0:0:0:
178,337,116610,1,2,0:0:0:0:
345,273,116774,5,2,3:2:0:0:
345,273,116938,2,0,P|396:284|447:298,1,96.250002937317,2|8,0:0|0:0,0:0:0:0:
307,186,117266,2,0,P|206:207|139:220,1,144.375004405975,2|0,0:0|0:0,0:0:0:0:
165,214,117593,1,2,0:0:0:0:
220,31,117757,2,0,P|266:69|270:118,1,96.250002937317,10|0,0:0|0:0,0:0:0:0:
94,244,118085,6,0,P|101:166|184:140,1,170.624992189408,14|0,0:0|0:0,0:0:0:0:
179,138,118413,1,2,3:2:0:0:
247,260,118577,5,2,3:2:0:0:
52,344,118905,1,2,3:2:0:0:
339,367,119233,5,10,0:0:0:0:
329,288,119561,1,10,0:0:0:0:
319,209,119889,1,10,0:0:0:0:
322,203,120216,6,0,P|362:210|410:214,2,78.7499975967408,2|2|2,0:0|0:0|0:0,0:0:0:0:
271,132,120708,5,6,3:2:0:0:
349,32,120872,1,2,0:0:0:0:
349,32,120954,1,0,0:0:0:0:
349,32,121036,1,8,0:0:0:0:
182,116,121200,2,0,P|198:174|207:220,1,96.250002937317,2|2,0:0|3:2,0:0:0:0:
187,384,121528,5,2,0:0:0:0:
251,301,121692,1,10,0:0:0:0:
150,287,121856,1,2,0:0:0:0:
292,384,122020,5,2,3:2:0:0:
239,205,122184,2,0,P|246:263|251:308,1,96.250002937317,2|8,0:0|0:0,0:0:0:0:
382,384,122512,2,0,P|387:336|393:288,1,96.250002937317,2|0,0:0|3:0,0:0:0:0:
383,124,122839,1,2,0:0:0:0:
454,166,123003,2,0,P|417:202|357:200,1,96.250002937317,10|0,0:0|0:0,0:0:0:0:
317,78,123331,6,0,P|386:76|426:16,1,144.375004405975,2|2,3:2|0:0,0:0:0:0:
425,18,123659,1,10,0:0:0:0:
248,36,123823,2,0,P|235:82|258:133,1,96.250002937317,2|0,0:0|3:0,0:0:0:0:
179,293,124151,5,2,0:0:0:0:
243,210,124315,1,8,0:0:0:0:
142,196,124479,1,2,0:0:0:0:
78,279,124643,5,2,3:2:0:0:
76,293,124725,1,0,0:0:0:0:
74,307,124807,1,2,0:0:0:0:
73,321,124889,1,2,0:0:0:0:
72,335,124971,2,0,P|106:340|136:346,3,48.1250014686585,10|0|0|0,0:0|0:0|0:0|0:0,0:0:0:0:
179,293,125298,2,0,P|213:288|243:282,3,48.1250014686585,2|2|2|2,3:2|0:0|0:0|0:0,0:0:0:0:
266,259,125626,2,0,P|280:323|299:373,1,96.250002937317,8|0,0:0|0:0,0:0:0:0:
416,275,125954,5,10,0:0:0:0:
482,159,126118,2,0,P|421:152|369:143,1,96.250002937317,10|0,0:0|0:0,0:0:0:0:
195,95,126446,5,10,0:0:0:0:
298,47,126610,2,0,P|289:118|286:158,1,96.250002937317,10|0,0:0|0:0,0:0:0:0:
266,259,126938,5,10,0:0:0:0:
146,365,127102,2,0,P|131:297|127:257,1,96.250002937317,10|0,0:0|0:0,0:0:0:0:
68,102,127430,5,10,0:0:0:0:
190,190,127593,1,10,0:0:0:0:
44,284,127757,1,0,0:0:0:0:
146,365,127921,2,0,P|238:355|297:350,1,144.375004405975,0|0,3:0|0:0,0:0:0:0:
305,361,128249,1,10,0:0:0:0:
384,183,128413,1,2,3:2:0:0:
456,255,128577,6,0,P|394:267|349:279,1,96.250002937317,4|0,3:2|3:0,0:0:0:0:
249,130,128905,2,0,P|311:118|356:106,1,96.250002937317,0|0,3:0|3:0,0:0:0:0:
289,350,129233,2,0,P|241:341|194:329,1,96.250002937317,0|0,3:0|3:0,0:0:0:0:
91,188,129561,2,0,P|138:196|185:208,1,96.250002937317,2|0,3:2|3:0,0:0:0:0:
275,239,129889,5,2,3:2:0:0:
275,239,130052,1,0,3:0:0:0:
196,54,130216,1,2,3:2:0:0:
196,54,130380,1,0,3:0:0:0:
343,109,130544,2,0,L|396:101,3,48.1250014686585,2|0|2|0,3:2|3:0|3:2|3:0,0:0:0:0:
409,114,130872,2,0,L|462:106,3,48.1250014686585,0|0|2|0,3:0|3:0|3:2|3:0,0:0:0:0:
482,93,131200,6,0,P|465:164|456:245,1,144.375004405975,12|0,3:2|0:0,0:0:0:0:
506,313,131528,1,2,0:0:0:0:
506,313,131610,1,2,0:0:0:0:
506,313,131692,2,0,L|449:325,1,48.1250014686585,2|0,0:0|0:0,0:0:0:0:
415,384,131856,6,0,P|402:313|287:272,1,192.500005874634,2|2,0:0|0:0,0:0:0:0:
16,192,132512,1,12,0:0:0:0:
16,192,144315,6,0,P|128:219|229:123,1,262.5,6|2,0:0|0:0,0:0:0:0:
275,63,145626,2,0,P|264:151|260:239,1,175,2|2,0:0|0:0,0:0:0:0:
171,370,146938,2,0,P|213:358|256:348,1,87.5,2|2,0:0|0:0,0:0:0:0:
336,362,147593,2,0,P|330:312|329:266,1,87.5,2|2,0:0|0:0,0:0:0:0:
259,235,148249,6,0,P|340:239|406:166,1,175,2|2,0:0|0:0,0:0:0:0:
508,59,149561,6,0,B|372:11|422:162|266:100,1,262.5,2|2,0:0|0:0,0:0:0:0:
212,47,150872,2,0,B|233:228,1,175,2|2,0:0|0:0,0:0:0:0:
169,269,152184,6,0,B|305:221|255:372|411:310,1,262.5,2|2,0:0|0:0,0:0:0:0:
481,360,153331,1,0,3:0:0:0:
481,360,153413,1,0,3:0:0:0:
481,360,153495,1,8,0:0:0:0:
498,265,153659,1,8,0:0:0:0:
362,128,153987,1,8,0:0:0:0:
379,223,154151,1,8,0:0:0:0:
469,52,154479,5,8,0:0:0:0:
386,24,154643,1,8,0:0:0:0:
386,24,154725,1,8,0:0:0:0:
386,24,154807,6,0,P|339:51|228:22,1,157.499995193482,6|8,3:2|0:1,0:0:0:0:
165,11,155298,1,2,0:0:0:0:
102,59,155462,2,0,P|109:97|112:136,1,78.7499975967408,8|2,0:1|0:0,0:0:0:0:
105,217,155790,2,0,P|143:209|182:206,1,78.7499975967408,8|2,0:1|0:0,0:0:0:0:
232,144,156118,6,0,P|276:162|403:130,1,157.499995193482,8|8,0:1|0:1,0:0:0:0:
455,117,156610,1,2,0:0:0:0:
490,187,156774,2,0,P|480:248|479:277,1,78.7499975967408,8|2,0:1|0:0,0:0:0:0:
485,343,157102,2,0,P|424:333|395:332,1,78.7499975967408,2|2,3:2|3:2,0:0:0:0:
328,341,157430,6,0,P|299:299|349:191,1,157.499995193482,14|8,0:0|0:1,0:0:0:0:
381,145,157921,1,2,0:0:0:0:
317,98,158085,6,0,P|267:93|208:83,1,78.7499975967408,8|2,0:1|0:0,0:0:0:0:
193,153,158413,2,0,P|188:203|178:262,1,78.7499975967408,8|0,0:1|3:0,0:0:0:0:
238,316,158741,6,0,P|178:304|90:364,1,150.937502878904,14|0,0:0|0:0,0:0:0:0:
101,345,159069,2,0,P|112:285|53:197,1,150.937502878904,10|0,0:0|0:0,0:0:0:0:
27,182,159397,6,0,P|89:148|110:18,1,201.250003838539,10|2,0:0|3:2,0:0:0:0:
204,72,159889,1,2,3:2:0:0:
276,41,160052,6,0,P|266:104|266:144,1,78.7499975967408,8|0,0:0|3:0,0:0:0:0:
306,186,160380,1,8,0:0:0:0:
251,243,160544,1,0,3:0:0:0:
322,369,160708,6,0,P|314:331|312:292,1,78.7499975967408,8|0,0:0|3:0,0:0:0:0:
209,174,161036,2,0,P|206:213|198:251,1,78.7499975967408,8|0,0:0|3:0,0:0:0:0:
373,237,161364,6,0,P|446:217|472:218,1,78.7499975967408,12|0,0:0|3:0,0:0:0:0:
510,168,161692,1,8,0:0:0:0:
440,131,161856,1,0,3:0:0:0:
512,0,162020,2,0,P|497:36|493:75,1,78.7499975967408,8|0,0:0|3:0,0:0:0:0:
363,157,162348,2,0,P|359:117|344:81,1,78.7499975967408,8|0,0:0|3:0,0:0:0:0:
263,21,162675,5,4,3:2:0:0:
263,21,162757,1,0,3:0:0:0:
263,21,162839,1,0,3:0:0:0:
263,21,162921,1,0,3:0:0:0:
263,21,163003,2,0,P|208:37|152:35,1,78.7499975967408,0|0,3:0|3:0,0:0:0:0:
144,107,163331,1,4,3:2:0:0:
144,107,163413,1,0,3:0:0:0:
144,107,163495,1,0,3:0:0:0:
144,107,163577,1,0,3:0:0:0:
144,107,163659,2,0,P|89:91|33:93,1,78.7499975967408,0|0,3:0|3:0,0:0:0:0:
15,149,163987,5,4,3:0:0:0:
84,186,164151,1,0,3:0:0:0:
22,235,164315,1,0,3:0:0:0:
91,272,164479,1,0,3:0:0:0:
29,321,164643,1,0,3:0:0:0:
98,358,164807,1,0,3:0:0:0:
174,323,164971,1,8,0:0:0:0:
174,323,165052,1,8,0:0:0:0:
174,323,165134,1,8,0:0:0:0:
174,323,165216,1,8,0:0:0:0:
174,323,165298,1,8,0:0:0:0:
324,370,165626,5,2,0:0:0:0:
218,253,165954,1,2,0:0:0:0:
372,219,166282,1,2,0:0:0:0:
271,89,166610,5,6,3:2:0:0:
166,160,166774,2,0,P|93:144|52:138,1,96.250002937317,2|8,0:0|0:0,0:0:0:0:
32,68,167020,1,0,0:0:0:0:
32,68,167102,2,0,P|104:52|145:46,1,96.250002937317,0|2,0:0|3:2,0:0:0:0:
329,2,167430,5,2,0:0:0:0:
280,188,167593,2,0,P|259:116|251:73,1,96.250002937317,10|2,0:0|0:0,0:0:0:0:
372,218,167921,5,2,3:2:0:0:
483,149,168085,1,2,0:0:0:0:
488,287,168249,1,8,0:0:0:0:
488,287,168331,1,0,0:0:0:0:
488,287,168413,2,0,P|429:301|382:319,1,96.250002937317,2|0,0:0|3:0,0:0:0:0:
300,384,168741,5,2,0:0:0:0:
203,316,168905,2,0,P|151:302|75:289,1,96.250002937317,10|0,0:0|0:0,0:0:0:0:
91,175,169233,6,0,P|136:159|182:146,1,96.250002937317,2|0,3:2|0:0,0:0:0:0:
272,132,169479,1,0,0:0:0:0:
272,132,169561,1,10,0:0:0:0:
65,34,169725,2,0,P|31:68|-1:104,1,96.250002937317,2|0,0:0|3:0,0:0:0:0:
139,161,170052,5,2,0:0:0:0:
110,299,170216,1,10,0:0:0:0:
7,207,170380,2,0,P|48:216|79:225,1,48.1250014686585,2|0,0:0|0:0,0:0:0:0:
110,299,170544,6,0,P|178:267|227:256,1,96.250002937317,0|2,3:0|0:0,0:0:0:0:
266,201,170790,1,2,0:0:0:0:
266,201,170872,2,0,P|327:243|372:295,1,96.250002937317,10|0,0:0|0:0,0:0:0:0:
435,331,171200,5,2,3:2:0:0:
442,296,171281,1,2,0:0:0:0:
450,260,171363,1,2,0:0:0:0:
457,225,171445,1,2,0:0:0:0:
463,186,171528,6,0,L|458:131,1,48.1250014686585,10|0,0:0|0:0,0:0:0:0:
369,109,171692,2,0,L|378:54,1,48.1250014686585,2|0,3:2|0:0,0:0:0:0:
266,183,171856,5,2,3:2:0:0:
166,14,172020,2,0,P|175:86|187:148,1,96.250002937317,2|8,0:0|0:0,0:0:0:0:
266,183,172266,1,0,0:0:0:0:
266,183,172348,2,0,P|273:135|279:87,1,96.250002937317,2|2,0:0|3:2,0:0:0:0:
98,169,172675,5,2,0:0:0:0:
14,111,172839,1,10,0:0:0:0:
99,168,173003,1,2,0:0:0:0:
43,254,173167,5,2,3:2:0:0:
155,326,173331,2,0,P|212:297|281:279,1,96.250002937317,2|8,0:0|0:0,0:0:0:0:
327,232,173577,1,0,0:0:0:0:
327,232,173659,2,0,P|335:184|336:136,1,96.250002937317,2|0,0:0|3:0,0:0:0:0:
241,194,173987,5,2,0:0:0:0:
328,328,174151,2,0,P|364:359|405:384,1,96.250002937317,10|0,0:0|0:0,0:0:0:0:
378,193,174479,6,0,P|367:108|352:-10,1,170.624992189408,14|0,0:0|0:0,0:0:0:0:
407,75,174807,2,0,P|401:99|398:127,1,48.1250014686585,2|0,3:2|0:0,0:0:0:0:
461,249,174971,6,0,P|379:223|235:192,1,192.500005874634,2|2,3:2|3:2,0:0:0:0:
12,211,175626,1,10,0:0:0:0:
320,358,175954,1,10,0:0:0:0:
300,37,176282,1,10,0:0:0:0:
217,205,176610,5,2,0:0:0:0:
290,244,176774,2,0,P|299:262|311:293,2,39.3749987983704,2|0|2,0:0|0:0|0:0,0:0:0:0:
208,202,177102,5,6,3:2:0:0:
356,186,177266,1,2,3:2:0:0:
356,186,177348,1,0,3:0:0:0:
356,186,177430,2,0,P|362:150|364:125,1,48.1250014686585,8|0,0:0|0:0,0:0:0:0:
466,128,177593,2,0,P|483:181|495:259,1,96.250002937317,2|2,0:0|3:2,0:0:0:0:
392,324,177921,5,2,0:0:0:0:
272,372,178085,1,10,0:0:0:0:
230,245,178249,1,2,0:0:0:0:
311,290,178413,5,2,3:2:0:0:
360,118,178577,2,0,P|321:181|302:235,1,96.250002937317,2|8,0:0|0:0,0:0:0:0:
234,156,178823,1,0,0:0:0:0:
234,156,178905,2,0,P|206:116|185:73,1,96.250002937317,2|0,0:0|3:0,0:0:0:0:
43,298,179233,5,2,0:0:0:0:
134,246,179397,2,0,P|182:241|230:245,1,96.250002937317,10|0,0:0|0:0,0:0:0:0:
291,66,179725,6,0,P|324:101|356:138,1,96.250002937317,2|2,3:2|0:0,0:0:0:0:
395,222,179971,1,2,0:0:0:0:
395,222,180053,1,10,0:0:0:0:
490,40,180217,2,0,P|502:86|512:133,1,96.250002937317,2|0,0:0|3:0,0:0:0:0:
510,252,180544,5,2,0:0:0:0:
362,321,180708,1,8,0:0:0:0:
480,371,180872,2,0,P|439:358|408:350,1,48.1250014686585,2|0,0:0|0:0,0:0:0:0:
301,381,181036,6,0,P|258:319|221:285,1,96.250002937317,2|2,3:2|0:0,0:0:0:0:
211,227,181282,1,2,0:0:0:0:
211,227,181364,2,0,P|136:233|72:255,1,96.250002937317,10|0,0:0|0:0,0:0:0:0:
0,348,181692,5,2,3:2:0:0:
35,357,181773,1,2,0:0:0:0:
71,365,181855,1,2,0:0:0:0:
105,373,181937,1,2,0:0:0:0:
144,384,182020,6,0,L|210:373,1,48.1250014686585,8|0,0:0|0:0,0:0:0:0:
243,304,182184,2,0,L|296:319,1,48.1250014686585,0|0,0:0|0:0,0:0:0:0:
377,273,182348,5,10,0:0:0:0:
244,168,182512,1,10,0:0:0:0:
471,211,182839,5,10,0:0:0:0:
376,51,183003,1,10,0:0:0:0:
368,374,183331,5,10,0:0:0:0:
198,384,183495,1,10,0:0:0:0:
97,228,183823,5,10,0:0:0:0:
175,67,183987,1,10,0:0:0:0:
175,67,184151,1,0,0:0:0:0:
185,159,184315,5,0,3:0:0:0:
185,159,184397,1,0,0:0:0:0:
185,159,184479,2,0,P|241:138|268:135,1,48.1250014686585,0|0,0:0|0:0,0:0:0:0:
276,27,184643,2,0,P|302:103|321:142,1,96.250002937317,10|2,0:0|3:2,0:0:0:0:
382,225,184971,6,0,P|302:209|259:204,1,96.250002937317,4|0,3:2|3:0,0:0:0:0:
255,355,185298,2,0,P|175:371|132:376,1,96.250002937317,0|0,3:0|3:0,0:0:0:0:
119,239,185626,2,0,P|39:223|-4:218,1,96.250002937317,0|0,3:0|3:0,0:0:0:0:
188,134,185954,6,0,P|202:219|223:311,1,144.375004405975,2|0,3:2|0:0,0:0:0:0:
308,277,186282,6,0,L|340:230,3,48.1250014686585,2|0|0|0,3:2|3:0|3:0|3:0,0:0:0:0:
359,352,186610,2,0,L|410:327,3,48.1250014686585,2|0|0|0,3:2|3:0|3:0|3:0,0:0:0:0:
221,283,186938,6,0,L|196:231,1,48.1250014686585,2|0,3:2|3:0,0:0:0:0:
164,350,187102,2,0,L|117:318,3,48.1250014686585,2|0|0|0,3:2|3:0|3:0|3:0,0:0:0:0:
38,322,187430,5,2,3:2:0:0:
38,322,187512,1,0,3:0:0:0:
38,322,187593,1,12,3:2:0:0:
256,192,187675,12,0,188577,0:0:0:0:
95,66,188905,5,12,0:0:0:0:
148,218,189233,1,0,0:0:0:0:
82,163,189397,5,0,3:0:0:0:
82,163,189479,1,0,3:0:0:0:
82,163,189561,2,0,P|156:169|248:175,2,144.375004405975,8|0|0,0:0|3:0|3:0,0:0:0:0:
45,236,190216,5,0,3:0:0:0:
45,236,190298,1,0,3:0:0:0:
45,236,190380,1,0,3:0:0:0:
233,337,190544,1,8,0:0:0:0:
233,337,190708,2,0,P|145:326|31:320,1,192.500005874634,0|0,3:0|3:0,0:0:0:0:
248,251,191200,1,8,0:0:0:0:
323,306,191364,1,0,3:0:0:0:
342,216,191528,6,0,P|359:132|376:60,2,144.375004405975,12|8|8,0:0|0:0|0:0,0:0:0:0:
323,306,192184,5,12,0:0:0:0:
235,103,192430,1,8,0:0:0:0:
440,189,192675,1,8,0:0:0:0:
342,216,192839,5,12,0:0:0:0:
190,192,193085,1,8,0:0:0:0:
38,168,193331,1,8,0:0:0:0:
93,0,193495,6,0,P|105:81|119:186,1,144.375004405975,12|0,0:0|0:0,0:0:0:0:
112,238,193823,5,0,3:0:0:0:
112,238,193905,1,0,3:0:0:0:
112,238,193987,1,0,3:0:0:0:
112,238,194069,1,0,3:0:0:0:
112,238,194151,2,0,P|169:248|216:258,1,96.250002937317,4|0,3:2|3:0,0:0:0:0:
306,78,194479,1,8,0:0:0:0:
260,18,194643,2,0,P|229:69|246:121,1,96.250002937317,0|0,3:0|3:0,0:0:0:0:
316,300,194971,2,0,P|347:249|330:197,1,96.250002937317,0|8,3:0|0:0,0:0:0:0:
219,346,195298,5,0,3:0:0:0:
219,346,195380,1,0,3:0:0:0:
219,346,195462,2,0,P|127:358|97:364,1,96.250002937317,4|0,3:2|3:0,0:0:0:0:
316,300,195790,2,0,P|408:312|438:318,1,96.250002937317,8|0,0:0|3:0,0:0:0:0:
175,248,196118,2,0,P|83:260|53:266,1,96.250002937317,0|0,3:0|3:0,0:0:0:0:
348,196,196446,2,0,P|440:208|470:214,1,96.250002937317,8|0,0:0|3:0,0:0:0:0:
317,76,196774,6,0,L|309:127,1,48.1250014686585,8|0,0:0|0:0,0:0:0:0:
260,231,196938,2,0,L|252:183,1,48.1250014686585,0|0,3:0|0:0,0:0:0:0:
236,52,197102,2,0,L|228:103,1,48.1250014686585,8|0,0:0|0:0,0:0:0:0:
175,248,197266,2,0,L|167:200,1,48.1250014686585,0|0,3:0|0:0,0:0:0:0:
48,145,197430,6,0,L|118:154,1,48.1250014686585,8|0,0:0|0:0,0:0:0:0:
127,254,197593,2,0,L|175:248,1,48.1250014686585,0|0,3:0|0:0,0:0:0:0:
180,93,197757,2,0,L|250:102,1,48.1250014686585,8|0,0:0|0:0,0:0:0:0:
262,278,197921,2,0,L|309:271,1,48.1250014686585,0|0,3:0|0:0,0:0:0:0:
386,295,198085,5,8,0:0:0:0:
317,76,198331,1,8,0:0:0:0:
108,162,198577,1,8,0:0:0:0:
263,384,198741,6,0,P|248:264|227:92,1,288.750008811951,12|0,0:0|0:0,0:0:0:0:
