osu file format v14

[General]
AudioFilename: audio.mp3
AudioLeadIn: 0
PreviewTime: 39917
Countdown: 0
SampleSet: Soft
StackLeniency: 0.7
Mode: 0
LetterboxInBreaks: 0
WidescreenStoryboard: 0

[Editor]
Bookmarks: 3255,14549,25843,28667,38549,39961,51255,62549
DistanceSpacing: 0.8
BeatDivisor: 4
GridSize: 32
TimelineZoom: 3.999999

[Metadata]
Title:Haachama Haachamatchama
TitleUnicode:はあちゃまはあちゃまっちゃま
Artist:REDALiCE feat. Akai Haato
ArtistUnicode:REDALiCE feat. 赤井はあと
Creator:bite you death
Version:Insane
Source:
Tags:byd xchorse awesomemacd gaia hololive ホロライブ virtual youtuber vtuber tsunomaki watame idol japanese electronic jpop 角巻わため remix 4期生
BeatmapID:2649095
BeatmapSetID:1274950

[Difficulty]
HPDrainRate:6
CircleSize:4
OverallDifficulty:8
ApproachRate:9
SliderMultiplier:1.72
SliderTickRate:1

[Events]
//Background and Video events
0,0,"haachama.jpg",0,0
//Break Periods
//Storyboard Layer 0 (Background)
//Storyboard Layer 1 (Fail)
//Storyboard Layer 2 (Pass)
//Storyboard Layer 3 (Foreground)
//Storyboard Layer 4 (Overlay)
//Storyboard Sound Samples

[TimingPoints]
477,352.941176470588,4,2,2,60,1,0
2947,-83.3333333333333,4,2,2,60,0,0
3300,-125,4,2,2,60,0,0
28359,-83.3333333333333,4,2,2,65,0,0
28712,-111.111111111111,4,2,2,65,0,0
38594,-83.3333333333333,4,2,2,70,0,0
39653,-62.5,4,2,2,70,0,0
40006,-90.9090909090909,4,2,2,80,0,1
51300,-125,4,2,2,60,0,0
56594,-100,4,2,2,60,0,0
56947,-125,4,2,2,60,0,0
64535,-125,4,2,2,5,0,0

[Colours]
Combo1 : 255,255,60
Combo2 : 255,60,60
Combo3 : 0,123,183
Combo4 : 255,193,224
SliderTrackOverride : 35,35,35

[HitObjects]
181,63,1888,6,0,L|191:117,2,43,0|0|0,3:0|0:0|3:0,0:0:0:0:
206,187,2241,5,0,3:0:0:0:
249,4,2418,1,0,3:0:0:0:
249,4,2506,1,0,0:0:0:0:
249,4,2594,1,0,3:0:0:0:
70,59,2771,1,8,0:0:0:0:
214,197,2947,6,0,B|283:186|283:186|290:189|290:189|383:175,1,154.799995275879,4|0,3:2|0:0,0:0:0:0:
375,176,3300,5,2,3:2:0:0:
493,115,3476,1,2,0:0:0:0:
493,115,3565,1,2,0:0:0:0:
493,115,3653,2,0,P|459:101|418:114,1,68.8,2|0,0:0|3:0,0:0:0:0:
410,311,4006,5,2,0:0:0:0:
460,187,4182,1,2,0:0:0:0:
460,187,4271,1,2,0:0:0:0:
460,187,4359,2,0,P|465:224|472:275,1,68.8,2|0,0:0|0:0,0:0:0:0:
351,367,4712,6,0,L|299:360,1,34.4,2|0,3:2|0:0,0:0:0:0:
262,293,4888,5,2,0:0:0:0:
259,299,4976,1,2,0:0:0:0:
256,305,5064,2,0,L|204:312,1,34.4,2|0,0:0|0:0,0:0:0:0:
167,379,5241,5,2,0:0:0:0:
164,373,5330,1,2,0:0:0:0:
161,367,5418,2,0,L|109:360,1,34.4,2|0,0:0|0:0,0:0:0:0:
72,293,5594,5,2,0:0:0:0:
69,299,5683,1,2,0:0:0:0:
66,305,5771,2,0,P|45:283|58:211,1,103.2,2|0,0:0|0:0,0:0:0:0:
64,206,6124,5,2,3:2:0:0:
201,166,6300,1,2,0:0:0:0:
201,166,6388,1,2,0:0:0:0:
201,166,6476,2,0,P|159:160|111:155,1,68.8,2|0,0:0|3:0,0:0:0:0:
248,85,6829,5,2,0:0:0:0:
269,224,7006,1,2,0:0:0:0:
269,224,7094,1,2,0:0:0:0:
269,224,7182,2,0,P|288:185|284:145,1,68.8,2|0,0:0|0:0,0:0:0:0:
105,304,7535,6,0,P|122:307|143:311,1,34.4,2|0,3:2|0:0,0:0:0:0:
308,340,7712,1,2,0:0:0:0:
150,302,7888,2,0,P|185:295|227:288,1,68.8,2|0,3:2|0:0,0:0:0:0:
384,126,8241,6,0,P|375:146|372:170,1,34.4,2|0,0:0|0:0,0:0:0:0:
435,290,8418,1,2,0:0:0:0:
360,166,8594,2,0,P|379:194|381:236,1,68.8,2|0,0:0|0:0,0:0:0:0:
262,97,8947,5,2,3:2:0:0:
429,51,9124,1,2,0:0:0:0:
429,51,9212,1,2,0:0:0:0:
429,51,9300,2,0,P|391:45|349:40,1,68.8,2|0,0:0|3:0,0:0:0:0:
199,160,9653,5,2,0:0:0:0:
247,33,9829,1,2,0:0:0:0:
247,33,9918,1,2,0:0:0:0:
247,33,10006,2,0,P|264:64|260:103,1,68.8,2|0,0:0|0:0,0:0:0:0:
136,223,10359,6,0,L|144:259,1,34.4,2|0,3:2|0:0,0:0:0:0:
200,354,10535,5,2,0:0:0:0:
195,350,10623,1,2,0:0:0:0:
190,346,10712,2,0,L|198:310,1,34.4,2|0,0:0|0:0,0:0:0:0:
254,215,10888,5,2,0:0:0:0:
249,219,10976,1,2,0:0:0:0:
244,223,11065,2,0,L|252:259,1,34.4,2|0,0:0|0:0,0:0:0:0:
308,354,11241,5,2,0:0:0:0:
303,350,11329,1,2,0:0:0:0:
298,346,11418,2,0,P|345:310|403:320,1,103.2,2|0,0:0|0:0,0:0:0:0:
401,308,11771,6,0,P|410:268|421:222,1,68.8,2|2,3:2|0:0,0:0:0:0:
508,247,12035,1,2,0:0:0:0:
500,243,12123,2,0,P|490:203|480:157,1,68.8,2|0,0:0|3:0,0:0:0:0:
312,44,12476,6,0,P|347:60|384:54,1,68.8,2|2,0:0|0:0,0:0:0:0:
435,113,12741,1,2,0:0:0:0:
439,104,12829,2,0,P|474:88|511:94,1,68.8,2|0,0:0|0:0,0:0:0:0:
330,230,13182,6,0,L|321:185,1,34.4,2|0,3:2|3:0,0:0:0:0:
241,81,13359,2,0,L|232:126,1,34.4,2|0,3:2|3:0,0:0:0:0:
157,233,13535,2,0,L|112:224,3,34.4,2|0|0|0,3:2|3:0|3:0|3:0,0:0:0:0:
47,148,13888,6,0,P|57:170|60:186,1,34.4,2|0,3:2|3:0,0:0:0:0:
111,341,14065,2,0,P|115:324|123:309,1,34.4,2|0,3:2|3:0,0:0:0:0:
247,190,14241,2,0,P|263:194|278:202,3,34.4,2|0|0|0,3:2|3:0|3:0|3:0,0:0:0:0:
316,270,14594,6,0,B|360:275|383:247|383:247|407:217|467:227,1,137.6,6|2,3:2|0:0,0:0:0:0:
495,166,15124,2,0,P|478:230|467:304,1,137.6,2|2,0:0|0:0,0:0:0:0:
406,355,15653,1,2,0:0:0:0:
288,123,16006,6,0,P|247:116|180:192,1,137.6
250,264,16535,1,0,0:0:0:0:
250,264,16712,2,0,P|263:228|256:189,1,68.8
259,198,16976,1,0,0:0:0:0:
259,198,17065,1,0,0:0:0:0:
50,355,17418,6,0,P|114:337|195:327,1,137.6,2|2,0:0|0:0,0:0:0:0:
250,264,17947,2,0,P|295:263|333:352,1,137.6,2|2,0:0|0:0,0:0:0:0:
259,373,18476,1,2,0:0:0:0:
407,232,18829,6,0,P|413:192|422:146,1,68.8,2|2,0:0|0:0,0:0:0:0:
493,211,19182,1,2,0:0:0:0:
329,40,19535,6,0,P|335:79|344:126,1,68.8,2|2,0:0|0:0,0:0:0:0:
415,61,19888,1,2,0:0:0:0:
276,228,20241,6,0,P|243:187|163:184,1,137.6,2|2,0:0|0:0,0:0:0:0:
66,108,20771,2,0,P|74:142|83:193,1,68.8,2|0,0:0|0:0,0:0:0:0:
148,101,21124,1,2,0:0:0:0:
68,191,21300,2,0,P|63:208|59:233,3,34.4,2|0|0|0,0:0|0:0|0:0|0:0,0:0:0:0:
5,331,21653,6,0,P|25:316|44:312,7,34.4,0|0|0|0|0|0|0|0,3:0|3:0|3:0|3:0|3:0|3:0|3:0|3:0,0:0:0:0:
176,277,22359,2,0,P|178:260|175:243,1,34.4,0|0,3:0|3:0,0:0:0:0:
66,238,22535,2,0,P|89:248|102:262,1,34.4,0|0,3:0|3:0,0:0:0:0:
226,341,22712,5,0,3:0:0:0:
251,337,22800,1,0,3:0:0:0:
277,333,22888,1,0,3:0:0:0:
302,330,22976,1,0,3:0:0:0:
328,326,23065,6,0,L|333:298,30,17.2,2|0|0|0|2|0|2|0|0|0|0|0|2|0|0|0|2|0|0|0|0|0|0|0|2|0|0|0|2|0|0,3:2|3:2|3:2|3:2|3:2|3:2|3:2|3:2|3:2|3:2|3:2|3:2|3:2|3:2|3:2|3:2|3:2|3:2|3:2|3:2|3:2|3:2|3:2|3:2|3:2|3:2|3:2|3:2|3:2|3:2|3:2,0:0:0:0:
383,241,24476,6,0,L|378:213,2,17.2,2|0|0,3:2|3:0|3:0,0:0:0:0:
442,293,24653,2,0,L|437:321,2,17.2,2|0|0,3:2|3:0|3:0,0:0:0:0:
458,216,24829,2,0,L|486:211,6,17.2,2|0|0|0|0|0|0,3:2|3:0|3:0|3:0|3:0|3:0|3:0,0:0:0:0:
380,144,25182,6,0,L|375:122,2,17.2,2|0|0,3:2|3:0|3:0,0:0:0:0:
320,49,25359,2,0,L|315:71,2,17.2,2|0|0,3:2|3:0|3:0,0:0:0:0:
268,149,25535,2,0,L|246:144,6,17.2,2|0|0|0|0|0|0,3:2|3:0|3:0|3:0|3:0|3:0|3:0,0:0:0:0:
205,82,25888,6,0,P|146:74|94:137,1,137.6,6|2,3:2|0:0,0:0:0:0:
32,71,26418,2,0,P|46:137|58:208,1,137.6,2|2,0:0|0:0,0:0:0:0:
23,285,26947,5,2,0:0:0:0:
38,290,27124,1,0,0:0:0:0:
53,295,27300,6,0,P|72:289|93:285,3,34.4,2|0|0|0,3:2|0:0|0:0|0:0,0:0:0:0:
142,217,27653,6,0,P|159:226|177:238,3,34.4,2|0|0|0,3:2|0:0|0:0|0:0,0:0:0:0:
260,224,28006,6,0,P|265:243|270:264,1,34.4,2|0,3:2|0:0,0:0:0:0:
316,360,28182,2,0,P|321:340|326:320,1,34.4,8|0,0:0|0:0,0:0:0:0:
420,207,28359,6,0,B|456:232|456:232|395:240|335:249,1,154.799995275879,6|0,1:2|0:0,0:0:0:0:
270,211,28712,6,0,P|276:179|284:141,1,51.599998425293,6|0,3:2|0:0,0:0:0:0:
195,59,28947,1,2,3:2:0:0:
207,66,29065,2,0,P|256:57|327:47,1,103.199996850586,10|0,0:0|0:0,0:0:0:0:
505,78,29418,6,0,P|478:91|450:90,1,51.599998425293,2|0,3:2|0:0,0:0:0:0:
380,19,29653,1,2,3:2:0:0:
390,27,29771,2,0,P|381:76|371:147,1,103.199996850586,10|0,0:0|0:0,0:0:0:0:
281,267,30124,6,0,P|273:238|277:201,1,51.599998425293,2|0,3:2|0:0,0:0:0:0:
352,312,30359,1,2,3:2:0:0:
277,350,30476,2,0,P|246:345|211:338,1,51.599998425293,10|0,0:0|0:0,0:0:0:0:
128,173,30712,5,2,3:2:0:0:
142,178,30829,2,0,P|149:229|156:285,1,103.199996850586,2|0,3:2|0:0,0:0:0:0:
158,291,31182,1,8,0:0:0:0:
298,101,31418,5,0,3:0:0:0:
298,101,31535,2,0,P|269:98|233:65,1,51.599998425293,2|0,3:2|0:0,0:0:0:0:
127,8,31771,1,2,3:2:0:0:
138,3,31888,2,0,P|166:37|154:112,1,103.199996850586,10|0,0:0|0:0,0:0:0:0:
57,186,32241,6,0,P|82:175|114:170,1,51.599998425293,2|0,3:2|0:0,0:0:0:0:
265,222,32476,1,2,3:2:0:0:
261,231,32594,2,0,P|214:249|158:259,1,103.199996850586,10|0,0:0|0:0,0:0:0:0:
308,340,32947,6,0,P|335:343|386:374,1,51.599998425293,2|0,3:2|0:0,0:0:0:0:
477,246,33182,1,2,3:2:0:0:
397,234,33300,2,0,P|402:261|411:312,1,51.599998425293,10|0,0:0|0:0,0:0:0:0:
447,170,33535,5,2,3:2:0:0:
431,149,33653,2,0,P|374:144|330:170,1,103.199996850586,2|0,3:2|0:0,0:0:0:0:
332,176,34006,1,8,0:0:0:0:
181,19,34241,5,0,3:0:0:0:
189,25,34359,2,0,P|192:55|199:106,1,51.599998425293,2|0,3:2|0:0,0:0:0:0:
161,161,34594,1,2,3:2:0:0:
165,149,34712,2,0,P|212:121|274:137,1,103.199996850586,10|0,0:0|0:0,0:0:0:0:
236,264,35065,6,0,P|232:233|226:183,1,51.599998425293,2|0,3:2|0:0,0:0:0:0:
355,68,35300,1,2,3:2:0:0:
344,73,35418,2,0,P|337:121|328:202,1,103.199996850586,10|0,0:0|0:0,0:0:0:0:
192,332,35771,6,0,P|162:336|132:345,1,51.599998425293,2|0,3:2|0:0,0:0:0:0:
10,279,36006,1,2,3:2:0:0:
96,217,36124,2,0,P|91:249|87:285,1,51.599998425293,10|0,0:0|0:0,0:0:0:0:
20,161,36359,5,2,3:2:0:0:
34,145,36476,2,0,P|82:137|149:127,1,103.199996850586,2|0,3:2|0:0,0:0:0:0:
149,127,36829,5,8,0:0:0:0:
208,75,36947,1,0,3:0:0:0:
282,100,37065,1,0,3:0:0:0:
297,176,37182,6,0,P|291:207|286:242,1,51.599998425293,2|0,3:2|3:0,0:0:0:0:
217,188,37418,1,2,3:2:0:0:
258,297,37535,2,0,P|304:267|370:284,1,103.199996850586,10|0,0:0|3:0,0:0:0:0:
441,376,37888,5,2,3:2:0:0:
425,298,38006,1,0,3:0:0:0:
366,349,38124,1,2,3:2:0:0:
500,325,38241,6,0,P|504:292|510:254,1,51.599998425293,10|0,0:0|3:0,0:0:0:0:
376,124,38476,1,0,3:0:0:0:
430,182,38594,6,0,P|458:176|496:170,3,51.599998425293,2|2|2|2,3:2|3:2|3:2|3:2,0:0:0:0:
416,41,38947,6,0,P|387:35|350:29,1,51.599998425293,2|0,3:2|0:0,0:0:0:0:
297,156,39124,2,0,P|268:161|231:168,1,51.599998425293,2|0,3:2|0:0,0:0:0:0:
122,36,39300,6,0,P|130:62|139:96,1,51.599998425293,2|0,3:2|0:0,0:0:0:0:
232,174,39476,2,0,P|223:200|215:234,1,51.599998425293,2|0,3:2|0:0,0:0:0:0:
58,351,39653,6,0,P|98:311|211:342,1,137.6,2|8,3:2|0:0,0:0:0:0:
246,366,39918,5,8,0:0:0:0:
246,366,40006,2,0,L|310:358,1,47.3000014434815,6|0,3:2|0:0,0:0:0:0:
474,270,40182,5,2,3:2:0:0:
439,240,40270,1,2,3:2:0:0:
393,246,40359,2,0,P|385:293|375:350,1,94.600002886963,10|0,0:0|0:0,0:0:0:0:
485,172,40712,5,2,3:2:0:0:
375,130,40888,1,2,0:0:0:0:
375,130,40976,1,2,0:0:0:0:
375,130,41065,2,0,P|328:138|271:148,1,94.600002886963,10|0,0:0|0:0,0:0:0:0:
108,43,41418,5,2,3:2:0:0:
161,222,41594,1,2,0:0:0:0:
161,222,41682,1,2,0:0:0:0:
161,222,41771,2,0,P|166:196|173:166,1,47.3000014434815,10|0,0:0|0:0,0:0:0:0:
20,35,41947,5,2,0:0:0:0:
20,35,42035,1,2,0:0:0:0:
20,35,42124,2,0,P|25:60|32:91,1,47.3000014434815,2|0,3:2|0:0,0:0:0:0:
250,223,42300,5,2,0:0:0:0:
250,223,42388,1,2,0:0:0:0:
250,223,42476,2,0,P|301:232|362:248,1,94.600002886963,10|0,0:0|0:0,0:0:0:0:
473,101,42829,5,2,3:2:0:0:
418,277,43005,1,2,0:0:0:0:
418,277,43093,1,2,0:0:0:0:
418,277,43182,2,0,P|394:233|399:185,1,94.600002886963,10|0,0:0|0:0,0:0:0:0:
512,317,43535,5,2,3:2:0:0:
384,377,43712,1,2,0:0:0:0:
384,377,43800,1,2,0:0:0:0:
384,377,43888,2,0,P|332:369|272:362,1,94.600002886963,10|0,0:0|0:0,0:0:0:0:
117,252,44241,5,2,3:2:0:0:
232,198,44418,1,2,0:0:0:0:
232,198,44506,1,2,0:0:0:0:
232,198,44594,2,0,P|225:225|220:258,1,47.3000014434815,10|0,0:0|0:0,0:0:0:0:
77,131,44771,5,2,0:0:0:0:
80,122,44859,1,2,0:0:0:0:
83,113,44947,2,0,P|120:88|193:101,1,94.600002886963,2|0,3:2|0:0,0:0:0:0:
229,20,45212,5,0,3:0:0:0:
234,28,45300,2,0,P|293:41|379:61,1,141.900004330444,10|0,1:2|0:0,0:0:0:0:
390,52,45653,5,6,3:2:0:0:
312,178,45829,1,2,0:0:0:0:
312,178,45918,1,2,0:0:0:0:
312,178,46006,2,0,P|303:132|293:76,1,94.600002886963,10|0,0:0|0:0,0:0:0:0:
416,204,46359,5,2,3:2:0:0:
282,302,46535,1,2,0:0:0:0:
282,302,46624,1,2,0:0:0:0:
282,302,46712,2,0,P|236:293|180:283,1,94.600002886963,10|0,0:0|0:0,0:0:0:0:
34,133,47065,5,2,3:2:0:0:
109,287,47241,1,2,0:0:0:0:
109,287,47329,1,2,0:0:0:0:
109,287,47418,2,0,P|115:258|123:223,1,47.3000014434815,10|0,0:0|0:0,0:0:0:0:
49,51,47594,5,2,0:0:0:0:
49,51,47682,1,2,0:0:0:0:
49,51,47771,2,0,P|20:57|-15:65,1,47.3000014434815,2|0,3:2|0:0,0:0:0:0:
200,200,47947,5,2,0:0:0:0:
200,200,48035,1,2,0:0:0:0:
200,200,48124,2,0,P|193:171|186:136,1,47.3000014434815,10|0,0:0|0:0,0:0:0:0:
168,60,48300,1,0,3:0:0:0:
191,312,48476,6,0,P|234:285|314:279,1,94.600002886963,2|0,3:2|0:0,0:0:0:0:
303,202,48741,2,0,P|327:207|358:233,1,47.3000014434815,0|0,3:0|0:0,0:0:0:0:
422,172,48918,5,0,3:0:0:0:
416,185,49006,2,0,P|445:232|452:320,2,141.900004330444,0|0|0,3:0|3:0|3:0,0:0:0:0:
446,329,49712,1,0,3:0:0:0:
508,171,49888,6,0,P|511:149|516:128,6,23.6500007217407,2|0|0|0|0|0|0,3:2|3:0|3:0|3:0|3:0|3:0|3:0,0:0:0:0:
450,98,50241,6,0,P|433:84|416:69,6,23.6500007217407,2|0|0|0|0|0|0,3:2|3:0|3:0|3:0|3:0|3:0|3:0,0:0:0:0:
357,111,50594,6,0,P|336:118|315:125,6,23.6500007217407,2|0|0|0|0|0|0,3:2|3:0|3:0|3:0|3:0|3:0|3:0,0:0:0:0:
321,198,50947,6,0,P|317:219|313:240,6,23.6500007217407,2|0|0|0|0|0|0,3:2|3:0|3:0|3:0|3:0|3:0|3:0,0:0:0:0:
270,290,51300,6,0,P|312:254|391:266,1,137.6,6|2,3:2|0:0,0:0:0:0:
301,377,51829,2,0,P|231:367|157:357,1,137.6,2|2,3:2|0:0,0:0:0:0:
32,291,52359,2,0,P|58:262|131:272,1,103.2,2|0,0:0|0:0,0:0:0:0:
129,271,52712,6,0,P|145:198|161:132,1,137.6,2|2,3:2|0:0,0:0:0:0:
122,70,53241,1,2,0:0:0:0:
238,203,53594,1,2,0:0:0:0:
238,203,53771,2,0,P|272:196|321:188,1,68.8,2|0,0:0|0:0,0:0:0:0:
466,120,54124,6,0,P|421:78|343:90,1,137.6,2|2,3:2|0:0,0:0:0:0:
373,296,54653,2,0,P|382:224|394:148,1,137.6,2|2,3:2|0:0,0:0:0:0:
296,20,55182,2,0,P|271:55|275:129,1,103.2,2|0,0:0|0:0,0:0:0:0:
276,124,55535,5,2,3:2:0:0:
197,158,55712,1,2,3:2:0:0:
128,106,55888,2,0,P|90:98|46:90,1,68.8,2|2,3:2|0:0,0:0:0:0:
138,20,56241,5,2,0:0:0:0:
74,175,56418,1,2,0:0:0:0:
142,11,56594,1,2,0:0:0:0:
179,274,56947,6,0,P|242:260|332:242,1,137.6,2|2,3:2|0:0,0:0:0:0:
373,187,57476,2,0,P|438:196|473:253,1,137.6,2|2,3:2|0:0,0:0:0:0:
404,336,58006,2,0,P|398:301|391:252,1,68.8,2|0,0:0|0:0,0:0:0:0:
497,120,58359,6,0,P|423:103|337:85,1,137.6,2|2,3:2|0:0,0:0:0:0:
337,15,58888,1,2,0:0:0:0:
240,149,59241,1,2,0:0:0:0:
240,149,59418,2,0,P|230:105|219:52,1,68.8,2|0,0:0|0:0,0:0:0:0:
194,218,59771,6,0,P|252:178|331:199,1,137.6,2|2,3:2|0:0,0:0:0:0:
211,299,60300,2,0,P|174:299|142:282,1,68.8,2|0,3:2|0:0,0:0:0:0:
67,135,60653,1,2,0:0:0:0:
67,135,60829,2,0,L|83:255,1,103.2,2|0,0:0|0:0,0:0:0:0:
66,254,61182,6,0,L|58:314,3,34.4,2|2|2|2,3:2|3:2|3:2|3:2,0:0:0:0:
49,373,61535,6,0,L|109:365,1,34.4,2|0,3:2|0:0,0:0:0:0:
159,357,61712,2,0,L|219:349,1,34.4,2|0,3:2|0:0,0:0:0:0:
286,222,61888,6,0,L|278:282,1,34.4,2|0,3:2|0:0,0:0:0:0:
269,341,62065,1,2,3:2:0:0:
288,210,62241,1,2,3:2:0:0:
290,198,62594,5,4,3:2:0:0:
256,192,62638,12,0,64535,0:0:0:0:
