osu file format v14

[General]
AudioFilename: audio.ogg
AudioLeadIn: 0
PreviewTime: 21143
Countdown: 0
SampleSet: Normal
StackLeniency: 0.7
Mode: 1
LetterboxInBreaks: 0
WidescreenStoryboard: 1

[Editor]
DistanceSpacing: 1.2
BeatDivisor: 4
GridSize: 32
TimelineZoom: 3.199999

[Metadata]
Title:Watame Koujou Kusozako Kaisen Remix
TitleUnicode:わため工場 クソザコ回線リミックス
Artist:REDALiCE
ArtistUnicode:REDALiCE
Creator:Naffu
Version:Oni
Source:
Tags:vtuber japanese electronic Tsunomaki hololive production バーチャル ユーチューバー virtual youtuber 角巻 factory ホロライブプロダクション jaltzu
BeatmapID:2640802
BeatmapSetID:1270752

[Difficulty]
HPDrainRate:5
CircleSize:2
OverallDifficulty:5.5
ApproachRate:5
SliderMultiplier:1.4
SliderTickRate:1

[Events]
//Background and Video events
0,0,"zen+zen+znee.jpg",0,120
//Break Periods
//Storyboard Layer 0 (Background)
//Storyboard Layer 1 (Fail)
//Storyboard Layer 2 (Pass)
//Storyboard Layer 3 (Foreground)
//Storyboard Layer 4 (Overlay)
//Storyboard Sound Samples

[TimingPoints]
-4356,400,4,1,0,40,1,0
21244,-100,4,1,0,65,0,1
27244,-100,4,1,0,65,0,0
27644,-100,4,1,0,65,0,1
32444,-100,4,1,0,65,0,0
34444,-100,4,1,0,65,0,1
40044,-100,4,1,0,65,0,0
40444,-100,4,1,0,65,0,1
45244,-100,4,1,0,65,0,0
46844,-100,4,1,0,65,0,0
51644,400,4,1,0,70,1,0

[HitObjects]
256,192,444,5,8,0:0:0:0:
256,192,844,1,0,0:0:0:0:
256,192,1044,1,8,0:0:0:0:
256,192,1444,1,0,0:0:0:0:
256,192,1544,1,0,0:0:0:0:
256,192,1644,1,8,0:0:0:0:
256,192,1844,1,0,0:0:0:0:
256,192,2044,1,12,0:0:0:0:
256,192,2444,1,0,0:0:0:0:
256,192,2644,1,8,0:0:0:0:
256,192,3044,1,8,0:0:0:0:
256,192,3244,1,0,0:0:0:0:
256,192,3444,1,0,0:0:0:0:
256,192,3644,1,8,0:0:0:0:
256,192,4044,1,0,0:0:0:0:
256,192,4244,1,0,0:0:0:0:
256,192,4444,1,8,0:0:0:0:
256,192,4844,1,8,0:0:0:0:
256,192,5244,1,8,0:0:0:0:
256,192,5444,1,0,0:0:0:0:
256,192,5544,1,0,0:0:0:0:
256,192,5644,1,8,0:0:0:0:
256,192,5844,1,8,0:0:0:0:
256,192,6244,1,8,0:0:0:0:
256,192,6444,1,8,0:0:0:0:
256,192,6644,1,0,0:0:0:0:
256,192,6844,1,8,0:0:0:0:
256,192,7144,1,0,0:0:0:0:
256,192,7244,1,8,0:0:0:0:
256,192,7444,1,0,0:0:0:0:
256,192,7644,1,8,0:0:0:0:
256,192,8044,1,8,0:0:0:0:
256,192,8444,1,4,0:0:0:0:
256,192,8644,1,0,0:0:0:0:
256,192,8744,1,0,0:0:0:0:
256,192,8844,1,8,0:0:0:0:
256,192,9044,1,8,0:0:0:0:
256,192,9444,1,0,0:0:0:0:
256,192,9644,1,8,0:0:0:0:
256,192,9844,1,8,0:0:0:0:
256,192,10044,1,0,0:0:0:0:
256,192,10444,1,8,0:0:0:0:
256,192,10644,1,0,0:0:0:0:
256,192,10844,1,8,0:0:0:0:
256,192,11244,1,8,0:0:0:0:
256,192,11644,1,8,0:0:0:0:
256,192,11844,1,0,0:0:0:0:
256,192,11944,1,0,0:0:0:0:
256,192,12044,1,8,0:0:0:0:
256,192,12244,1,8,0:0:0:0:
256,192,12644,1,8,0:0:0:0:
256,192,12844,1,0,0:0:0:0:
256,192,13044,1,0,0:0:0:0:
256,192,13244,1,8,0:0:0:0:
256,192,13544,1,8,0:0:0:0:
256,192,13644,1,8,0:0:0:0:
256,192,13844,1,0,0:0:0:0:
256,192,14044,1,8,0:0:0:0:
256,192,14444,1,8,0:0:0:0:
256,192,14844,1,12,0:0:0:0:
256,192,15044,1,0,0:0:0:0:
256,192,15144,1,0,0:0:0:0:
256,192,15244,1,8,0:0:0:0:
256,192,15444,1,0,0:0:0:0:
256,192,15644,1,8,0:0:0:0:
256,192,15744,1,8,0:0:0:0:
256,192,15844,1,0,0:0:0:0:
256,192,16044,1,8,0:0:0:0:
256,192,16244,1,0,0:0:0:0:
256,192,16444,1,8,0:0:0:0:
256,192,16744,1,8,0:0:0:0:
256,192,16844,1,0,0:0:0:0:
256,192,17044,1,8,0:0:0:0:
256,192,17244,1,0,0:0:0:0:
256,192,17444,1,0,0:0:0:0:
256,192,17644,1,8,0:0:0:0:
256,192,17744,1,0,0:0:0:0:
256,192,17844,1,8,0:0:0:0:
256,192,17944,1,8,0:0:0:0:
256,192,18044,1,0,0:0:0:0:
256,192,19644,1,8,0:0:0:0:
256,192,19944,1,8,0:0:0:0:
256,192,20044,1,8,0:0:0:0:
256,192,20244,1,8,0:0:0:0:
256,192,20444,1,0,0:0:0:0:
256,192,20644,1,0,0:0:0:0:
256,192,20844,1,12,0:0:0:0:
256,192,21244,1,0,0:0:0:0:
256,192,21444,1,8,0:0:0:0:
256,192,21544,1,8,0:0:0:0:
256,192,21644,1,0,0:0:0:0:
256,192,21844,1,8,0:0:0:0:
256,192,22044,1,0,0:0:0:0:
256,192,22244,1,8,0:0:0:0:
256,192,22344,1,0,0:0:0:0:
256,192,22444,1,0,0:0:0:0:
256,192,22644,1,8,0:0:0:0:
256,192,22844,1,0,0:0:0:0:
256,192,23044,1,0,0:0:0:0:
256,192,23144,1,0,0:0:0:0:
256,192,23244,1,8,0:0:0:0:
256,192,23444,1,0,0:0:0:0:
256,192,23644,1,8,0:0:0:0:
256,192,23844,1,0,0:0:0:0:
256,192,23944,1,0,0:0:0:0:
256,192,24044,1,8,0:0:0:0:
256,192,24244,1,0,0:0:0:0:
256,192,24444,1,12,0:0:0:0:
256,192,24744,1,0,0:0:0:0:
256,192,24844,1,8,0:0:0:0:
256,192,25044,1,8,0:0:0:0:
256,192,25244,1,0,0:0:0:0:
256,192,25444,1,0,0:0:0:0:
256,192,25544,1,0,0:0:0:0:
256,192,25644,1,8,0:0:0:0:
256,192,25844,1,0,0:0:0:0:
256,192,26044,1,8,0:0:0:0:
256,192,26344,1,8,0:0:0:0:
256,192,26444,1,8,0:0:0:0:
256,192,26644,1,8,0:0:0:0:
256,192,26844,1,0,0:0:0:0:
256,192,27044,1,0,0:0:0:0:
256,192,27244,1,8,0:0:0:0:
256,192,27644,1,0,0:0:0:0:
256,192,27844,1,0,0:0:0:0:
256,192,27944,1,0,0:0:0:0:
256,192,28044,1,8,0:0:0:0:
256,192,28244,1,8,0:0:0:0:
256,192,28444,1,0,0:0:0:0:
256,192,28644,1,8,0:0:0:0:
256,192,28744,1,0,0:0:0:0:
256,192,28844,1,0,0:0:0:0:
256,192,29044,1,0,0:0:0:0:
256,192,29244,1,8,0:0:0:0:
256,192,29444,1,0,0:0:0:0:
256,192,29544,1,0,0:0:0:0:
256,192,29644,1,8,0:0:0:0:
256,192,29844,1,0,0:0:0:0:
256,192,30044,1,8,0:0:0:0:
256,192,30144,1,8,0:0:0:0:
256,192,30244,1,0,0:0:0:0:
256,192,30444,1,8,0:0:0:0:
256,192,30844,1,0,0:0:0:0:
256,192,31044,1,0,0:0:0:0:
256,192,31144,1,0,0:0:0:0:
256,192,31244,1,8,0:0:0:0:
256,192,31444,1,0,0:0:0:0:
256,192,31644,1,8,0:0:0:0:
256,192,31844,1,8,0:0:0:0:
256,192,32044,1,8,0:0:0:0:
256,192,32244,1,8,0:0:0:0:
256,192,32444,1,0,0:0:0:0:
256,192,32744,1,0,0:0:0:0:
256,192,32844,1,0,0:0:0:0:
256,192,33044,1,0,0:0:0:0:
256,192,33244,1,8,0:0:0:0:
256,192,33644,1,8,0:0:0:0:
256,192,34044,1,0,0:0:0:0:
256,192,34244,1,0,0:0:0:0:
256,192,34444,1,8,0:0:0:0:
256,192,34644,1,8,0:0:0:0:
256,192,34844,1,0,0:0:0:0:
256,192,35044,1,0,0:0:0:0:
256,192,35144,1,0,0:0:0:0:
256,192,35244,1,8,0:0:0:0:
256,192,35444,1,0,0:0:0:0:
256,192,35644,1,8,0:0:0:0:
256,192,35944,1,8,0:0:0:0:
256,192,36044,1,8,0:0:0:0:
256,192,36244,1,8,0:0:0:0:
256,192,36444,1,0,0:0:0:0:
256,192,36644,1,0,0:0:0:0:
256,192,36744,1,0,0:0:0:0:
256,192,36844,1,8,0:1:0:0:
256,192,37244,1,8,0:0:0:0:
256,192,37444,1,0,0:0:0:0:
256,192,37544,1,0,0:0:0:0:
256,192,37644,1,8,0:0:0:0:
256,192,37844,1,8,0:0:0:0:
256,192,38044,1,0,0:0:0:0:
256,192,38244,1,8,0:0:0:0:
256,192,38344,1,0,0:0:0:0:
256,192,38444,1,8,0:0:0:0:
256,192,38644,1,8,0:0:0:0:
256,192,38844,1,0,0:0:0:0:
256,192,39144,1,0,0:0:0:0:
256,192,39244,1,8,0:0:0:0:
256,192,39444,1,8,0:0:0:0:
256,192,39644,1,0,0:0:0:0:
256,192,39844,1,0,0:0:0:0:
256,192,40044,1,8,0:0:0:0:
256,192,40444,1,8,0:0:0:0:
256,192,40744,1,0,0:0:0:0:
256,192,40844,1,8,0:0:0:0:
256,192,41044,1,0,0:0:0:0:
256,192,41244,1,8,0:0:0:0:
256,192,41544,1,0,0:0:0:0:
256,192,41644,1,8,0:0:0:0:
256,192,41844,1,8,0:0:0:0:
256,192,42044,1,0,0:0:0:0:
256,192,42344,1,0,0:0:0:0:
256,192,42444,1,8,0:0:0:0:
256,192,42644,1,0,0:0:0:0:
256,192,42844,1,8,0:0:0:0:
256,192,43044,1,8,0:0:0:0:
256,192,43144,1,8,0:0:0:0:
256,192,43244,1,8,0:0:0:0:
256,192,43444,1,8,0:0:0:0:
256,192,43644,1,0,0:0:0:0:
256,192,43844,1,0,0:0:0:0:
256,192,43944,1,0,0:0:0:0:
256,192,44044,1,8,0:1:0:0:
256,192,44244,1,8,0:0:0:0:
256,192,44444,1,0,0:0:0:0:
256,192,44644,1,8,0:0:0:0:
256,192,44744,1,0,0:0:0:0:
256,192,44844,1,8,0:0:0:0:
256,192,45044,1,8,0:0:0:0:
256,192,45244,1,0,0:0:0:0:
256,192,45544,1,0,0:0:0:0:
256,192,45644,1,8,0:0:0:0:
256,192,45844,1,0,0:0:0:0:
256,192,46044,1,8,0:0:0:0:
256,192,46444,1,8,0:0:0:0:
256,192,46844,1,4,0:0:0:0:
256,192,47244,1,0,0:0:0:0:
256,192,47444,1,0,0:0:0:0:
256,192,47644,1,8,0:0:0:0:
256,192,48044,1,8,0:0:0:0:
256,192,48444,1,0,0:0:0:0:
256,192,48744,1,0,0:0:0:0:
256,192,48844,1,0,0:0:0:0:
256,192,49044,1,0,0:0:0:0:
256,192,49244,1,8,0:0:0:0:
256,192,49444,1,0,0:0:0:0:
256,192,49544,1,0,0:0:0:0:
256,192,49644,1,8,0:0:0:0:
256,192,49844,1,8,0:0:0:0:
256,192,50444,1,8,0:0:0:0:
256,192,50644,1,8,0:0:0:0:
256,192,50844,1,0,0:0:0:0:
256,192,50944,1,0,0:0:0:0:
256,192,51044,1,0,0:0:0:0:
256,192,51144,1,0,0:0:0:0:
256,192,51244,1,8,0:0:0:0:
256,192,51644,1,0,0:0:0:0:
256,192,51844,1,0,0:0:0:0:
256,192,51944,1,0,0:0:0:0:
256,192,52044,1,8,0:0:0:0:
256,192,52244,1,8,0:0:0:0:
256,192,52644,1,0,0:0:0:0:
256,192,52844,1,8,0:0:0:0:
256,192,53044,1,0,0:0:0:0:
256,192,53244,1,8,0:0:0:0:
256,192,53444,1,0,0:0:0:0:
256,192,53544,1,0,0:0:0:0:
256,192,53644,1,8,0:0:0:0:
256,192,53844,1,8,0:0:0:0:
256,192,54044,1,0,0:0:0:0:
256,192,54444,1,8,0:0:0:0:
256,192,54844,1,8,0:0:0:0:
256,192,55044,1,0,0:0:0:0:
256,192,55144,1,0,0:0:0:0:
256,192,55244,1,8,0:0:0:0:
256,192,55444,1,8,0:0:0:0:
256,192,55844,1,8,0:0:0:0:
256,192,56044,1,8,0:0:0:0:
256,192,56244,1,8,0:0:0:0:
256,192,56444,1,0,0:0:0:0:
256,192,56644,1,8,0:0:0:0:
256,192,56744,1,8,0:0:0:0:
256,192,56844,1,0,0:0:0:0:
256,192,57044,1,8,0:0:0:0:
256,192,57244,1,0,0:0:0:0:
256,192,57444,1,0,0:0:0:0:
256,192,57644,1,8,0:0:0:0:
256,192,58044,1,0,0:0:0:0:
256,192,58244,1,0,0:0:0:0:
256,192,58344,1,0,0:0:0:0:
256,192,58444,1,8,0:0:0:0:
256,192,58644,1,8,0:0:0:0:
256,192,59044,1,8,0:0:0:0:
256,192,59244,1,8,0:0:0:0:
256,192,59444,1,0,0:0:0:0:
256,192,59644,1,8,0:0:0:0:
256,192,59844,1,0,0:0:0:0:
256,192,59944,1,0,0:0:0:0:
256,192,60044,1,8,0:0:0:0:
256,192,60244,1,8,0:0:0:0:
256,192,60444,1,0,0:0:0:0:
256,192,60844,1,8,0:0:0:0:
256,192,61244,1,8,0:0:0:0:
256,192,61444,1,0,0:0:0:0:
256,192,61544,1,0,0:0:0:0:
256,192,61644,1,8,0:0:0:0:
256,192,61844,1,8,0:0:0:0:
256,192,62244,1,0,0:0:0:0:
256,192,62444,1,8,0:0:0:0:
256,192,62644,1,8,0:0:0:0:
256,192,62844,1,0,0:0:0:0:
256,192,63144,1,0,0:0:0:0:
256,192,63244,1,8,0:0:0:0:
256,192,63444,1,0,0:0:0:0:
256,192,63644,1,8,0:0:0:0:
256,192,63744,1,8,0:0:0:0:
256,192,63844,1,0,0:0:0:0:
256,192,63944,1,0,0:0:0:0:
256,192,64044,1,8,0:0:0:0:
256,192,64244,1,8,0:0:0:0:
256,192,64444,1,4,0:0:0:0:
