osu file format v14

[General]
AudioFilename: audio.mp3
AudioLeadIn: 0
PreviewTime: 21333
Countdown: 0
SampleSet: Soft
StackLeniency: 0.7
Mode: 2
LetterboxInBreaks: 0
WidescreenStoryboard: 1

[Editor]
DistanceSpacing: 1.2
BeatDivisor: 8
GridSize: 16
TimelineZoom: 3.499999

[Metadata]
Title:Watame Koujou Kusozako Kaisen Remix
TitleUnicode:わため工場 クソザコ回線リミックス
Artist:REDALiCE
ArtistUnicode:REDALiCE
Creator:Myxo
Version:Overdose
Source:
Tags:vtuber virtual youtuber hololive factory tsunomaki japanese novelty electronic overranked -aku bad mapper secre chickenbible souvenir
BeatmapID:3362593
BeatmapSetID:1647383

[Difficulty]
HPDrainRate:6
CircleSize:4
OverallDifficulty:9.3
ApproachRate:9.3
SliderMultiplier:2.22
SliderTickRate:2

[Events]
//Background and Video events
0,0,"cacc1600-b3d5-11ea-9db2-e534b4e4fd37.jpg",0,0
//Break Periods
//Storyboard Layer 0 (Background)
//Storyboard Layer 1 (Fail)
//Storyboard Layer 2 (Pass)
//Storyboard Layer 3 (Foreground)
//Storyboard Layer 4 (Overlay)
//Storyboard Sound Samples

[TimingPoints]
2133,400,4,2,1,60,1,0
8533,-100,4,2,1,70,0,0
14933,-66.6666666666667,4,2,1,80,0,0
18133,-100,4,2,1,80,0,0
19733,-100,4,2,1,50,0,0
20133,-100,4,2,1,60,0,0
20533,-100,4,2,1,70,0,0
20933,-50,4,2,1,80,0,0
21333,-83.3333333333333,4,2,1,80,0,0
26133,-66.6666666666667,4,2,1,80,0,0
27733,-83.3333333333333,4,2,1,80,0,0
32533,-66.6666666666667,4,2,1,80,0,0
33733,-50,4,2,1,80,0,0
34133,-83.3333333333333,4,2,1,80,0,0
34533,-83.3333333333333,4,2,1,90,0,1
43733,-66.6666666666667,4,2,1,90,0,1
45333,-41.6666666666667,4,2,1,100,0,1
45733,-38.4615384615385,4,2,1,100,0,1
46133,-35.7142857142857,4,2,1,100,0,1
46533,-33.3333333333333,4,2,1,100,0,1
46933,-100,4,2,1,70,0,0
48533,-66.6666666666667,4,2,1,80,0,0
49733,-41.6666666666667,4,2,1,70,0,0
49933,-45.045045045045,4,2,1,70,0,0
50533,-66.6666666666667,4,2,1,70,0,0
51333,-50,4,2,1,80,0,0
51733,400,4,2,1,80,1,0
51733,-90.9090909090909,4,2,1,80,0,0
56533,-90.9090909090909,4,2,1,70,0,0
58133,-83.3333333333333,4,2,1,90,0,0
64633,-83.3333333333333,4,2,1,15,0,0

[Colours]
Combo1 : 113,213,142
Combo2 : 250,209,114
Combo3 : 218,146,213
Combo4 : 126,148,250

[HitObjects]
333,289,1533,6,0,L|271:287,2,55.5,2|2|2,0:0|0:0|0:3,0:0:0:0:
479,254,1933,1,2,0:3:0:0:
211,202,2133,6,0,P|137:201|82:79,1,222,6|2,3:2|0:3,0:0:0:0:
248,111,2733,2,0,L|372:104,1,111,2|0,0:3|0:0,0:0:0:0:
201,196,3133,1,0,0:0:0:0:
145,192,3233,1,0,0:0:0:0:
90,189,3333,1,2,0:3:0:0:
235,262,3533,1,2,0:3:0:0:
35,335,3733,6,0,P|38:276|150:238,1,166.5,2|2,0:0|0:3,0:0:0:0:
218,250,4133,1,2,0:3:0:0:
74,214,4333,1,2,0:3:0:0:
274,314,4533,2,0,P|262:238|134:216,1,222,2|2,0:0|0:0,0:0:0:0:
422,173,5333,6,0,L|487:169,2,55.5,2|0|0,0:0|0:0|0:0,0:0:0:0:
260,196,5733,2,0,L|226:81,1,111,2|2,0:3|0:3,0:0:0:0:
416,148,6133,1,2,0:0:0:0:
431,94,6233,1,0,0:0:0:0:
447,41,6333,1,2,0:3:0:0:
280,125,6533,1,2,0:3:0:0:
413,175,6733,1,2,0:3:0:0:
202,250,6933,6,0,P|142:251|70:175,2,166.5,2|2|2,0:0|0:3|0:3,0:0:0:0:
391,307,7733,2,0,P|445:283|402:155,1,222,2|2,0:0|0:0,0:0:0:0:
51,118,8533,5,6,3:2:0:0:
23,172,8633,1,0,0:0:0:0:
51,222,8733,1,0,0:0:0:0:
106,226,8833,1,0,0:0:0:0:
198,193,8933,1,8,0:0:0:0:
38,320,9133,2,0,L|158:326,1,111,2|0,0:3|0:0,0:0:0:0:
339,310,9533,2,0,L|344:250,1,55.5,2|2,0:3|0:3,0:0:0:0:
254,270,9733,2,0,L|249:210,1,55.5,8|0,0:0|0:0,0:0:0:0:
350,177,9933,1,2,0:3:0:0:
83,164,10133,6,0,P|90:109|188:66,1,166.5,2|2,0:0|0:3,0:0:0:0:
272,83,10533,1,8,0:0:0:0:
107,59,10733,1,2,0:3:0:0:
296,181,10933,1,2,0:0:0:0:
301,140,11033,1,0,0:0:0:0:
96,230,11233,1,0,0:0:0:0:
40,213,11333,2,0,L|160:205,1,111,10|0,0:0|0:0,0:0:0:0:
420,228,11733,5,2,0:0:0:0:
468,200,11833,1,0,0:0:0:0:
463,143,11933,1,2,0:3:0:0:
408,124,12033,1,2,0:3:0:0:
307,102,12133,2,0,L|427:93,1,111,8|2,0:0|0:3,0:0:0:0:
229,181,12533,2,0,L|185:145,1,55.5,2|0,0:0|0:0,0:0:0:0:
93,167,12733,2,0,L|49:131,1,55.5,2|2,0:3|0:3,0:0:0:0:
161,272,12933,2,0,L|222:268,1,55.5,8|0,0:0|0:0,0:0:0:0:
323,247,13133,2,0,L|380:243,1,55.5,2|0,0:3|0:0,0:0:0:0:
210,341,13333,6,0,L|71:334,1,111,10|2,0:0|0:3,0:0:0:0:
210,261,13633,2,0,L|249:155,1,111,2|0,0:3|0:0,0:0:0:0:
125,191,13933,2,0,L|55:186,1,55.5,2|0,0:3|0:0,0:0:0:0:
247,97,14133,1,10,0:0:0:0:
320,94,14233,1,0,0:0:0:0:
393,89,14333,1,2,0:3:0:0:
466,85,14433,1,2,0:3:0:0:
355,203,14533,2,0,L|290:201,2,55.5,10|2|2,0:0|0:3|0:3,0:0:0:0:
457,180,14833,1,0,0:0:0:0:
255,277,14933,6,0,L|12:178,1,249.750009527207,6|0,3:2|0:0,0:0:0:0:
190,160,15333,2,0,L|275:148,1,83.2500031757356,0|0,1:0|3:0,0:0:0:0:
190,160,15533,2,0,L|105:148,1,83.2500031757356,0|0,3:0|3:0,0:0:0:0:
301,73,15733,2,0,L|337:181,1,83.2500031757356,2|0,1:2|3:0,0:0:0:0:
227,184,15933,2,0,L|263:292,1,83.2500031757356,0|0,3:0|3:0,0:0:0:0:
445,294,16133,2,0,L|491:225,2,83.2500031757356,2|0|0,1:2|3:0|3:0,0:0:0:0:
344,333,16433,1,0,3:0:0:0:
161,345,16533,6,0,P|122:322|169:236,1,166.500006351471,2|8,3:0|0:0,0:0:0:0:
268,217,16833,1,2,0:0:0:0:
101,186,16933,1,2,3:0:0:0:
284,123,17133,1,10,0:0:0:0:
23,98,17333,1,2,3:0:0:0:
31,101,17433,1,8,0:0:0:0:
57,93,17533,1,8,0:0:0:0:
102,110,17633,1,8,0:0:0:0:
165,81,17733,1,8,0:0:0:0:
247,108,17833,1,8,0:0:0:0:
344,77,17933,1,8,0:0:0:0:
457,102,18033,1,8,0:0:0:0:
185,201,18133,5,4,3:2:0:0:
415,284,19733,5,0,3:0:0:0:
413,284,19783,5,0,0:0:0:0:
417,284,19833,5,0,0:0:0:0:
411,284,19883,5,0,0:0:0:0:
419,284,19933,5,0,0:0:0:0:
409,284,19983,5,0,0:0:0:0:
421,284,20033,5,0,0:0:0:0:
407,284,20083,5,0,0:0:0:0:
423,284,20133,5,0,0:0:0:0:
405,284,20183,5,0,0:0:0:0:
425,284,20233,5,0,0:0:0:0:
403,284,20283,5,0,0:0:0:0:
427,284,20333,5,0,0:0:0:0:
401,284,20383,5,0,0:0:0:0:
429,284,20433,5,0,0:0:0:0:
399,284,20483,5,0,0:0:0:0:
431,284,20533,5,0,0:0:0:0:
397,284,20583,5,0,0:0:0:0:
433,284,20633,5,0,0:0:0:0:
395,284,20683,5,0,0:0:0:0:
435,284,20733,5,0,0:0:0:0:
393,284,20783,5,0,0:0:0:0:
437,284,20833,5,0,0:0:0:0:
171,323,20933,6,0,P|60:307|171:203,1,333,4|0,1:2|0:0,0:0:0:0:
401,197,21333,6,0,L|256:203,1,133.199995935059,2|0,3:2|0:0,0:0:0:0:
348,178,21633,1,8,0:0:0:0:
428,151,21733,1,0,3:0:0:0:
168,113,21933,2,0,L|23:119,1,133.199995935059,10|0,0:0|3:0,0:0:0:0:
296,184,22333,1,8,0:0:0:0:
302,117,22433,1,8,0:0:0:0:
308,46,22533,1,0,3:0:0:0:
119,94,22733,1,8,0:0:0:0:
455,136,22933,6,0,P|456:202|325:255,1,199.799993902588,2|8,3:2|0:0,0:0:0:0:
188,301,23333,1,0,3:2:0:0:
375,337,23533,1,8,0:0:0:0:
96,348,23733,2,0,L|83:216,1,133.199995935059,2|8,3:2|0:0,0:0:0:0:
175,210,24033,1,0,3:0:0:0:
16,139,24133,2,0,L|151:134,1,133.199995935059,2|0,3:2|3:0,0:0:0:0:
456,171,24533,5,6,3:2:0:0:
324,160,24733,2,0,L|320:90,1,66.5999979675294,0|8,0:0|0:0,0:0:0:0:
84,64,24933,2,0,L|218:68,1,133.199995935059,2|8,3:0|0:0,0:0:0:0:
70,162,25333,1,0,3:0:0:0:
200,167,25533,2,0,L|203:233,1,66.5999979675294,8|8,0:0|0:0,0:0:0:0:
436,281,25733,2,0,L|302:285,1,133.199995935059,2|8,3:0|0:0,0:0:0:0:
128,331,26133,5,0,3:0:0:0:
415,269,26333,2,0,P|398:207|298:184,1,166.500006351471,10|2,0:0|3:0,0:0:0:0:
47,159,26733,1,10,0:0:0:0:
235,104,26933,2,0,L|305:58,1,83.2500031757356,0|8,3:0|0:0,0:0:0:0:
128,76,27133,2,0,L|58:30,1,83.2500031757356,0|8,3:0|0:0,0:0:0:0:
358,36,27333,2,0,P|450:96|365:170,1,249.750009527207,6|0,1:2|0:0,0:0:0:0:
145,197,27733,6,0,L|280:198,1,133.199995935059,2|0,3:2|0:0,0:0:0:0:
358,178,28033,1,8,0:0:0:0:
438,160,28133,1,0,3:0:0:0:
177,115,28333,2,0,L|38:111,1,133.199995935059,10|0,0:0|3:0,0:0:0:0:
312,68,28733,2,0,L|383:65,2,66.5999979675294,8|8|0,0:0|0:0|3:0,0:0:0:0:
120,38,29133,1,8,0:0:0:0:
447,168,29333,6,0,P|452:235|342:289,1,199.799993902588,2|8,3:2|0:0,0:0:0:0:
186,333,29733,1,0,3:0:0:0:
374,340,29933,1,8,0:0:0:0:
102,349,30133,1,2,3:2:0:0:
28,344,30233,1,0,0:0:0:0:
212,247,30433,1,8,0:0:0:0:
51,223,30533,2,0,L|35:84,1,133.199995935059,2|8,3:2|0:0,0:0:0:0:
355,62,30933,5,0,3:0:0:0:
206,133,31133,1,2,1:2:0:0:
275,141,31233,1,10,0:0:0:0:
344,147,31333,1,2,1:3:0:0:
155,210,31533,1,2,1:2:0:0:
422,294,31733,2,0,L|428:227,1,66.5999979675294,0|8,1:0|0:0,0:0:0:0:
297,266,31933,2,0,L|230:268,1,66.5999979675294,2|0,1:2|1:0,0:0:0:0:
101,293,32133,2,0,L|95:224,1,66.5999979675294,2|8,1:2|0:0,0:0:0:0:
256,127,32333,2,0,L|325:125,1,66.5999979675294,2|0,1:2|0:0,0:0:0:0:
52,52,32533,6,0,P|154:50|200:175,1,249.750009527207,4|10,3:2|0:0,0:0:0:0:
113,201,32933,1,8,0:0:0:0:
380,223,33133,1,10,0:0:0:0:
171,316,33333,1,0,1:0:0:0:
52,266,33466,1,8,0:0:0:0:
17,254,33533,1,2,0:3:0:0:
48,242,33599,1,8,0:0:0:0:
265,339,33733,6,0,P|386:331|478:158,1,333,2|0,1:2|0:0,0:0:0:0:
309,139,34133,1,0,3:0:0:0:
429,108,34333,1,0,3:0:0:0:
67,154,34533,6,0,L|47:21,1,133.199995935059,6|10,1:2|0:0,0:0:0:0:
307,62,34933,1,2,3:0:0:0:
390,94,35033,1,8,0:0:0:0:
304,129,35133,1,8,0:0:0:0:
218,159,35233,1,8,0:0:0:0:
301,197,35333,1,2,1:2:0:0:
488,228,35533,2,0,L|491:147,1,66.5999979675294,10|10,0:0|0:0,0:0:0:0:
256,320,35733,6,0,L|51:316,1,199.799993902588,2|8,3:0|0:0,0:0:0:0:
219,252,36133,1,2,1:2:0:0:
37,237,36333,2,0,L|31:167,1,66.5999979675294,10|10,0:0|0:0,0:0:0:0:
200,165,36533,1,2,3:0:0:0:
382,208,36733,2,0,L|388:138,1,66.5999979675294,8|8,0:0|0:0,0:0:0:0:
219,136,36933,1,2,1:2:0:0:
36,118,37133,1,10,0:0:0:0:
330,47,37333,5,2,3:0:0:0:
413,67,37433,1,8,0:0:0:0:
496,85,37533,1,8,0:0:0:0:
408,145,37633,1,8,0:0:0:0:
491,164,37733,2,0,L|500:298,1,133.199995935059,2|10,1:2|0:0,0:0:0:0:
205,89,38133,1,2,3:0:0:0:
122,109,38233,1,8,0:0:0:0:
39,128,38333,1,8,0:0:0:0:
127,187,38433,1,8,0:0:0:0:
44,206,38533,2,0,L|35:340,1,133.199995935059,2|10,1:2|0:0,0:0:0:0:
346,307,38933,6,0,L|128:317,1,199.799993902588,2|8,3:0|0:0,0:0:0:0:
30,282,39333,1,2,1:2:0:0:
206,227,39533,1,10,0:0:0:0:
484,295,39733,1,2,3:0:0:0:
308,240,39933,2,0,L|280:178,1,66.5999979675294,0|0,3:0|0:0,0:0:0:0:
102,161,40133,1,6,1:2:0:0:
418,146,40333,1,0,0:0:0:0:
153,63,40533,5,2,3:0:0:0:
66,89,40633,1,8,0:0:0:0:
149,106,40733,1,8,0:0:0:0:
232,129,40833,1,0,3:0:0:0:
71,254,40933,2,0,L|56:109,1,133.199995935059,2|2,1:2|3:0,0:0:0:0:
351,140,41333,1,2,3:0:0:0:
438,166,41433,1,8,0:0:0:0:
355,183,41533,1,8,0:0:0:0:
272,206,41633,1,8,0:0:0:0:
433,331,41733,2,0,L|448:186,1,133.199995935059,2|10,1:2|0:0,0:0:0:0:
352,212,42033,1,10,0:0:0:0:
133,304,42133,6,0,L|270:308,1,133.199995935059,2|0,3:0|0:0,0:0:0:0:
182,339,42433,1,8,0:0:0:0:
342,321,42533,2,0,L|349:185,1,133.199995935059,2|10,1:2|0:0,0:0:0:0:
266,186,42833,1,10,0:0:0:0:
426,148,42933,2,0,L|476:100,1,66.5999979675294,2|0,3:0|0:0,0:0:0:0:
312,100,43133,2,0,L|307:32,1,66.5999979675294,10|8,0:0|0:0,0:0:0:0:
139,150,43333,2,0,L|89:102,1,66.5999979675294,2|0,1:2|0:0,0:0:0:0:
265,91,43533,2,0,L|270:23,1,66.5999979675294,10|0,0:0|0:0,0:0:0:0:
37,61,43733,5,2,3:0:0:0:
124,75,43833,1,8,0:0:0:0:
211,93,43933,1,8,0:0:0:0:
298,107,44033,1,8,0:0:0:0:
130,181,44133,2,0,L|32:187,1,83.2500031757356,2|8,1:2|0:0,0:0:0:0:
209,229,44333,2,0,L|307:235,1,83.2500031757356,10|8,0:0|0:0,0:0:0:0:
468,161,44533,1,2,3:0:0:0:
373,174,44633,1,8,0:0:0:0:
278,191,44733,1,8,0:0:0:0:
183,209,44833,1,8,0:0:0:0:
351,283,44933,2,0,L|366:199,1,83.2500031757356,2|8,1:2|0:0,0:0:0:0:
175,337,45133,2,0,L|160:253,1,83.2500031757356,2|8,3:2|0:0,0:0:0:0:
434,341,45333,6,0,L|144:349,1,266.399991870117,2|8,1:3|0:0,0:0:0:0:
56,243,45733,2,0,L|360:252,1,288.599986788941,0|8,1:0|0:0,0:0:0:0:
473,141,46133,2,0,L|153:155,1,310.799990515137,2|8,1:2|0:0,0:0:0:0:
22,45,46533,1,2,1:2:0:0:
188,52,46633,1,0,3:0:0:0:
354,59,46733,1,0,3:0:0:0:
86,144,46933,5,4,1:2:0:0:
236,184,47133,1,0,3:0:0:0:
56,258,47333,1,0,3:0:0:0:
431,213,47733,2,0,P|415:280|267:327,1,222,10|10,0:0|0:0,0:0:0:0:
32,319,48533,5,6,1:2:0:0:
138,310,48633,1,8,0:0:0:0:
244,296,48733,1,8,0:0:0:0:
83,272,48833,1,10,0:0:0:0:
252,238,48933,2,0,L|290:165,1,83.2500031757356,2|8,1:3|0:0,0:0:0:0:
74,206,49133,2,0,L|36:133,1,83.2500031757356,10|8,0:0|0:0,0:0:0:0:
303,65,49333,5,6,1:2:0:0:
364,62,49383,5,0,0:0:0:0:
421,87,49433,5,0,0:0:0:0:
462,134,49483,5,0,0:0:0:0:
478,194,49533,5,0,0:0:0:0:
466,255,49583,5,0,0:0:0:0:
430,305,49633,5,0,0:0:0:0:
375,334,49683,5,0,0:0:0:0:
313,337,49733,6,0,L|104:335,1,199.799993902588,2|0,0:0|0:0,0:0:0:0:
69,367,49933,2,0,B|42:310|0:158|196:151|224:180|229:189|231:198|298:210|382:192|433:136|385:5,1,616.050015040284,2|0,0:3|0:0,0:0:0:0:
325,21,50533,5,2,0:3:0:0:
153,37,50733,1,2,0:3:0:0:
299,78,50933,1,2,0:3:0:0:
181,88,51033,1,2,0:0:0:0:
282,126,51133,1,2,0:3:0:0:
199,135,51233,1,2,0:0:0:0:
432,60,51333,6,0,P|428:163|220:232,1,333,4|0,1:2|0:0,0:0:0:0:
32,279,51733,6,0,L|158:281,1,122.100003726196,2|0,3:0|3:0,0:0:0:0:
219,294,52033,1,8,0:0:0:0:
154,312,52133,1,0,3:0:0:0:
336,340,52333,2,0,L|346:218,1,122.100003726196,10|0,0:0|3:0,0:0:0:0:
193,227,52733,1,8,0:0:0:0:
197,166,52833,1,8,0:0:0:0:
202,105,52933,1,0,3:0:0:0:
50,129,53133,1,8,0:0:0:0:
319,60,53333,6,0,P|313:120|208:167,1,183.150005589295,2|8,3:0|0:0,0:0:0:0:
285,194,53733,1,0,3:0:0:0:
132,222,53933,1,8,0:0:0:0:
318,299,54133,2,0,L|444:293,1,122.100003726196,2|8,3:0|0:0,0:0:0:0:
444,252,54433,1,8,0:0:0:0:
279,267,54533,2,0,L|153:261,1,122.100003726196,2|8,3:0|0:0,0:0:0:0:
451,162,54933,6,0,L|327:169,1,122.100003726196,2|8,3:0|0:0,0:0:0:0:
397,174,55233,1,8,0:0:0:0:
465,178,55333,1,0,3:0:0:0:
281,242,55533,2,0,L|271:120,1,122.100003726196,10|0,0:0|3:0,0:0:0:0:
431,157,55933,1,8,0:0:0:0:
435,96,56033,1,8,0:0:0:0:
440,35,56133,1,0,3:0:0:0:
282,40,56333,1,8,0:0:0:0:
25,31,56533,5,4,3:2:0:0:
105,37,56633,1,8,0:0:0:0:
270,63,56733,1,2,0:0:0:0:
292,99,56833,1,8,0:0:0:0:
213,106,56933,1,0,0:0:0:0:
134,118,57033,1,8,0:0:0:0:
299,170,57133,1,2,0:0:0:0:
321,206,57233,1,8,0:0:0:0:
242,213,57333,1,0,0:0:0:0:
163,225,57433,2,0,L|154:292,1,61.0500018630982,8|2,0:0|0:0,0:0:0:0:
253,309,57633,1,8,0:0:0:0:
351,281,57733,2,0,L|360:214,1,61.0500018630982,2|8,0:0|0:0,0:0:0:0:
193,204,57933,2,0,L|182:136,1,61.0500018630982,8|8,0:0|0:0,0:0:0:0:
416,153,58133,6,0,L|277:158,1,133.199995935059,6|0,3:2|0:0,0:0:0:0:
404,199,58433,2,0,L|323:317,1,133.199995935059,0|0,3:0|0:0,0:0:0:0:
449,235,58733,2,0,L|459:389,1,133.199995935059,2|0,3:2|0:0,0:0:0:0:
222,325,59033,1,0,3:0:0:0:
187,286,59133,1,10,0:0:0:0:
217,232,59233,1,8,0:0:0:0:
337,191,59333,2,0,L|343:123,1,66.5999979675294,2|0,1:3|0:0,0:0:0:0:
175,145,59533,2,0,L|169:77,1,66.5999979675294,2|0,3:2|0:0,0:0:0:0:
389,56,59733,6,0,L|254:62,1,133.199995935059,2|8,3:2|0:0,0:0:0:0:
129,84,60033,2,0,L|230:173,1,133.199995935059,0|0,3:0|0:0,0:0:0:0:
354,225,60333,2,0,L|358:157,1,66.5999979675294,2|0,3:2|0:0,0:0:0:0:
138,218,60533,2,0,L|3:227,1,133.199995935059,2|8,3:2|0:0,0:0:0:0:
72,256,60833,1,0,3:0:0:0:
240,324,60933,1,2,1:3:0:0:
54,348,61133,1,0,3:0:0:0:
346,286,61333,5,2,3:2:0:0:
174,269,61533,1,0,3:0:0:0:
168,230,61633,1,8,0:0:0:0:
162,185,61733,1,2,1:3:0:0:
335,138,61933,1,2,3:2:0:0:
41,81,62133,2,0,L|113:76,1,66.5999979675294,0|8,3:0|0:0,0:0:0:0:
274,115,62333,2,0,L|205:114,1,66.5999979675294,2|8,3:2|0:0,0:0:0:0:
375,42,62533,1,2,1:3:0:0:
443,64,62633,1,0,3:0:0:0:
452,134,62733,1,0,3:0:0:0:
398,182,62833,1,0,3:0:0:0:
164,211,62933,6,0,L|87:208,1,66.5999979675294,2|8,1:2|0:0,0:0:0:0:
224,235,63133,2,0,L|301:232,1,66.5999979675294,8|8,0:0|0:0,0:0:0:0:
120,302,63333,2,0,L|43:299,1,66.5999979675294,2|8,1:2|0:0,0:0:0:0:
187,326,63533,2,0,L|264:323,1,66.5999979675294,8|8,0:0|0:0,0:0:0:0:
448,295,63733,2,0,L|452:227,1,66.5999979675294,2|8,1:2|0:0,0:0:0:0:
279,212,63933,2,0,L|211:216,1,66.5999979675294,0|8,3:2|0:0,0:0:0:0:
29,333,64133,2,0,L|25:265,1,66.5999979675294,2|8,1:2|0:0,0:0:0:0:
218,263,64333,2,0,L|286:267,1,66.5999979675294,0|8,3:2|0:0,0:0:0:0:
487,189,64533,5,4,3:2:0:0:
256,192,64633,12,0,66133,0:0:0:0:
