osu file format v14

[General]
AudioFilename: audio.mp3
AudioLeadIn: 0
PreviewTime: 78147
Countdown: 0
SampleSet: Normal
StackLeniency: 0.2
Mode: 0
LetterboxInBreaks: 0
WidescreenStoryboard: 0

[Editor]
DistanceSpacing: 1.4
BeatDivisor: 4
GridSize: 32
TimelineZoom: 2.599999

[Metadata]
Title:Porky of Porky of Porky of Porky
TitleUnicode:Porky of Porky of Porky of Porky
Artist:REDALiCE
ArtistUnicode:REDALiCE
Creator:Kondou-Shinichi
Version:Challenge
Source:
Tags:
BeatmapID:1704829
BeatmapSetID:812839

[Difficulty]
HPDrainRate:6
CircleSize:4
OverallDifficulty:8
ApproachRate:9.6
SliderMultiplier:1.5
SliderTickRate:1

[Events]
//Background and Video events
0,0,"whsta.png",0,0
//Break Periods
2,48786,60052
//Storyboard Layer 0 (Background)
//Storyboard Layer 1 (Fail)
//Storyboard Layer 2 (Pass)
//Storyboard Layer 3 (Foreground)
//Storyboard Sound Samples

[TimingPoints]
10,348.837209302326,4,1,1,50,1,0
10,-100,4,1,1,50,0,0
11172,-66.6666666666667,4,1,2,50,0,0
22335,-66.6666666666667,4,1,3,50,0,0
44661,428.571428571429,4,1,4,30,1,0
46375,461.538461538462,4,1,4,30,1,0
48221,375,4,1,4,30,1,0
48586,422.535211267606,4,1,4,30,1,0
50276,428.571428571429,4,1,4,30,1,0
51990,428.571428571429,4,1,4,30,1,0
60561,413.793103448276,4,1,4,50,1,0
62216,400,4,1,4,50,1,0
63806,387.096774193548,4,1,4,50,1,0
65354,375,4,1,4,50,1,0
66854,363.636363636364,4,1,4,50,1,0
69763,352.941176470588,4,1,4,50,1,0
72566,348.837209302326,4,1,4,50,1,0
72653,-100,4,1,4,50,0,0
75007,-100,4,1,4,5,0,0
76054,-100,4,1,4,10,0,0
77449,-100,4,1,4,30,0,0
77798,-100,4,1,4,40,0,0
79891,-66.6666666666667,4,1,4,60,0,1
100472,-200,4,1,4,60,0,0
103263,-66.6666666666667,4,1,4,60,0,1
113031,-200,4,1,4,60,0,0
113728,-66.6666666666667,4,1,4,60,0,0
114775,-66.6666666666667,4,1,4,60,0,1
124193,-66.6666666666667,4,1,4,60,0,0

[HitObjects]
131,96,10,5,8,0:0:0:0:
145,95,358,1,8,0:0:0:0:
159,93,707,1,8,0:0:0:0:
174,92,1056,1,8,0:0:0:0:
189,91,1405,1,8,0:0:0:0:
54,102,1754,5,12,0:0:0:0:
207,89,2103,1,8,0:0:0:0:
271,22,2277,1,8,0:0:0:0:
289,20,2364,1,8,0:0:0:0:
307,18,2451,1,12,0:0:0:0:
189,91,2626,1,8,0:0:0:0:
207,89,2713,1,8,0:0:0:0:
225,87,2800,5,8,0:0:0:0:
224,102,3149,1,8,0:0:0:0:
223,116,3498,1,8,0:0:0:0:
222,131,3847,1,8,0:0:0:0:
221,145,4196,1,8,0:0:0:0:
228,14,4544,5,12,0:0:0:0:
220,159,4893,1,8,0:0:0:0:
304,147,5068,1,8,0:0:0:0:
322,145,5155,1,8,0:0:0:0:
340,142,5242,1,12,0:0:0:0:
336,179,5329,1,8,0:0:0:0:
331,216,5416,1,8,0:0:0:0:
323,253,5504,1,8,0:0:0:0:
316,289,5591,5,8,0:0:0:0:
301,292,5940,1,8,0:0:0:0:
286,295,6289,1,8,0:0:0:0:
271,299,6637,1,8,0:0:0:0:
256,303,6986,1,8,0:0:0:0:
398,270,7335,5,12,0:0:0:0:
241,308,7684,1,8,0:0:0:0:
186,223,7858,1,8,0:0:0:0:
188,204,7946,1,8,0:0:0:0:
190,185,8033,1,12,0:0:0:0:
222,312,8207,1,8,0:0:0:0:
203,315,8294,1,8,0:0:0:0:
184,319,8382,5,8,0:0:0:0:
169,318,8730,1,8,0:0:0:0:
154,314,9079,1,8,0:0:0:0:
139,310,9428,1,8,0:0:0:0:
124,304,9777,1,8,0:0:0:0:
318,246,10126,5,12,0:0:0:0:
109,299,10475,1,8,0:0:0:0:
105,280,10562,2,8,L|79:286,1,18.75
100,261,10649,1,8,0:0:0:0:
95,242,10736,1,8,0:0:0:0:
63,176,10823,5,12,0:0:0:0:
67,157,10911,2,8,L|102:161,1,18.75
72,138,10998,1,8,0:0:0:0:
77,119,11085,1,8,0:0:0:0:
158,89,11172,6,0,L|308:79,1,112.500004291535,8|2,0:0|0:0,0:0:0:0:
401,10,11521,2,0,L|251:0,1,112.500004291535,8|2,0:0|0:0,0:0:0:0:
235,194,11870,2,0,L|385:184,1,112.500004291535,8|2,0:0|0:0,0:0:0:0:
478,115,12219,2,0,L|328:105,1,112.500004291535,8|2,0:0|0:0,0:0:0:0:
343,300,12568,2,0,L|493:290,1,112.500004291535,8|2,0:0|0:0,0:0:0:0:
146,129,12916,6,0,P|124:180|140:270,1,112.500004291535,12|2,0:0|0:0,0:0:0:0:
287,377,13265,1,8,0:0:0:0:
67,300,13440,1,10,0:0:0:0:
50,264,13527,1,8,0:0:0:0:
45,225,13614,1,12,0:0:0:0:
199,372,13789,1,10,0:0:0:0:
159,368,13876,1,8,0:0:0:0:
123,353,13963,6,0,P|179:325|268:325,1,112.500004291535,8|2,0:0|0:0,0:0:0:0:
449,375,14312,2,0,P|477:319|477:230,1,112.500004291535,8|2,0:0|0:0,0:0:0:0:
236,88,14661,2,0,P|208:144|208:233,1,112.500004291535,8|2,0:0|0:0,0:0:0:0:
468,177,15010,2,0,P|453:116|396:47,1,112.500004291535,8|2,0:0|0:0,0:0:0:0:
117,153,15358,2,0,P|120:215|165:292,1,112.500004291535,8|2,0:0|0:0,0:0:0:0:
477,263,15707,6,0,L|349:256,1,112.500004291535,12|2,0:0|0:0,0:0:0:0:
190,375,16056,1,8,0:0:0:0:
340,178,16230,1,10,0:0:0:0:
329,139,16318,1,8,0:0:0:0:
317,101,16405,1,12,0:0:0:0:
139,260,16579,1,10,0:0:0:0:
130,299,16666,1,8,0:0:0:0:
121,339,16754,6,0,L|258:325,1,112.500004291535,8|2,0:0|0:0,0:0:0:0:
134,161,17103,2,0,L|22:149,1,112.500004291535,8|2,0:0|0:0,0:0:0:0:
304,279,17451,2,0,L|441:265,1,112.500004291535,8|2,0:0|0:0,0:0:0:0:
317,101,17800,2,0,L|205:89,1,112.500004291535,8|2,0:0|0:0,0:0:0:0:
27,271,18149,2,0,L|139:260,1,112.500004291535,8|2,0:0|0:0,0:0:0:0:
489,223,18498,6,0,P|409:190|351:197,1,112.500004291535,12|2,0:0|0:0,0:0:0:0:
387,369,18847,1,8,0:0:0:0:
489,223,19021,1,10,0:0:0:0:
494,184,19108,1,8,0:0:0:0:
487,144,19196,1,12,0:0:0:0:
215,211,19370,1,10,0:0:0:0:
253,221,19457,1,8,0:0:0:0:
283,244,19544,6,0,P|300:297|297:360,1,112.500004291535,8|2,0:0|0:0,0:0:0:0:
91,98,19893,2,0,P|144:81|207:83,1,112.500004291535,8|2,0:0|0:0,0:0:0:0:
203,313,20242,2,0,P|150:330|86:327,1,112.500004291535,8|2,0:0|0:0,0:0:0:0:
263,5,20591,2,0,P|280:58|277:121,1,112.500004291535,8|2,0:0|0:0,0:0:0:0:
18,250,20940,5,8,0:0:0:0:
36,238,21027,1,0,0:0:0:0:
57,230,21114,1,0,0:0:0:0:
214,169,21289,5,0,0:0:0:0:
176,165,21376,1,0,0:0:0:0:
138,172,21463,1,0,0:0:0:0:
296,223,21637,5,8,0:0:0:0:
364,259,21725,2,0,L|401:257,4,28.1250010728836,8|8|8|0|8,0:0|0:0|0:0|0:0|0:0,0:0:0:0:
229,288,21985,5,8,0:0:0:0:
182,348,22073,2,0,L|152:352,4,28.1250010728836,8|8|8|0|8,0:0|0:0|0:0|0:0|0:0,0:0:0:0:
291,337,22335,5,8,0:0:0:0:
491,316,22510,1,2,0:0:0:0:
319,115,22684,2,0,P|298:167|296:223,1,112.500004291535,4|2,0:0|0:0,0:0:0:0:
373,373,23033,5,8,0:0:0:0:
467,205,23207,1,2,0:0:0:0:
218,188,23382,2,0,L|73:173,1,112.500004291535,4|2,0:0|0:0,0:0:0:0:
386,61,23730,5,8,0:0:0:0:
196,80,23905,1,2,0:0:0:0:
164,280,24079,2,0,P|221:284|287:259,1,112.500004291535,4|2,0:0|0:0,0:0:0:0:
39,223,24428,5,8,0:0:0:0:
316,203,24603,1,10,0:0:0:0:
305,159,24690,1,8,0:0:0:0:
283,120,24777,1,4,0:0:0:0:
88,301,24951,1,10,0:0:0:0:
99,345,25039,1,8,0:0:0:0:
130,384,25126,6,0,P|182:380|268:359,1,112.500004291535,8|2,0:0|0:0,0:0:0:0:
374,262,25475,1,4,0:0:0:0:
374,262,25649,1,2,0:0:0:0:
59,238,25823,6,0,P|106:260|191:285,1,112.500004291535,8|2,0:0|0:0,0:0:0:0:
397,176,26172,1,4,0:0:0:0:
397,176,26347,1,2,0:0:0:0:
70,91,26521,6,0,P|99:134|160:198,1,112.500004291535,8|2,0:0|0:0,0:0:0:0:
408,86,26870,1,4,0:0:0:0:
408,86,27044,1,2,0:0:0:0:
193,0,27219,5,8,0:0:0:0:
301,150,27393,1,10,0:0:0:0:
296,194,27480,1,8,0:0:0:0:
293,239,27568,1,4,0:0:0:0:
135,384,27742,1,10,0:0:0:0:
130,340,27829,1,8,0:0:0:0:
127,295,27916,5,8,0:0:0:0:
334,320,28091,1,2,0:0:0:0:
78,199,28265,2,0,P|62:147|81:65,1,112.500004291535,4|2,0:0|0:0,0:0:0:0:
301,150,28614,5,8,0:0:0:0:
78,199,28789,1,2,0:0:0:0:
245,68,28963,2,0,L|338:-4,1,112.500004291535,12|2,0:0|0:0,0:0:0:0:
512,196,29312,5,8,0:0:0:0:
301,150,29486,1,2,0:0:0:0:
487,310,29661,2,0,P|430:355|358:367,1,112.500004291535,4|2,0:0|0:0,0:0:0:0:
176,239,30010,5,8,0:0:0:0:
406,199,30184,1,10,0:0:0:0:
425,158,30271,1,8,0:0:0:0:
430,113,30358,1,4,0:0:0:0:
176,239,30533,1,10,0:0:0:0:
199,280,30620,1,8,0:0:0:0:
236,308,30707,6,0,P|288:317|364:295,1,112.500004291535,8|2,0:0|0:0,0:0:0:0:
430,113,31056,1,4,0:0:0:0:
430,113,31230,1,2,0:0:0:0:
341,384,31405,6,0,P|391:366|445:308,1,112.500004291535,8|2,0:0|0:0,0:0:0:0:
328,137,31754,1,4,0:0:0:0:
328,137,31928,1,2,0:0:0:0:
176,239,32103,5,8,0:0:0:0:
165,265,32190,1,0,0:0:0:0:
155,291,32277,1,2,0:0:0:0:
147,318,32364,1,0,0:0:0:0:
138,344,32451,5,4,0:0:0:0:
130,299,32539,1,0,0:0:0:0:
122,254,32626,1,2,0:0:0:0:
114,209,32713,1,0,0:0:0:0:
105,153,32800,5,8,0:0:0:0:
169,107,32887,2,8,L|213:101,4,28.1250010728836,8|8|10|0|8,0:0|0:0|0:0|0:0|0:0,0:0:0:0:
271,198,33149,5,12,0:0:0:0:
340,238,33236,2,8,L|384:244,4,28.1250010728836,8|8|10|0|8,0:0|0:0|0:0|0:0|0:0,0:0:0:0:
329,136,33498,5,8,0:0:0:0:
267,279,33672,1,2,0:0:0:0:
269,72,33847,5,4,0:0:0:0:
334,333,34021,1,2,0:0:0:0:
493,244,34196,5,8,0:0:0:0:
267,279,34370,1,2,0:0:0:0:
458,373,34544,5,4,0:0:0:0:
217,356,34719,1,2,0:0:0:0:
123,176,34893,5,8,0:0:0:0:
267,279,35068,1,2,0:0:0:0:
40,302,35242,5,4,0:0:0:0:
266,171,35416,1,2,0:0:0:0:
110,384,35591,5,8,0:0:0:0:
190,134,35765,1,10,0:0:0:0:
196,89,35853,1,8,0:0:0:0:
187,44,35940,1,4,0:0:0:0:
222,273,36114,1,10,0:0:0:0:
267,279,36201,1,8,0:0:0:0:
311,270,36289,5,8,0:0:0:0:
262,378,36463,1,2,0:0:0:0:
380,360,36637,1,4,0:0:0:0:
311,270,36812,1,2,0:0:0:0:
429,252,36986,5,8,0:0:0:0:
380,360,37161,1,2,0:0:0:0:
498,342,37335,1,4,0:0:0:0:
429,252,37510,1,2,0:0:0:0:
360,162,37684,5,8,0:0:0:0:
311,270,37858,1,2,0:0:0:0:
429,252,38033,1,4,0:0:0:0:
360,162,38207,1,2,0:0:0:0:
311,270,38382,5,8,0:0:0:0:
441,131,38556,1,10,0:0:0:0:
450,87,38643,1,8,0:0:0:0:
447,42,38730,1,4,0:0:0:0:
282,145,38905,1,10,0:0:0:0:
247,115,38992,1,8,0:0:0:0:
207,95,39079,5,8,0:0:0:0:
92,207,39254,1,2,0:0:0:0:
282,145,39428,5,4,0:0:0:0:
48,135,39603,1,2,0:0:0:0:
151,283,39777,5,8,0:0:0:0:
207,95,39951,1,2,0:0:0:0:
264,338,40126,5,4,0:0:0:0:
415,201,40300,1,2,0:0:0:0:
506,347,40475,5,8,0:0:0:0:
318,270,40649,1,2,0:0:0:0:
504,155,40823,5,4,0:0:0:0:
282,145,40998,1,2,0:0:0:0:
468,1,41172,5,8,0:0:0:0:
191,126,41347,1,10,0:0:0:0:
210,85,41434,1,8,0:0:0:0:
240,52,41521,1,4,0:0:0:0:
82,252,41696,1,10,0:0:0:0:
56,215,41783,1,8,0:0:0:0:
42,172,41870,5,8,0:0:0:0:
63,329,42044,1,2,0:0:0:0:
148,202,42219,1,4,0:0:0:0:
171,335,42393,1,2,0:0:0:0:
262,214,42568,5,8,0:0:0:0:
275,338,42742,1,2,0:0:0:0:
379,223,42916,1,4,0:0:0:0:
395,343,43091,1,2,0:0:0:0:
475,151,43265,5,8,0:0:0:0:
466,123,43353,1,0,0:0:0:0:
447,101,43440,1,0,0:0:0:0:
423,86,43527,1,0,0:0:0:0:
396,78,43614,1,8,0:0:0:0:
366,81,43701,1,0,0:0:0:0:
341,95,43789,1,0,0:0:0:0:
320,115,43876,1,0,0:0:0:0:
306,139,43963,5,8,0:0:0:0:
282,154,44050,2,8,L|244:149,4,28.1250010728836,8|8|8|0|8,0:0|0:0|0:0|0:0|0:0,0:0:0:0:
181,144,44312,5,8,0:0:0:0:
157,129,44399,2,8,L|119:134,4,28.1250010728836,8|8|8|0|8,0:0|0:0|0:0|0:0|0:0,0:0:0:0:
54,140,44661,5,8,0:0:0:0:
256,192,44768,12,0,48586,0:0:0:0:
114,113,60561,5,10,0:0:0:0:
191,105,60974,1,10,0:0:0:0:
267,96,61388,1,10,0:0:0:0:
108,91,62112,5,2,0:0:0:0:
114,113,62216,1,10,0:0:0:0:
191,105,62616,1,10,0:0:0:0:
267,96,63016,1,10,0:0:0:0:
248,183,63216,5,4,0:0:0:0:
250,201,63316,1,4,0:0:0:0:
252,219,63416,1,4,0:0:0:0:
329,211,63616,1,4,0:0:0:0:
331,229,63716,1,4,0:0:0:0:
332,246,63806,5,10,0:0:0:0:
409,254,64193,1,10,0:0:0:0:
485,263,64580,1,10,0:0:0:0:
322,227,65257,5,2,0:0:0:0:
332,246,65354,1,10,0:0:0:0:
409,254,65729,1,10,0:0:0:0:
485,263,66104,1,10,0:0:0:0:
396,345,66291,5,4,0:0:0:0:
377,348,66385,1,4,0:0:0:0:
359,353,66479,1,4,0:0:0:0:
254,303,66666,1,4,0:0:0:0:
235,306,66760,1,4,0:0:0:0:
217,311,66854,5,10,0:0:0:0:
165,208,67126,1,2,0:0:0:0:
172,190,67217,1,2,0:0:0:0:
200,104,67399,1,2,0:0:0:0:
46,164,67581,5,14,0:0:0:0:
100,67,67763,1,2,0:0:0:0:
200,104,67944,1,10,0:0:0:0:
46,164,68308,5,14,0:0:0:0:
200,104,68581,1,2,0:0:0:0:
218,107,68672,1,2,0:0:0:0:
298,75,68854,1,2,0:0:0:0:
273,220,69035,5,14,0:0:0:0:
400,159,69217,5,8,0:0:0:0:
418,155,69308,1,8,0:0:0:0:
436,151,69399,1,8,0:0:0:0:
346,284,69581,1,8,0:0:0:0:
364,280,69672,1,8,0:0:0:0:
382,276,69763,5,14,0:0:0:0:
319,383,69939,1,10,0:0:0:0:
273,220,70115,5,10,0:0:0:0:
243,359,70292,1,10,0:0:0:0:
183,174,70468,5,14,0:0:0:0:
175,137,70557,1,8,0:0:0:0:
167,100,70645,1,10,0:0:0:0:
165,359,70821,1,10,0:0:0:0:
83,76,70998,1,10,0:0:0:0:
300,135,71174,5,14,0:0:0:0:
345,139,71263,1,10,0:0:0:0:
389,139,71351,1,10,0:0:0:0:
432,126,71439,1,8,0:0:0:0:
464,95,71527,5,14,0:0:0:0:
422,57,71615,1,10,0:0:0:0:
365,51,71704,1,10,0:0:0:0:
318,82,71792,1,8,0:0:0:0:
300,135,71880,5,14,0:0:0:0:
286,177,71968,1,10,0:0:0:0:
257,212,72057,1,10,0:0:0:0:
216,232,72145,1,10,0:0:0:0:
163,233,72233,5,14,0:0:0:0:
112,245,72321,1,14,0:0:0:0:
73,281,72410,1,14,0:0:0:0:
58,331,72498,1,14,0:0:0:0:
78,384,72566,5,12,0:0:0:0:
256,192,72653,12,0,73961,0:0:0:0:
256,192,74004,12,0,74659,0:0:0:0:
256,192,75007,12,0,77100,0:0:0:0:
256,192,77449,12,0,78060,0:0:0:0:
112,79,78147,5,8,0:0:0:0:
148,150,78321,2,0,P|187:101|137:8,1,150
128,41,78757,1,2,0:0:0:0:
112,79,78845,1,2,0:0:0:0:
283,58,79019,1,2,0:0:0:0:
298,257,79193,1,2,0:0:0:0:
337,124,79368,1,2,0:0:0:0:
146,347,79542,6,0,L|64:359,1,75,10|2,0:0|0:0,0:0:0:0:
506,291,79891,5,14,0:0:0:0:
157,260,80066,1,2,0:0:0:0:
238,170,80240,5,8,0:0:0:0:
273,375,80414,1,10,0:0:0:0:
329,369,80502,1,8,0:0:0:0:
384,363,80589,1,4,0:0:0:0:
157,260,80763,1,10,0:0:0:0:
101,254,80850,1,8,0:0:0:0:
46,248,80938,2,0,L|21:123,1,112.500004291535,8|0,0:0|0:0,0:0:0:0:
179,32,81286,5,6,0:0:0:0:
359,101,81461,1,2,0:0:0:0:
506,291,81635,1,10,0:0:0:0:
366,24,81810,1,2,0:0:0:0:
418,48,81897,1,2,0:0:0:0:
447,97,81984,1,6,0:0:0:0:
402,343,82159,1,2,0:0:0:0:
132,184,82333,6,0,P|203:173|291:195,1,112.500004291535,10|0,0:0|0:0,0:0:0:0:
402,343,82682,1,6,0:0:0:0:
202,266,82856,1,2,0:0:0:0:
0,277,83031,1,8,0:0:0:0:
202,266,83205,5,8,0:0:0:0:
257,272,83292,1,8,0:0:0:0:
310,287,83379,1,4,0:0:0:0:
0,277,83554,1,8,0:0:0:0:
55,271,83641,1,8,0:0:0:0:
108,256,83728,1,8,0:0:0:0:
39,23,83903,6,0,P|39:100|51:166,1,112.500004291535,2|4,0:0|0:0,0:0:0:0:
267,175,84252,1,2,0:0:0:0:
317,151,84339,1,2,0:0:0:0:
325,95,84426,1,10,0:0:0:0:
141,154,84600,1,2,0:0:0:0:
141,325,84775,1,6,0:0:0:0:
325,384,84949,1,2,0:0:0:0:
481,299,85124,6,0,L|505:153,1,112.500004291535,10|0,0:0|0:0,0:0:0:0:
439,46,85472,1,6,0:0:0:0:
243,94,85647,1,2,0:0:0:0:
319,1,85821,5,8,0:0:0:0:
267,175,85996,1,8,0:0:0:0:
281,229,86083,1,8,0:0:0:0:
296,283,86170,1,4,0:0:0:0:
76,276,86345,1,8,0:0:0:0:
62,330,86432,1,8,0:0:0:0:
47,384,86519,2,0,L|194:364,1,112.500004291535,8|0,0:0|0:0,0:0:0:0:
296,283,86868,5,6,0:0:0:0:
351,119,87042,1,2,0:0:0:0:
202,20,87217,1,10,0:0:0:0:
375,200,87391,1,2,0:0:0:0:
423,172,87478,1,2,0:0:0:0:
439,117,87566,1,6,0:0:0:0:
267,175,87740,1,2,0:0:0:0:
406,296,87914,6,0,L|506:379,1,112.500004291535,10|0,0:0|0:0,0:0:0:0:
296,283,88263,1,6,0:0:0:0:
175,357,88438,1,2,0:0:0:0:
406,296,88612,5,8,0:0:0:0:
462,243,88699,2,8,L|492:211,4,28.1250010728836,8|8|8|0|8,0:0|0:0|0:0|0:0|0:0,0:0:0:0:
296,283,88961,5,12,0:0:0:0:
217,275,89048,2,8,L|187:250,4,28.1250010728836,8|8|8|0|8,0:0|0:0|0:0|0:0|0:0,0:0:0:0:
332,358,89310,5,8,0:0:0:0:
278,123,89484,6,0,L|251:-11,1,112.500004291535,2|4,0:0|0:0,0:0:0:0:
102,227,89833,5,2,0:0:0:0:
113,172,89920,1,2,0:0:0:0:
122,116,90007,1,10,0:0:0:0:
387,217,90182,5,2,0:0:0:0:
255,12,90356,1,6,0:0:0:0:
0,0,90531,1,2,0:0:0:0:
400,96,90705,6,0,L|529:87,1,112.500004291535,10|0,0:0|0:0,0:0:0:0:
247,216,91054,5,6,0:0:0:0:
476,9,91228,1,2,0:0:0:0:
512,185,91403,5,8,0:0:0:0:
379,320,91577,1,8,0:0:0:0:
322,319,91664,1,8,0:0:0:0:
265,314,91752,1,4,0:0:0:0:
133,163,91926,1,8,0:0:0:0:
76,164,92013,1,8,0:0:0:0:
19,166,92100,2,0,L|38:287,1,112.500004291535,8|0,0:0|0:0,0:0:0:0:
97,55,92449,5,6,0:0:0:0:
270,24,92624,1,2,0:0:0:0:
473,126,92798,1,10,0:0:0:0:
270,24,92972,1,2,0:0:0:0:
221,53,93060,1,2,0:0:0:0:
199,104,93147,1,6,0:0:0:0:
439,29,93321,1,2,0:0:0:0:
487,231,93496,6,0,P|465:282|426:322,1,112.500004291535,10|0,0:0|0:0,0:0:0:0:
243,344,93845,1,6,0:0:0:0:
89,223,94019,1,2,0:0:0:0:
71,92,94193,5,8,0:0:0:0:
156,283,94368,1,8,0:0:0:0:
136,335,94455,1,8,0:0:0:0:
95,374,94542,1,4,0:0:0:0:
335,261,94717,1,8,0:0:0:0:
387,281,94804,1,8,0:0:0:0:
426,322,94891,1,8,0:0:0:0:
359,127,95066,6,0,L|326:7,1,112.500004291535,2|4,0:0|0:0,0:0:0:0:
179,198,95414,1,2,0:0:0:0:
235,190,95502,1,2,0:0:0:0:
290,183,95589,5,10,0:0:0:0:
506,239,95763,1,2,0:0:0:0:
261,274,95938,5,6,0:0:0:0:
36,312,96112,1,2,0:0:0:0:
233,371,96286,6,0,L|367:344,1,112.500004291535,10|0,0:0|0:0,0:0:0:0:
154,339,96635,1,6,0:0:0:0:
335,261,96810,1,2,0:0:0:0:
488,365,96984,5,8,0:0:0:0:
399,197,97159,1,8,0:0:0:0:
346,181,97246,1,8,0:0:0:0:
290,183,97333,1,4,0:0:0:0:
97,44,97507,1,8,0:0:0:0:
150,28,97595,1,8,0:0:0:0:
206,30,97682,2,0,P|241:30|333:63,1,112.500004291535,8|0,0:0|0:0,0:0:0:0:
49,113,98031,5,6,0:0:0:0:
206,30,98205,1,2,0:0:0:0:
388,72,98379,1,10,0:0:0:0:
468,231,98554,1,2,0:0:0:0:
455,285,98641,1,2,0:0:0:0:
425,333,98728,1,6,0:0:0:0:
230,384,98903,1,2,0:0:0:0:
468,231,99077,5,10,0:0:0:0:
205,238,99252,1,8,0:0:0:0:
338,115,99426,1,14,0:0:0:0:
343,349,99600,1,10,0:0:0:0:
225,116,99775,6,8,L|176:116,2,28.1250010728836
440,112,99949,2,8,L|489:112,2,28.1250010728836
206,30,100124,2,8,L|157:30,2,28.1250010728836,12|8|8,0:0|0:0|0:0,0:0:0:0:
465,33,100298,2,8,L|514:33,3,28.1250010728836
440,112,100472,5,2,0:0:0:0:
440,117,100560,1,2,0:0:0:0:
439,122,100647,1,2,0:0:0:0:
438,127,100734,1,2,0:0:0:0:
447,150,100821,5,2,0:0:0:0:
445,166,100909,1,2,0:0:0:0:
443,182,100996,1,2,0:0:0:0:
441,198,101083,1,2,0:0:0:0:
460,231,101170,5,2,0:0:0:0:
455,258,101257,1,2,0:0:0:0:
452,286,101345,1,2,0:0:0:0:
447,313,101432,1,2,0:0:0:0:
465,344,101519,5,2,0:0:0:0:
430,325,101606,1,2,0:0:0:0:
391,316,101693,1,2,0:0:0:0:
351,316,101781,1,2,0:0:0:0:
312,325,101868,1,2,0:0:0:0:
502,31,102217,5,2,0:0:0:0:
257,15,102566,1,2,0:0:0:0:
65,72,102914,1,2,0:0:0:0:
502,31,103263,5,14,0:0:0:0:
504,58,103350,1,2,0:0:0:0:
501,86,103438,1,10,0:0:0:0:
490,111,103525,1,10,0:0:0:0:
420,165,103612,5,14,0:0:0:0:
418,192,103699,1,2,0:0:0:0:
421,220,103786,1,10,0:0:0:0:
432,245,103874,1,10,0:0:0:0:
482,310,103961,5,14,0:0:0:0:
457,321,104048,1,2,0:0:0:0:
429,324,104135,1,10,0:0:0:0:
402,322,104222,1,10,0:0:0:0:
337,283,104310,5,14,0:0:0:0:
312,272,104397,1,2,0:0:0:0:
284,269,104484,1,10,0:0:0:0:
257,271,104571,1,10,0:0:0:0:
184,310,104659,6,8,P|157:311|125:305,3,56.2500021457673,14|2|10|10,0:0|0:0|0:0|0:0,0:0:0:0:
256,270,105007,5,14,0:0:0:0:
277,236,105095,1,2,0:0:0:0:
280,196,105182,1,10,0:0:0:0:
271,157,105269,1,10,0:0:0:0:
224,101,105356,6,0,P|191:86|139:81,2,56.2500021457673,14|2|10,0:0|0:0|0:0,0:0:0:0:
177,4,105618,2,0,P|140:7|93:29,2,56.2500021457673,10|14|0,0:0|0:0|0:0,0:0:0:0:
54,62,105879,2,0,P|40:94|42:143,1,56.2500021457673,10|10,0:0|0:0,0:0:0:0:
71,183,106054,5,14,0:0:0:0:
98,180,106141,1,2,0:0:0:0:
125,177,106228,1,10,0:0:0:0:
153,174,106316,1,10,0:0:0:0:
186,268,106403,5,14,0:0:0:0:
159,265,106490,1,2,0:0:0:0:
132,262,106577,1,10,0:0:0:0:
104,259,106664,1,10,0:0:0:0:
144,355,106752,5,14,0:0:0:0:
172,352,106839,1,2,0:0:0:0:
199,349,106926,1,10,0:0:0:0:
226,346,107013,1,10,0:0:0:0:
311,290,107100,5,14,0:0:0:0:
339,293,107188,1,2,0:0:0:0:
366,296,107275,1,10,0:0:0:0:
393,299,107362,1,10,0:0:0:0:
449,361,107449,6,0,L|504:366,3,56.2500021457673,14|2|10|10,0:0|0:0|0:0|0:0,0:0:0:0:
393,299,107798,1,14,0:0:0:0:
382,261,107885,1,2,0:0:0:0:
370,223,107972,1,10,0:0:0:0:
360,184,108060,1,10,0:0:0:0:
336,112,108147,6,0,L|256:94,2,56.2500021457673,14|2|10,0:0|0:0|0:0,0:0:0:0:
452,207,108409,2,0,L|506:219,2,56.2500021457673,10|14|2,0:0|0:0|0:0,0:0:0:0:
279,215,108670,2,0,L|194:197,1,56.2500021457673,10|10,0:0|0:0,0:0:0:0:
157,251,108845,5,14,0:0:0:0:
145,225,108932,1,2,0:0:0:0:
140,197,109019,1,10,0:0:0:0:
142,169,109106,1,10,0:0:0:0:
87,109,109193,5,14,0:0:0:0:
113,97,109281,1,2,0:0:0:0:
141,92,109368,1,10,0:0:0:0:
169,94,109455,1,10,0:0:0:0:
241,34,109542,5,14,0:0:0:0:
253,60,109629,1,2,0:0:0:0:
258,88,109717,1,10,0:0:0:0:
256,116,109804,1,10,0:0:0:0:
311,176,109891,5,14,0:0:0:0:
285,188,109978,1,2,0:0:0:0:
257,193,110066,1,10,0:0:0:0:
229,191,110153,1,10,0:0:0:0:
157,251,110240,6,0,P|133:277|118:313,3,56.2500021457673,14|2|10|10,0:0|0:0|0:0|0:0,0:0:0:0:
105,380,110589,2,0,P|80:366|61:347,1,56.2500021457673,14|2,0:0|0:0,0:0:0:0:
199,314,110763,2,0,P|226:307|255:308,1,56.2500021457673,10|10,0:0|0:0,0:0:0:0:
391,352,110938,6,0,L|319:364,1,56.2500021457673,14|2,0:0|0:0,0:0:0:0:
358,269,111112,2,0,L|414:260,1,56.2500021457673,10|10,0:0|0:0,0:0:0:0:
431,158,111286,2,0,L|375:167,1,56.2500021457673,14|2,0:0|0:0,0:0:0:0:
398,75,111461,2,0,L|454:66,1,56.2500021457673,10|10,0:0|0:0,0:0:0:0:
326,19,111635,5,14,0:0:0:0:
281,21,111722,1,2,0:0:0:0:
237,33,111810,1,10,0:0:0:0:
198,55,111897,1,10,0:0:0:0:
161,81,111984,1,14,0:0:0:0:
200,102,112071,1,2,0:0:0:0:
229,136,112159,1,10,0:0:0:0:
247,176,112246,1,10,0:0:0:0:
248,220,112333,5,14,0:0:0:0:
197,217,112420,1,10,0:0:0:0:
146,214,112507,1,10,0:0:0:0:
95,209,112595,1,10,0:0:0:0:
49,230,112682,5,14,0:0:0:0:
100,235,112769,1,10,0:0:0:0:
151,238,112856,1,10,0:0:0:0:
202,241,112943,1,10,0:0:0:0:
263,247,113031,5,8,0:0:0:0:
409,373,113205,2,0,L|489:367,1,75,2|2,0:0|0:0,0:0:0:0:
451,292,113728,5,10,0:0:0:0:
435,272,113772,2,8,L|439:232,3,28.1250010728836,8|8|8|10,0:0|0:0|0:0|0:0,0:0:0:0:
367,171,113990,5,8,0:0:0:0:
352,193,114077,2,0,L|356:251,1,56.2500021457673,10|8,0:0|0:0,0:0:0:0:
357,270,114252,2,0,L|361:308,3,28.1250010728836,10|0|8|0,0:0|0:0|0:0|0:0,0:0:0:0:
263,247,114426,5,8,0:0:0:0:
391,376,114600,2,0,L|510:366,1,112.500004291535,2|4,0:0|0:0,0:0:0:0:
203,311,114949,1,2,0:0:0:0:
180,265,115036,1,2,0:0:0:0:
175,214,115124,5,10,0:0:0:0:
251,75,115298,1,2,0:0:0:0:
417,66,115472,1,6,0:0:0:0:
511,196,115647,1,2,0:0:0:0:
444,340,115821,5,10,0:0:0:0:
511,196,115996,1,4,0:0:0:0:
362,324,116170,5,10,0:0:0:0:
385,176,116345,1,6,0:0:0:0:
263,331,116519,5,8,0:0:0:0:
252,189,116693,1,4,0:0:0:0:
172,355,116868,5,8,0:0:0:0:
118,232,117042,1,4,0:0:0:0:
263,331,117217,5,8,0:0:0:0:
76,312,117391,1,4,0:0:0:0:
313,245,117566,5,10,0:0:0:0:
155,145,117740,1,6,0:0:0:0:
385,176,117914,5,10,0:0:0:0:
257,40,118089,1,6,0:0:0:0:
500,156,118263,5,10,0:0:0:0:
400,0,118438,1,6,0:0:0:0:
385,176,118612,5,10,0:0:0:0:
155,145,118786,1,4,0:0:0:0:
257,40,118961,5,10,0:0:0:0:
229,262,119135,1,6,0:0:0:0:
16,371,119310,1,8,0:0:0:0:
229,262,119484,1,4,0:0:0:0:
267,255,119571,1,4,0:0:0:0:
306,257,119659,1,8,0:0:0:0:
373,327,119833,5,4,0:0:0:0:
444,312,119920,1,8,0:0:0:0:
501,267,120007,6,8,L|487:190,1,56.2500021457673
426,109,120182,2,8,L|440:32,1,56.2500021457673,10|8,0:0|0:0,0:0:0:0:
403,243,120356,2,8,L|389:166,1,56.2500021457673,12|8,0:0|0:0,0:0:0:0:
314,92,120531,2,8,L|328:15,1,56.2500021457673,10|10,0:0|0:0,0:0:0:0:
267,255,120705,6,8,L|281:332,1,56.2500021457673,10|8,0:0|0:0,0:0:0:0:
200,78,120879,2,8,L|214:1,1,56.2500021457673,10|8,0:0|0:0,0:0:0:0:
127,268,121054,2,8,L|141:345,1,56.2500021457673,14|8,0:0|0:0,0:0:0:0:
73,62,121228,2,8,L|87:-15,1,56.2500021457673,10|8,0:0|0:0,0:0:0:0:
213,181,121403,6,8,P|242:170|282:133,1,56.2500021457673,14|8,0:0|0:0,0:0:0:0:
59,202,121577,2,8,P|39:226|23:278,1,56.2500021457673,12|8,0:0|0:0,0:0:0:0:
328,198,121752,6,8,P|347:173|363:121,1,56.2500021457673,14|8,0:0|0:0,0:0:0:0:
127,268,121926,2,8,P|122:298|134:351,1,56.2500021457673,14|8,0:0|0:0,0:0:0:0:
432,177,122100,6,8,P|436:146|424:93,1,56.2500021457673,12|8,0:0|0:0,0:0:0:0:
210,304,122275,2,8,P|221:332|257:373,1,56.2500021457673,12|8,0:0|0:0,0:0:0:0:
512,111,122449,6,8,P|501:81|464:42,1,56.2500021457673,12|8,0:0|0:0,0:0:0:0:
299,299,122624,1,12,0:0:0:0:
327,317,122667,2,8,L|356:314,2,28.1250010728836
434,295,122798,5,12,0:0:0:0:
483,283,122885,1,12,0:0:0:0:
433,290,122972,5,12,0:0:0:0:
483,287,123060,1,12,0:0:0:0:
433,286,123147,5,14,0:0:0:0:
483,291,123234,1,12,0:0:0:0:
435,277,123321,5,14,0:0:0:0:
481,300,123409,1,12,0:0:0:0:
442,260,123496,5,14,0:0:0:0:
472,315,123583,1,12,0:0:0:0:
462,243,123670,5,14,0:0:0:0:
453,331,123757,1,14,0:0:0:0:
497,234,123845,5,14,0:0:0:0:
430,344,123932,1,12,0:0:0:0:
307,379,124019,2,8,L|273:377,3,28.1250010728836,14|8|12|8,0:0|0:0|0:0|0:0,0:0:0:0:
205,367,124193,5,10,0:0:0:0:
