osu file format v14

[General]
AudioFilename: audio.mp3
AudioLeadIn: 0
PreviewTime: 4440
Countdown: 0
SampleSet: Soft
StackLeniency: 0.7
Mode: 0
LetterboxInBreaks: 0
EpilepsyWarning: 1
WidescreenStoryboard: 1

[Editor]
Bookmarks: 57077,65804
DistanceSpacing: 0.5
BeatDivisor: 4
GridSize: 32
TimelineZoom: 1.4

[Metadata]
Title:Pekorap Tropical House Remix
TitleUnicode:ぺこらっぷ とろぴかるはうすリミックス
Artist:REDALiCE
ArtistUnicode:REDALiCE
Creator:Yuuma
Version:Normal
Source:
Tags:兎田ぺこら usada pekora vtuber virtual youtuber バーチャル ユーチューバー hololive ホロライブ japanese electronic
BeatmapID:2578177
BeatmapSetID:1224414

[Difficulty]
HPDrainRate:3
CircleSize:3
OverallDifficulty:4
ApproachRate:6
SliderMultiplier:1.99999990463257
SliderTickRate:1

[Events]
//Background and Video events
0,0,"pekora.jpg",0,0
//Break Periods
2,39822,40754
2,57277,64754
2,109640,110572
//Storyboard Layer 0 (Background)
//Storyboard Layer 1 (Fail)
//Storyboard Layer 2 (Pass)
//Storyboard Layer 3 (Foreground)
//Storyboard Layer 4 (Overlay)
//Storyboard Sound Samples

[TimingPoints]
350,545.454545454546,4,2,1,70,1,0
4713,-100,4,2,1,80,0,0
30895,-100,4,2,1,60,0,0
35259,-100,4,2,1,70,0,0
37440,-100,4,2,1,75,0,0
38531,-100,4,2,1,80,0,0
39622,-100,4,2,1,60,0,0
41804,-100,4,2,1,80,0,0
65804,-111.111111111111,4,2,1,60,0,0
72350,-111.111111111111,4,2,1,70,0,0
73713,-100,4,2,1,70,0,0
74531,-100,4,2,1,80,0,0
100713,-100,4,2,1,60,0,0
105077,-100,4,2,1,70,0,0
107259,-100,4,2,1,75,0,0
108350,-100,4,2,1,80,0,0
109440,-100,4,2,1,60,0,0
111622,-100,4,2,1,80,0,0

[Colours]
Combo1 : 255,166,123
Combo2 : 162,255,255
Combo3 : 213,213,213

[HitObjects]
78,102,3895,6,0,L|73:41,2,49.9999976158143,8|8|8,0:0|0:0|0:0,0:0:0:0:
85,202,4440,5,4,0:3:0:0:
142,284,4713,6,0,P|91:303|44:297,2,99.999990463257,6|2|2,3:2|0:0|3:2,0:0:0:0:
229,240,5531,1,10,0:0:0:0:
297,313,5804,2,0,P|344:339|402:335,1,99.999990463257,2|2,3:2|0:0,0:0:0:0:
420,243,6350,2,0,P|372:216|318:217,1,99.999990463257,2|10,3:2|0:0,0:0:0:0:
229,240,6895,6,0,B|211:193|211:193|227:123,1,99.999990463257,2|2,3:2|0:0,0:0:0:0:
321,119,7440,2,0,B|339:166|339:166|323:236,1,99.999990463257,2|10,3:2|0:0,0:0:0:0:
297,313,7986,1,2,3:2:0:0:
297,313,8122,2,0,P|241:347|192:337,1,99.999990463257,2|10,0:0|0:0,0:0:0:0:
169,313,8531,2,0,L|54:279,1,99.999990463257,2|8,3:2|0:0,0:0:0:0:
53,195,9077,5,2,3:2:0:0:
53,195,9213,2,0,P|106:158|152:169,1,99.999990463257,2|10,0:0|0:0,0:0:0:0:
189,164,9622,2,0,L|205:220,2,49.9999952316285,2|2|10,3:2|0:0|0:0,0:0:0:0:
286,140,10168,2,0,L|270:85,2,49.9999952316285,2|2|2,3:2|0:0|0:0,0:0:0:0:
307,189,10577,1,10,0:0:0:0:
307,189,10713,2,0,P|357:210|421:193,1,99.999990463257,2|8,3:2|0:0,0:0:0:0:
467,125,11259,6,0,L|352:106,1,99.999990463257,2|2,3:2|0:0,0:0:0:0:
278,69,11804,2,0,L|168:76,1,99.999990463257,2|10,3:2|0:0,0:0:0:0:
89,32,12350,2,0,P|76:74|100:141,1,99.999990463257,2|2,3:2|0:0,0:0:0:0:
99,178,12759,1,10,0:0:0:0:
99,178,12895,2,0,P|112:220|95:289,1,99.999990463257,2|0,3:2|0:0,0:0:0:0:
187,330,13440,6,0,P|177:373|178:391,2,49.9999952316285,2|2|0,3:2|0:0|0:0,0:0:0:0:
212,287,13850,2,0,B|298:271|279:343|372:318,1,149.999985694886,10|10,0:0|0:0,0:0:0:0:
420,248,14531,2,0,P|348:173|267:210,1,199.999980926514,2|2,3:2|3:2,0:0:0:0:
212,287,15350,1,8,0:0:0:0:
118,252,15622,6,0,L|109:323,2,49.9999952316285,2|2|2,3:2|0:0|0:0,0:0:0:0:
97,206,16031,1,10,0:0:0:0:
97,206,16168,2,0,L|37:214,2,49.9999952316285,2|2|10,3:2|0:0|0:0,0:0:0:0:
179,148,16713,2,0,B|287:127|254:210|378:191,1,199.999980926514,2|2,3:2|3:2,0:0:0:0:
461,153,17531,1,8,0:0:0:0:
387,86,17804,6,0,P|358:132|369:196,1,99.999990463257,2|2,3:2|0:0,0:0:0:0:
424,253,18350,2,0,P|453:261|486:258,2,49.9999952316285,2|2|10,3:2|0:0|0:0,0:0:0:0:
379,277,18759,1,2,0:0:0:0:
379,277,18895,2,0,P|329:261|274:265,1,99.999990463257,2|2,3:2|0:0,0:0:0:0:
191,305,19440,2,0,P|145:323|77:318,1,99.999990463257,2|10,3:2|0:0,0:0:0:0:
80,223,19986,6,0,P|126:205|194:210,1,99.999990463257,2|2,3:2|0:0,0:0:0:0:
270,240,20531,2,0,L|281:124,1,99.999990463257,2|10,3:2|0:0,0:0:0:0:
327,119,20940,2,0,L|320:59,1,49.9999952316285,2|2,0:0|3:2,0:0:0:0:
232,24,21350,2,0,L|172:31,1,49.9999952316285,2|2,0:0|0:0,0:0:0:0:
148,68,21622,2,0,L|39:54,1,99.999990463257,12|8,0:3|0:3,0:0:0:0:
11,147,22168,6,0,P|-1:179|7:265,1,99.999990463257,6|2,3:2|0:0,0:0:0:0:
25,288,22577,1,8,0:0:0:0:
25,288,22713,2,0,P|107:269|143:276,1,99.999990463257,2|10,3:2|0:0,0:0:0:0:
213,313,23259,2,0,P|283:341|324:335,2,99.999990463257,2|2|2,3:2|0:0|3:2,0:0:0:0:
231,214,24077,1,10,0:0:0:0:
291,129,24350,5,2,3:2:0:0:
291,129,24486,2,0,P|345:130|395:153,1,99.999990463257,2|10,0:0|0:0,0:0:0:0:
419,187,24895,2,0,L|478:175,2,49.9999952316285,2|2|10,3:2|0:0|0:0,0:0:0:0:
362,272,25440,2,0,L|372:340,2,49.9999952316285,2|2|2,3:2|0:0|0:0,0:0:0:0:
264,239,25986,2,0,P|244:253|151:247,1,99.999990463257,2|10,3:2|0:0,0:0:0:0:
71,239,26531,6,0,B|55:181|55:181|72:124,1,99.999990463257,2|2,3:2|0:0,0:0:0:0:
157,95,27077,2,0,B|177:128|177:128|177:189,1,99.999990463257,2|10,3:2|0:0,0:0:0:0:
264,239,27622,2,0,P|303:254|369:219,1,99.999990463257,2|2,3:2|0:0,0:0:0:0:
386,141,28168,1,2,3:2:0:0:
458,210,28440,1,10,0:0:0:0:
425,303,28713,6,0,P|360:345|320:348,1,99.999990463257,2|2,3:2|0:0,0:0:0:0:
226,339,29259,2,0,P|174:357|120:349,1,99.999990463257,2|10,3:2|0:0,0:0:0:0:
44,299,29804,2,0,L|34:186,1,99.999990463257,2|2,3:2|0:0,0:0:0:0:
93,116,30350,1,2,3:2:0:0:
187,146,30622,1,10,0:0:0:0:
268,93,30895,6,0,B|343:123|343:123|303:188|346:253,1,199.999980926514,6|2,1:2|1:2,0:0:0:0:
423,188,31713,1,10,0:0:0:0:
433,284,31986,2,0,P|390:337|262:312,1,199.999980926514,2|2,1:2|1:2,0:0:0:0:
193,257,32804,1,10,0:0:0:0:
105,306,33077,6,0,P|97:243|102:188,1,99.999990463257,2|2,1:2|0:0,0:0:0:0:
132,170,33486,1,10,0:0:0:0:
132,170,33622,2,0,P|130:136|120:101,1,49.9999952316285,2|2,1:2|0:0,0:0:0:0:
97,80,33895,2,0,P|61:91|32:95,2,49.9999952316285,10|2|0,0:0|0:0|1:0,0:0:0:0:
181,25,34440,2,0,P|207:31|233:40,1,49.9999952316285,2|10,0:0|0:0,0:0:0:0:
262,77,34713,2,0,P|304:89|368:64,1,99.999990463257,2|10,1:2|0:0,0:0:0:0:
451,44,35259,6,0,B|510:132|396:130|446:236,1,199.999980926514,10|10,0:0|0:0,0:0:0:0:
485,322,36077,1,10,0:0:0:0:
385,314,36350,2,0,P|276:269|188:297,1,199.999980926514,10|10,0:0|0:0,0:0:0:0:
105,324,37168,1,10,0:0:0:0:
17,279,37440,6,0,L|34:158,1,99.999990463257,10|10,0:0|0:0,0:0:0:0:
128,162,37986,2,0,L|142:62,1,99.999990463257,10|10,0:0|0:0,0:0:0:0:
243,72,38531,2,0,L|234:5,2,49.9999952316285,10|10|10,0:0|0:0|0:0,0:0:0:0:
251,122,38940,1,10,0:0:0:0:
251,122,39077,2,0,P|304:145|353:131,1,99.999990463257,10|10,0:0|0:0,0:0:0:0:
436,95,39622,5,6,3:2:0:0:
156,41,41804,6,0,P|57:48|45:152,1,199.999980926514,6|2,3:2|3:2,0:0:0:0:
112,197,42622,1,8,0:0:0:0:
147,292,42895,2,0,P|107:299|44:278,2,99.999990463257,2|2|2,3:2|0:0|3:2,0:0:0:0:
241,268,43713,1,8,0:0:0:0:
296,354,43986,6,0,P|349:290|290:182,1,199.999980926514,2|2,3:2|3:2,0:0:0:0:
228,134,44804,1,8,0:0:0:0:
183,45,45077,2,0,B|301:20|273:113|390:77,1,199.999980926514,2|2,3:2|3:2,0:0:0:0:
466,120,45895,1,8,0:0:0:0:
383,176,46168,6,0,B|265:151|293:244|178:208,1,199.999980926514,2|2,3:2|3:2,0:0:0:0:
103,168,46986,1,8,0:0:0:0:
11,207,47259,2,0,P|3:146|31:94,2,99.999990463257,2|2|2,3:2|0:0|3:2,0:0:0:0:
50,299,48077,1,8,0:0:0:0:
135,350,48350,6,0,B|214:367|257:310|257:310|274:340|317:346,1,199.999980926514,2|2,3:2|3:2,0:0:0:0:
410,355,49168,1,8,0:0:0:0:
367,264,49440,2,0,B|336:187|349:131|349:131|373:152|422:155,1,199.999980926514,2|2,3:2|3:2,0:0:0:0:
495,105,50259,1,8,0:0:0:0:
412,51,50531,6,0,P|282:42|231:104,1,199.999980926514,2|2,3:2|3:2,0:0:0:0:
179,167,51350,1,8,0:0:0:0:
129,255,51622,2,0,P|189:270|242:248,2,99.999990463257,2|2|2,3:2|0:0|3:2,0:0:0:0:
44,202,52440,1,8,0:0:0:0:
93,113,52713,6,0,P|225:76|306:92,1,199.999980926514,2|2,3:2|3:2,0:0:0:0:
381,117,53531,1,8,0:0:0:0:
476,150,53804,2,0,P|414:223|309:195,1,199.999980926514,2|2,3:2|3:2,0:0:0:0:
230,168,54622,1,8,0:0:0:0:
135,203,54895,6,0,P|109:277|102:320,1,99.999990463257,2|2,3:2|0:0,0:0:0:0:
189,358,55440,2,0,P|230:352|302:326,1,99.999990463257,2|8,3:2|0:0,0:0:0:0:
379,294,55986,2,0,P|423:306|444:305,2,49.9999952316285,2|2|2,0:0|0:0|0:0,0:0:0:0:
346,256,56395,1,2,0:0:0:0:
346,256,56531,2,0,P|315:204|304:147,1,99.999990463257,2|2,0:0|0:0,0:0:0:0:
315,63,57077,5,6,0:0:0:0:
297,85,65804,6,0,L|445:66,2,134.999983005524,6|2|2,0:0|0:0|0:0,0:0:0:0:
238,16,66895,2,0,P|227:145|268:178,1,179.999977340699,2|2,0:0|0:0,0:0:0:0:
331,219,67713,1,2,0:0:0:0:
266,282,67986,6,0,B|340:271|324:331|403:310,2,134.999983005524,6|2|2,0:0|0:0|0:0,0:0:0:0:
187,324,69077,2,0,P|136:349|90:250,1,179.999977340699,2|2,0:0|0:0,0:0:0:0:
107,177,69895,1,2,0:0:0:0:
148,97,70168,6,0,P|82:76|9:79,2,134.999983005524,6|2|2,0:0|0:0|0:0,0:0:0:0:
211,162,71259,2,0,P|282:165|400:119,1,179.999977340699,10|10,0:0|0:0,0:0:0:0:
459,78,72077,1,8,0:0:0:0:
477,166,72350,6,0,P|477:240|444:305,2,134.999983005524,10|10|10,0:0|0:0|0:0,0:0:0:0:
289,61,73713,2,0,L|294:7,2,49.9999952316285,8|8|8,0:0|0:0|0:0,0:0:0:0:
281,163,74259,1,4,0:3:0:0:
268,259,74531,6,0,P|224:286|159:281,1,99.999990463257,6|2,3:2|0:0,0:0:0:0:
81,253,75077,2,0,L|72:203,1,49.9999952316285,2|2,3:2|0:0,0:0:0:0:
60,156,75350,2,0,P|37:164|7:166,2,49.9999952316285,10|2|2,0:0|0:0|3:2,0:0:0:0:
151,115,75895,2,0,P|189:102|214:103,2,49.9999952316285,2|10|2,0:0|0:0|3:2,0:0:0:0:
202,201,76440,1,10,0:0:0:0:
282,264,76713,6,0,P|303:206|291:151,1,99.999990463257,2|2,3:2|0:0,0:0:0:0:
288,68,77259,2,0,P|321:55|353:57,1,49.9999952316285,2|2,3:2|0:0,0:0:0:0:
385,54,77531,2,0,L|377:-5,2,49.9999952316285,10|2|2,0:0|0:0|3:2,0:0:0:0:
478,88,78077,2,0,L|482:26,2,49.9999952316285,2|10|2,0:0|0:0|3:2,0:0:0:0:
473,188,78622,1,10,0:0:0:0:
458,286,78895,6,0,P|397:310|351:296,1,99.999990463257,2|2,3:2|0:0,0:0:0:0:
326,272,79304,1,10,0:0:0:0:
326,272,79440,2,0,P|261:253|212:270,2,99.999990463257,2|10|0,3:2|0:0|3:2,0:0:0:0:
267,352,80259,2,0,P|231:362|201:359,1,49.9999952316285,2|8,0:0|0:0,0:0:0:0:
168,359,80531,2,0,B|143:310|143:310|150:255,1,99.999990463257,2|8,3:2|0:0,0:0:0:0:
137,169,81077,6,0,P|192:177|199:182,1,49.9999952316285,2|2,3:2|0:0,0:0:0:0:
232,193,81350,2,0,P|259:203|335:186,2,99.999990463257,2|2|10,0:0|3:2|0:0,0:0:0:0:
277,104,82168,1,0,3:0:0:0:
322,17,82440,2,0,P|295:7|219:24,1,99.999990463257,2|6,0:0|3:2,0:0:0:0:
42,90,83259,5,6,3:2:0:0:
42,90,83395,2,0,L|56:202,1,99.999990463257,2|10,0:0|0:0,0:0:0:0:
69,236,83804,2,0,P|40:249|9:244,2,49.9999952316285,2|2|10,3:2|0:0|0:0,0:0:0:0:
164,200,84350,2,0,P|193:187|224:192,2,49.9999952316285,2|2|2,3:2|0:0|0:0,0:0:0:0:
153,249,84759,1,10,0:0:0:0:
153,249,84895,2,0,P|171:279|235:292,1,99.999990463257,2|8,3:2|0:0,0:0:0:0:
313,351,85440,6,0,L|333:232,1,99.999990463257,2|2,3:2|0:0,0:0:0:0:
429,262,85986,2,0,L|412:163,1,99.999990463257,2|10,3:2|0:0,0:0:0:0:
369,75,86531,2,0,L|434:62,2,49.9999952316285,2|2|2,3:2|0:0|0:0,0:0:0:0:
327,105,86940,1,10,0:0:0:0:
327,105,87077,2,0,P|254:104|232:84,1,99.999990463257,2|8,3:2|0:0,0:0:0:0:
137,74,87622,6,0,L|146:17,2,49.9999952316285,2|2|0,3:2|0:0|0:0,0:0:0:0:
98,106,88031,2,0,L|111:265,1,149.999985694886,10|10,0:0|0:0,0:0:0:0:
166,337,88713,2,0,P|124:357|59:341,2,99.999990463257,2|2|2,3:2|0:0|3:2,0:0:0:0:
250,280,89531,1,8,0:0:0:0:
334,223,89804,2,0,P|376:203|441:219,1,99.999990463257,2|2,3:2|0:0,0:0:0:0:
434,313,90350,2,0,P|392:333|327:317,1,99.999990463257,2|10,3:2|0:0,0:0:0:0:
250,280,90895,2,0,L|238:165,2,99.999990463257,0|2|0,0:0|3:2|0:0,0:0:0:0:
57,323,91986,6,0,P|13:339|-10:339,2,49.9999952316285,6|2|2,3:2|0:0|0:0,0:0:0:0:
146,274,92531,2,0,P|190:290|213:290,2,49.9999952316285,2|2|10,3:2|0:0|0:0,0:0:0:0:
58,226,93077,2,0,L|49:121,2,99.999990463257,2|2|2,3:2|0:0|3:2,0:0:0:0:
145,179,93895,1,8,0:0:0:0:
225,242,94168,6,0,L|210:306,2,49.9999952316285,2|2|2,3:2|0:0|0:0,0:0:0:0:
266,214,94577,1,10,0:0:0:0:
266,214,94713,2,0,P|303:203|365:209,1,99.999990463257,2|10,3:2|0:0,0:0:0:0:
419,294,95259,2,0,P|367:311|317:300,2,99.999990463257,2|2|2,3:2|0:0|3:2,0:0:0:0:
488,220,96077,1,8,0:0:0:0:
436,136,96350,6,0,L|443:71,2,49.9999952316285,2|2|2,3:2|0:0|0:0,0:0:0:0:
387,149,96759,2,0,L|393:211,2,49.9999952316285,10|2|2,0:0|3:2|0:0,0:0:0:0:
340,128,97168,2,0,L|228:115,1,99.999990463257,10|0,0:0|3:2,0:0:0:0:
153,73,97713,2,0,P|143:119|144:144,1,49.9999952316285,2|10,0:0|0:0,0:0:0:0:
165,166,97986,2,0,P|175:211|175:224,2,49.9999952316285,2|2|10,3:2|0:0|0:0,0:0:0:0:
69,199,98531,6,0,P|55:240|55:253,1,49.9999952316285,2|2,3:2|0:0,0:0:0:0:
55,297,98804,2,0,P|94:316|170:309,1,99.999990463257,2|2,0:0|3:2,0:0:0:0:
195,296,99213,1,2,0:0:0:0:
195,296,99350,2,0,P|252:278|315:275,1,99.999990463257,10|0,0:0|3:2,0:0:0:0:
382,321,99895,2,0,L|393:267,1,49.9999952316285,2|2,0:0|0:0,0:0:0:0:
442,275,100168,2,0,L|462:165,1,99.999990463257,2|10,3:2|0:0,0:0:0:0:
478,78,100713,6,0,B|371:53|402:147|275:112,1,199.999980926514,4|2,1:2|1:2,0:0:0:0:
203,71,101531,1,10,0:0:0:0:
112,113,101804,2,0,B|65:174|74:252|74:252|95:255|126:276,1,199.999980926514,2|2,1:2|1:2,0:0:0:0:
213,312,102622,1,10,0:0:0:0:
307,347,102895,6,0,B|354:286|345:208|345:208|324:205|293:184,1,199.999980926514,2|2,1:2|1:2,0:0:0:0:
208,142,103713,1,10,0:0:0:0:
112,113,103986,2,0,L|107:50,2,49.9999952316285,2|2|2,1:2|0:0|0:0,0:0:0:0:
34,175,104531,2,0,L|39:238,1,49.9999952316285,2|2,1:2|0:0,0:0:0:0:
81,250,104804,2,0,L|87:319,1,49.9999952316285,10|2,0:0|0:0,0:0:0:0:
123,333,105077,6,0,B|240:349|205:261|326:276,1,199.999980926514,10|10,0:0|0:0,0:0:0:0:
397,317,105895,1,10,0:0:0:0:
464,242,106168,2,0,B|496:147|496:147|429:49,1,199.999980926514,10|10,0:0|0:0,0:0:0:0:
374,140,106986,1,10,0:0:0:0:
290,84,107259,6,0,L|170:104,1,99.999990463257,10|10,0:0|0:0,0:0:0:0:
140,186,107804,2,0,L|41:169,1,99.999990463257,10|10,0:0|0:0,0:0:0:0:
49,269,108350,2,0,L|-9:259,2,49.9999952316285,10|10|10,0:0|0:0|0:0,0:0:0:0:
73,314,108759,1,10,0:0:0:0:
73,314,108895,2,0,L|171:297,1,99.999990463257,10|2,0:0|0:0,0:0:0:0:
270,282,109440,5,6,0:0:0:0:
512,62,111622,6,0,B|411:48|437:149|313:113,1,199.999980926514,6|2,0:0|0:0,0:0:0:0:
235,84,112440,1,8,0:0:0:0:
149,132,112713,2,0,P|137:85|153:29,2,99.999990463257,2|2|2,0:0|0:0|0:0,0:0:0:0:
235,181,113531,1,8,0:0:0:0:
309,246,113804,6,0,P|226:291|152:233,1,199.999980926514,2|2,0:0|0:0,0:0:0:0:
149,132,114622,1,8,0:0:0:0:
235,84,114895,2,0,P|301:87|449:132,1,199.999980926514,2|2,0:0|0:0,0:0:0:0:
500,194,115713,1,8,0:0:0:0:
421,253,115986,6,0,B|367:279|326:247|326:247|295:303|227:296,1,199.999980926514,2|2,0:0|0:0,0:0:0:0:
152,264,116804,1,8,0:0:0:0:
62,223,117077,2,0,P|51:271|80:335,2,99.999990463257,2|2|2,0:0|0:0|0:0,0:0:0:0:
103,132,117895,1,8,0:0:0:0:
29,63,118168,6,0,B|139:33|104:119|234:83,1,199.999980926514,2|2,0:0|0:0,0:0:0:0:
311,42,118986,1,8,0:0:0:0:
404,81,119259,2,0,B|479:107|479:107|460:234,1,199.999980926514,2|2,0:0|0:0,0:0:0:0:
448,325,120077,1,8,0:0:0:0:
370,266,120350,6,0,P|281:222|211:301,1,199.999980926514,2|2,0:0|0:0,0:0:0:0:
141,347,121168,1,8,0:0:0:0:
98,259,121440,2,0,L|-13:276,2,99.999990463257,2|2|2,0:0|0:0|0:0,0:0:0:0:
178,199,122259,1,8,0:0:0:0:
272,226,122531,6,0,P|338:215|360:85,1,199.999980926514,2|2,0:0|0:0,0:0:0:0:
305,21,123350,1,8,0:0:0:0:
209,53,123622,2,0,B|159:82|81:64|81:64|78:109|93:152,1,199.999980926514,2|2,0:0|0:0,0:0:0:0:
116,227,124440,1,8,0:0:0:0:
178,311,124713,6,0,P|230:303|292:282,1,99.999990463257,2|2,0:0|0:0,0:0:0:0:
360,340,125259,2,0,P|371:276|364:221,1,99.999990463257,2|8,0:0|0:0,0:0:0:0:
365,142,125804,2,0,P|410:148|421:154,2,49.9999952316285,2|2|2,0:0|0:0|0:0,0:0:0:0:
319,164,126213,1,2,0:0:0:0:
319,164,126350,2,0,P|261:179|209:177,1,99.999990463257,2|2,0:0|0:0,0:0:0:0:
