osu file format v14

[General]
AudioFilename: audio.mp3
AudioLeadIn: 0
PreviewTime: -1
Countdown: 0
SampleSet: Normal
StackLeniency: 0.7
Mode: 1
LetterboxInBreaks: 0
WidescreenStoryboard: 0

[Editor]
DistanceSpacing: 0.8
BeatDivisor: 4
GridSize: 32
TimelineZoom: 2.1

[Metadata]
Title:Masakari Blade
TitleUnicode:マサカリブレイド
Artist:REDALiCE
ArtistUnicode:REDALiCE
Creator:R J
Version:Inner Oni
Source:SOUND VOLTEX III GRAVITY WARS
Tags:
BeatmapID:2195759
BeatmapSetID:1050573

[Difficulty]
HPDrainRate:5
CircleSize:5
OverallDifficulty:6
ApproachRate:9
SliderMultiplier:1.4
SliderTickRate:1

[Events]
//Background and Video events
//Break Periods
//Storyboard Layer 0 (Background)
//Storyboard Layer 1 (Fail)
//Storyboard Layer 2 (Pass)
//Storyboard Layer 3 (Foreground)
//Storyboard Layer 4 (Overlay)
//Storyboard Sound Samples

[TimingPoints]
918,309.278350515464,4,1,0,100,1,8
12052,-100,4,1,0,100,0,0
12361,-103.092783505155,4,1,0,100,0,0
12670,-106.382978723404,4,1,0,100,0,0
12979,-109.89010989011,4,1,0,100,0,0
13289,-113.636363636364,4,1,0,100,0,0
13598,-117.647058823529,4,1,0,100,0,0
21021,-116.279069767442,4,1,0,100,0,0
21330,-114.942528735632,4,1,0,100,0,0
21639,-113.636363636364,4,1,0,100,0,0
21948,-111.111111111111,4,1,0,100,0,0
30918,-108.695652173913,4,1,0,100,0,0
31072,-106.382978723404,4,1,0,100,0,0
31227,-104.166666666667,4,1,0,100,0,0
31381,-102.040816326531,4,1,0,100,0,0
31536,-100,4,1,0,100,0,0
31845,-100,4,1,0,100,0,0
42979,-90.9090909090909,4,1,0,100,0,0
44216,-90.9090909090909,4,1,0,100,0,0
52876,-87.719298245614,4,1,0,100,0,0
53031,-84.7457627118644,4,1,0,100,0,0
53186,-81.9672131147541,4,1,0,100,0,0
53340,-79.3650793650794,4,1,0,100,0,0
53495,-76.9230769230769,4,1,0,100,0,0
53649,-74.6268656716418,4,1,0,100,0,0
54113,-90.9090909090909,4,1,0,100,0,0
61691,-91.743119266055,4,1,0,100,0,0
62000,-92.5925925925926,4,1,0,100,0,0
62309,-93.4579439252336,4,1,0,100,0,0
62696,-94.3396226415094,4,1,0,100,0,0
62928,-95.2380952380952,4,1,0,100,0,0
63082,-96.1538461538461,4,1,0,100,0,0
63237,-97.0873786407767,4,1,0,100,0,0
63392,-98.0392156862745,4,1,0,100,0,0
63546,-99.009900990099,4,1,0,100,0,0
64010,-100,4,1,0,100,0,0
64320,-102.040816326531,4,1,0,100,0,0
64783,-104.166666666667,4,1,0,100,0,0
65247,-106.382978723404,4,1,0,100,0,0
66485,-108.695652173913,4,1,0,100,0,0
67258,-111.111111111111,4,1,0,100,0,0
68959,-111.111111111111,4,1,0,100,0,0
77155,-109.89010989011,4,1,0,100,0,0
77309,-108.695652173913,4,1,0,100,0,0
77464,-107.52688172043,4,1,0,100,0,0
77619,-106.382978723404,4,1,0,100,0,0
77773,-105.263157894737,4,1,0,100,0,0
77928,-104.166666666667,4,1,0,100,0,0
78082,-103.092783505155,4,1,0,100,0,0
78237,-102.040816326531,4,1,0,100,0,0
78392,-101.010101010101,4,1,0,100,0,0
78546,-100,4,1,0,100,0,0
78856,-100,4,1,0,100,0,0
91227,-100,4,1,0,100,0,0
91304,-99.009900990099,4,1,0,100,0,0
91381,-98.0392156862745,4,1,0,100,0,0
91459,-97.0873786407767,4,1,0,100,0,0
91536,-96.1538461538461,4,1,0,100,0,0
91613,-95.2380952380952,4,1,0,100,0,0
91691,-94.3396226415094,4,1,0,100,0,0
91768,-93.4579439252336,4,1,0,100,0,0
91845,-92.5925925925926,4,1,0,100,0,0
91923,-91.743119266055,4,1,0,100,0,0
92000,-90.9090909090909,4,1,0,100,0,0
92464,-90.9090909090909,4,1,0,100,0,0
93701,-86.9565217391304,4,1,0,100,0,0
102361,-84.0336134453781,4,1,0,100,0,0
102515,-81.3008130081301,4,1,0,100,0,0
102670,-78.7401574803149,4,1,0,100,0,0
102825,-76.3358778625954,4,1,0,100,0,0
102979,-74.0740740740741,4,1,0,100,0,0
103134,-71.9424460431655,4,1,0,100,0,0
103598,-86.9565217391304,4,1,0,100,0,0

[HitObjects]
143,119,918,5,8,0:0:0:0:
143,119,1072,1,8,0:0:0:0:
143,119,1227,1,0,0:0:0:0:
275,185,1381,5,8,0:0:0:0:
275,185,1536,1,8,0:0:0:0:
275,185,1691,1,0,0:0:0:0:
298,97,1845,1,8,0:0:0:0:
228,98,1923,1,0,0:0:0:0:
228,98,2000,1,8,0:0:0:0:
228,98,2077,1,8,0:0:0:0:
228,98,2155,1,0,0:0:0:0:
73,128,2309,1,0,0:0:0:0:
73,128,2464,1,8,0:0:0:0:
140,145,2619,1,8,0:0:0:0:
140,145,2773,1,0,0:0:0:0:
140,145,2928,1,0,0:0:0:0:
320,160,3082,1,8,0:0:0:0:
320,160,3160,1,8,0:0:0:0:
320,160,3237,1,0,0:0:0:0:
320,160,3314,1,0,0:0:0:0:
320,160,3392,1,8,0:0:0:0:
211,236,3546,1,8,0:0:0:0:
128,160,3701,1,0,0:0:0:0:
128,160,3856,1,0,0:0:0:0:
129,151,4010,1,8,0:0:0:0:
128,160,4165,1,0,0:0:0:0:
128,160,4320,1,0,0:0:0:0:
205,148,4474,1,8,0:0:0:0:
205,148,4629,1,0,0:0:0:0:
205,148,4783,1,8,0:0:0:0:
205,148,4861,1,8,0:0:0:0:
205,148,4938,1,0,0:0:0:0:
205,148,5093,1,0,0:0:0:0:
276,132,5247,1,8,0:0:0:0:
276,132,5402,1,8,0:0:0:0:
276,132,5479,1,0,0:0:0:0:
276,132,5557,1,8,0:0:0:0:
104,171,5866,1,4,0:0:0:0:
393,121,6021,1,8,0:0:0:0:
252,246,6175,1,8,0:0:0:0:
252,246,6253,1,8,0:0:0:0:
252,246,6330,1,0,0:0:0:0:
189,103,6485,1,8,0:0:0:0:
189,103,6639,1,0,0:0:0:0:
189,103,6716,1,0,0:0:0:0:
189,103,6794,1,8,0:0:0:0:
131,162,6948,1,8,0:0:0:0:
307,133,7103,1,8,0:0:0:0:
307,133,7180,1,0,0:0:0:0:
307,133,7258,1,8,0:0:0:0:
307,133,7335,1,8,0:0:0:0:
307,133,7412,1,0,0:0:0:0:
307,133,7490,1,0,0:0:0:0:
307,133,7567,1,8,0:0:0:0:
202,274,7722,1,0,0:0:0:0:
202,274,7876,1,0,0:0:0:0:
96,128,8031,1,8,0:0:0:0:
96,128,8186,1,8,0:0:0:0:
288,192,8340,1,4,0:0:0:0:
321,85,8495,1,8,0:0:0:0:
377,194,8649,1,12,0:0:0:0:
409,90,8804,1,8,0:0:0:0:
462,212,8959,1,4,0:0:0:0:
321,85,9113,1,0,0:0:0:0:
377,194,9267,1,8,0:0:0:0:
409,90,9423,1,0,0:0:0:0:
462,212,9577,1,8,0:0:0:0:
145,152,9655,1,0,0:0:0:0:
145,152,9732,1,8,0:0:0:0:
145,152,9809,1,8,0:0:0:0:
145,152,9887,1,0,0:0:0:0:
145,152,9964,1,0,0:0:0:0:
145,152,10041,1,8,0:0:0:0:
145,152,10119,1,8,0:0:0:0:
145,152,10196,1,0,0:0:0:0:
145,152,10273,1,8,0:0:0:0:
145,152,10350,1,8,0:0:0:0:
150,73,10428,1,0,0:0:0:0:
150,73,10505,1,8,0:0:0:0:
200,69,10582,1,0,0:0:0:0:
200,69,10660,1,8,0:0:0:0:
200,69,10737,1,8,0:0:0:0:
200,69,10814,1,0,0:0:0:0:
328,125,10969,1,8,0:0:0:0:
311,128,11046,1,8,0:0:0:0:
324,121,11124,1,0,0:0:0:0:
322,122,11278,1,8,0:0:0:0:
94,175,11433,1,8,0:0:0:0:
94,175,11485,1,0,0:0:0:0:
94,175,11536,1,0,0:0:0:0:
94,175,11588,1,0,0:0:0:0:
210,201,11665,1,8,0:0:0:0:
210,201,11742,1,8,0:0:0:0:
121,75,12052,1,12,0:0:0:0:
255,138,12515,1,0,0:0:0:0:
132,137,12979,1,8,0:0:0:0:
75,217,13289,1,4,0:0:0:0:
218,76,13753,1,0,0:0:0:0:
320,128,13907,1,8,0:0:0:0:
320,128,13985,1,8,0:0:0:0:
320,128,14062,1,0,0:0:0:0:
320,128,14139,1,0,0:0:0:0:
320,128,14216,1,8,0:0:0:0:
320,128,14294,1,8,0:0:0:0:
320,128,14371,1,0,0:0:0:0:
320,128,14448,1,0,0:0:0:0:
320,128,14526,1,8,0:0:0:0:
128,128,14990,1,0,0:0:0:0:
258,101,15454,1,8,0:0:0:0:
258,101,15763,1,4,0:0:0:0:
356,129,16227,1,0,0:0:0:0:
247,198,16381,1,8,0:0:0:0:
89,123,17000,1,4,0:0:0:0:
118,225,17464,1,0,0:0:0:0:
138,103,17928,1,8,0:0:0:0:
302,109,18237,1,4,0:0:0:0:
317,215,18701,1,0,0:0:0:0:
317,215,18856,1,8,0:0:0:0:
129,107,19165,1,8,0:0:0:0:
122,246,19474,1,4,0:0:0:0:
286,101,19938,1,0,0:0:0:0:
286,101,20093,1,8,0:0:0:0:
286,101,20247,1,0,0:0:0:0:
351,141,20402,1,0,0:0:0:0:
122,128,20711,1,12,0:0:0:0:
224,85,21175,1,0,0:0:0:0:
224,85,21329,1,8,0:0:0:0:
125,170,21639,1,0,0:0:0:0:
296,170,21948,1,8,0:0:0:0:
290,179,22258,1,0,0:0:0:0:
282,180,22412,1,0,0:0:0:0:
282,180,22567,1,8,0:0:0:0:
169,209,22876,1,0,0:0:0:0:
312,287,23186,1,8,0:0:0:0:
312,287,23340,1,8,0:0:0:0:
312,287,23495,1,0,0:0:0:0:
312,287,23649,1,0,0:0:0:0:
312,287,23804,1,8,0:0:0:0:
76,215,24113,1,0,0:0:0:0:
118,175,24423,1,8,0:0:0:0:
178,145,24732,1,0,0:0:0:0:
178,145,24887,1,0,0:0:0:0:
178,145,25041,1,8,0:0:0:0:
178,145,25196,1,0,0:0:0:0:
178,145,25350,1,0,0:0:0:0:
187,161,25505,1,8,0:0:0:0:
184,161,25660,1,0,0:0:0:0:
262,106,25814,1,0,0:0:0:0:
262,106,25969,1,8,0:0:0:0:
262,106,26124,1,8,0:0:0:0:
257,107,26278,1,0,0:0:0:0:
257,107,26433,1,0,0:0:0:0:
371,132,26588,2,0,L|497:79,1,125.999996154785
130,179,27206,1,0,0:0:0:0:
130,179,27515,1,8,0:0:0:0:
194,118,27825,1,0,0:0:0:0:
194,118,27979,1,0,0:0:0:0:
194,118,28134,1,0,0:0:0:0:
194,118,28289,1,8,0:0:0:0:
194,118,28443,1,0,0:0:0:0:
194,118,28598,1,0,0:0:0:0:
194,118,28753,1,8,0:0:0:0:
115,132,28907,1,8,0:0:0:0:
115,132,29062,1,0,0:0:0:0:
309,96,29371,1,0,0:0:0:0:
309,96,29526,1,0,0:0:0:0:
302,110,29680,1,8,0:0:0:0:
107,188,29835,1,0,0:0:0:0:
107,188,29990,1,8,0:0:0:0:
144,108,30144,1,0,0:0:0:0:
144,108,30299,1,8,0:0:0:0:
144,108,30454,1,8,0:0:0:0:
144,108,30608,1,0,0:0:0:0:
282,92,30918,1,0,0:0:0:0:
282,92,31072,1,0,0:0:0:0:
282,92,31227,1,8,0:0:0:0:
282,92,31381,1,8,0:0:0:0:
87,133,31536,1,0,0:0:0:0:
216,188,31845,1,8,0:0:0:0:
109,213,32000,1,0,0:0:0:0:
178,130,32155,1,8,0:0:0:0:
109,213,32309,1,0,0:0:0:0:
133,285,32387,1,0,0:0:0:0:
178,130,32464,1,8,0:0:0:0:
239,241,32619,1,0,0:0:0:0:
277,92,32773,1,8,0:0:0:0:
84,90,32928,1,8,0:0:0:0:
84,90,33005,1,8,0:0:0:0:
84,90,33082,1,0,0:0:0:0:
167,133,33237,1,0,0:0:0:0:
165,133,33392,1,8,0:0:0:0:
62,163,33546,1,0,0:0:0:0:
62,163,33624,1,0,0:0:0:0:
62,163,33701,1,8,0:0:0:0:
88,230,33856,1,8,0:0:0:0:
88,230,33933,1,0,0:0:0:0:
88,230,34010,1,8,0:0:0:0:
88,230,34088,1,8,0:0:0:0:
88,230,34165,1,0,0:0:0:0:
160,152,34320,1,8,0:0:0:0:
160,152,34474,1,0,0:0:0:0:
160,152,34552,1,0,0:0:0:0:
160,152,34629,1,8,0:0:0:0:
93,139,34783,1,8,0:0:0:0:
93,139,34938,1,0,0:0:0:0:
85,141,35093,1,0,0:0:0:0:
85,141,35170,1,8,0:0:0:0:
85,141,35247,1,0,0:0:0:0:
148,96,35325,1,0,0:0:0:0:
190,154,35402,1,8,0:0:0:0:
148,96,35479,1,8,0:0:0:0:
256,88,35557,1,0,0:0:0:0:
95,230,35711,1,0,0:0:0:0:
95,230,35866,1,8,0:0:0:0:
224,227,36021,1,8,0:0:0:0:
224,227,36098,1,8,0:0:0:0:
224,227,36175,1,0,0:0:0:0:
224,227,36253,1,8,0:0:0:0:
224,227,36330,1,0,0:0:0:0:
224,227,36407,1,8,0:0:0:0:
224,227,36485,1,8,0:0:0:0:
224,227,36562,1,8,0:0:0:0:
224,227,36639,1,0,0:0:0:0:
146,116,36794,1,8,0:0:0:0:
139,116,36948,1,0,0:0:0:0:
138,116,37103,1,8,0:0:0:0:
138,117,37258,1,0,0:0:0:0:
137,117,37335,1,0,0:0:0:0:
136,117,37412,1,8,0:0:0:0:
221,96,37567,1,8,0:0:0:0:
221,96,37722,1,8,0:0:0:0:
221,96,37799,1,8,0:0:0:0:
221,96,37876,1,0,0:0:0:0:
301,111,38031,1,8,0:0:0:0:
301,111,38186,1,0,0:0:0:0:
301,111,38263,1,8,0:0:0:0:
301,111,38340,1,8,0:0:0:0:
116,123,38495,1,8,0:0:0:0:
96,227,38649,1,0,0:0:0:0:
96,227,38727,1,0,0:0:0:0:
96,227,38804,1,8,0:0:0:0:
96,227,38881,1,0,0:0:0:0:
96,227,38959,1,8,0:0:0:0:
96,227,39036,1,8,0:0:0:0:
96,227,39113,1,0,0:0:0:0:
167,128,39268,1,8,0:0:0:0:
167,128,39423,1,0,0:0:0:0:
167,128,39577,1,0,0:0:0:0:
167,128,39732,1,0,0:0:0:0:
167,128,39887,1,8,0:0:0:0:
233,128,40041,1,0,0:0:0:0:
394,156,40119,1,0,0:0:0:0:
233,128,40196,1,0,0:0:0:0:
233,128,40350,1,8,0:0:0:0:
233,128,40505,1,8,0:0:0:0:
395,100,40582,1,0,0:0:0:0:
380,101,40660,1,0,0:0:0:0:
395,100,40737,1,8,0:0:0:0:
395,100,40814,1,8,0:0:0:0:
385,100,40892,1,0,0:0:0:0:
385,100,40969,1,8,0:0:0:0:
385,100,41046,1,0,0:0:0:0:
385,100,41124,1,8,0:0:0:0:
385,100,41201,1,8,0:0:0:0:
385,100,41278,1,0,0:0:0:0:
385,100,41356,1,8,0:0:0:0:
395,100,41433,1,0,0:0:0:0:
395,100,41510,1,0,0:0:0:0:
395,100,41588,1,8,0:0:0:0:
395,100,41665,1,0,0:0:0:0:
395,100,41742,1,8,0:0:0:0:
101,144,42979,1,8,0:0:0:0:
101,144,43134,1,0,0:0:0:0:
101,144,43211,1,8,0:0:0:0:
101,144,43289,1,8,0:0:0:0:
101,144,43443,1,8,0:0:0:0:
186,158,43598,1,0,0:0:0:0:
186,158,43675,1,8,0:0:0:0:
277,128,43753,1,0,0:0:0:0:
277,128,43804,1,0,0:0:0:0:
277,128,43856,1,0,0:0:0:0:
277,128,43907,1,8,0:0:0:0:
99,85,44216,1,12,0:0:0:0:
299,187,44371,1,0,0:0:0:0:
299,187,44526,1,8,0:0:0:0:
299,187,44680,1,0,0:0:0:0:
299,187,44758,1,0,0:0:0:0:
299,187,44835,1,0,0:0:0:0:
299,187,44990,1,8,0:0:0:0:
299,187,45144,1,8,0:0:0:0:
299,187,45222,1,8,0:0:0:0:
299,187,45299,1,0,0:0:0:0:
135,133,45454,1,8,0:0:0:0:
135,133,45608,1,8,0:0:0:0:
135,133,45686,1,8,0:0:0:0:
135,133,45763,1,0,0:0:0:0:
135,133,45840,1,0,0:0:0:0:
135,133,45918,1,8,0:0:0:0:
290,117,46072,1,8,0:0:0:0:
290,117,46149,1,0,0:0:0:0:
290,117,46227,1,0,0:0:0:0:
290,117,46304,1,0,0:0:0:0:
290,117,46381,1,8,0:0:0:0:
386,131,46536,1,12,0:0:0:0:
98,163,46845,1,0,0:0:0:0:
98,163,47000,1,8,0:0:0:0:
98,163,47155,1,0,0:0:0:0:
98,163,47232,1,0,0:0:0:0:
98,163,47309,1,8,0:0:0:0:
98,163,47464,1,0,0:0:0:0:
98,163,47619,1,8,0:0:0:0:
98,163,47696,1,8,0:0:0:0:
98,163,47773,1,8,0:0:0:0:
98,163,47928,1,0,0:0:0:0:
98,163,48082,1,8,0:0:0:0:
98,163,48160,1,0,0:0:0:0:
98,163,48237,1,8,0:0:0:0:
98,163,48314,1,8,0:0:0:0:
98,163,48392,1,0,0:0:0:0:
196,151,48546,1,8,0:0:0:0:
196,151,48701,1,0,0:0:0:0:
301,80,49010,1,0,0:0:0:0:
301,80,49062,1,0,0:0:0:0:
301,80,49113,1,0,0:0:0:0:
295,91,49165,1,8,0:0:0:0:
107,232,49320,1,0,0:0:0:0:
107,232,49474,1,8,0:0:0:0:
107,232,49629,1,0,0:0:0:0:
120,131,49783,1,8,0:0:0:0:
120,131,49861,1,8,0:0:0:0:
120,131,49938,1,0,0:0:0:0:
186,112,50093,1,8,0:0:0:0:
297,133,50247,1,0,0:0:0:0:
297,133,50325,1,0,0:0:0:0:
297,133,50402,1,0,0:0:0:0:
297,133,50557,1,8,0:0:0:0:
91,168,50711,1,8,0:0:0:0:
91,168,50789,1,8,0:0:0:0:
91,168,50866,1,0,0:0:0:0:
91,168,50943,1,0,0:0:0:0:
91,168,51021,1,8,0:0:0:0:
171,138,51175,1,0,0:0:0:0:
171,138,51253,1,0,0:0:0:0:
171,138,51330,1,0,0:0:0:0:
154,52,51485,1,8,0:0:0:0:
268,93,51639,1,8,0:0:0:0:
268,93,51716,1,8,0:0:0:0:
268,93,51794,1,8,0:0:0:0:
268,93,51871,1,8,0:0:0:0:
268,93,51948,1,0,0:0:0:0:
157,195,52103,1,0,0:0:0:0:
157,195,52180,1,0,0:0:0:0:
157,195,52258,1,8,0:0:0:0:
157,195,52335,1,8,0:0:0:0:
151,195,52412,1,0,0:0:0:0:
313,158,52567,1,8,0:0:0:0:
313,158,52644,1,8,0:0:0:0:
313,158,52722,1,0,0:0:0:0:
156,105,52876,1,12,0:0:0:0:
233,119,53031,1,0,0:0:0:0:
233,119,53186,1,12,0:0:0:0:
233,119,53340,1,0,0:0:0:0:
233,119,53495,1,12,0:0:0:0:
233,119,53649,1,0,0:0:0:0:
233,119,53727,1,0,0:0:0:0:
233,119,53804,1,8,0:0:0:0:
131,164,54113,1,4,0:0:0:0:
211,198,54268,1,8,0:0:0:0:
211,198,54423,1,0,0:0:0:0:
297,122,54577,1,8,0:0:0:0:
297,122,54655,1,8,0:0:0:0:
297,122,54732,1,0,0:0:0:0:
297,122,54887,1,8,0:0:0:0:
297,122,54964,1,0,0:0:0:0:
297,122,55041,1,8,0:0:0:0:
297,122,55119,1,8,0:0:0:0:
297,122,55196,1,0,0:0:0:0:
111,122,55350,1,0,0:0:0:0:
111,122,55505,1,0,0:0:0:0:
111,122,55660,1,8,0:0:0:0:
111,122,55814,1,0,0:0:0:0:
111,122,55892,1,0,0:0:0:0:
111,122,55969,1,0,0:0:0:0:
111,122,56124,1,8,0:0:0:0:
111,122,56278,1,0,0:0:0:0:
203,120,56433,1,12,0:0:0:0:
74,214,56742,1,0,0:0:0:0:
74,214,56897,1,8,0:0:0:0:
74,214,57052,1,0,0:0:0:0:
74,214,57206,1,0,0:0:0:0:
74,214,57361,1,8,0:0:0:0:
154,179,57515,1,0,0:0:0:0:
107,78,57670,1,8,0:0:0:0:
107,78,57747,1,8,0:0:0:0:
107,78,57825,1,8,0:0:0:0:
98,133,57979,1,0,0:0:0:0:
98,133,58134,1,0,0:0:0:0:
226,110,58289,1,8,0:0:0:0:
226,110,58366,1,8,0:0:0:0:
226,110,58443,1,0,0:0:0:0:
226,110,58598,1,0,0:0:0:0:
347,104,58907,1,8,0:0:0:0:
347,104,58959,1,8,0:0:0:0:
347,104,59010,1,8,0:0:0:0:
347,104,59062,1,0,0:0:0:0:
66,205,59216,1,0,0:0:0:0:
66,205,59371,1,8,0:0:0:0:
129,131,59526,1,0,0:0:0:0:
129,131,59603,1,0,0:0:0:0:
129,131,59680,1,8,0:0:0:0:
208,107,59835,1,8,0:0:0:0:
244,242,59990,1,0,0:0:0:0:
244,242,60067,1,0,0:0:0:0:
326,76,60144,1,8,0:0:0:0:
326,76,60196,1,0,0:0:0:0:
326,76,60247,1,0,0:0:0:0:
326,76,60299,1,8,0:0:0:0:
102,150,60454,1,8,0:0:0:0:
182,102,60608,1,8,0:0:0:0:
182,102,60763,1,0,0:0:0:0:
182,102,60840,1,0,0:0:0:0:
182,102,60918,1,8,0:0:0:0:
269,95,61072,1,8,0:0:0:0:
89,227,61227,1,8,0:0:0:0:
89,227,61278,1,0,0:0:0:0:
89,227,61330,1,0,0:0:0:0:
89,227,61381,1,8,0:0:0:0:
89,227,61433,1,0,0:0:0:0:
89,227,61485,1,0,0:0:0:0:
89,227,61536,1,8,0:0:0:0:
154,123,61845,1,8,0:0:0:0:
154,123,62155,1,8,0:0:0:0:
249,91,62464,1,8,0:0:0:0:
335,127,62619,1,4,0:0:0:0:
256,228,62928,1,4,0:0:0:0:
116,154,63082,1,8,0:0:0:0:
116,154,63237,1,8,0:0:0:0:
157,198,63392,1,0,0:0:0:0:
157,198,63546,1,0,0:0:0:0:
157,198,63624,1,0,0:0:0:0:
157,198,63701,1,8,0:0:0:0:
150,198,64010,1,4,0:0:0:0:
312,114,64474,1,0,0:0:0:0:
190,153,64783,1,8,0:0:0:0:
153,222,65402,1,0,0:0:0:0:
78,194,66639,1,0,0:0:0:0:
160,163,67258,1,8,0:0:0:0:
160,163,67876,1,0,0:0:0:0:
256,192,68031,12,0,68804,0:0:0:0:
94,156,68959,5,0,0:0:0:0:
157,197,69268,1,0,0:0:0:0:
157,197,69423,1,8,0:0:0:0:
146,198,69577,1,8,0:0:0:0:
132,104,69887,1,8,0:0:0:0:
211,119,70041,1,0,0:0:0:0:
204,143,70196,1,0,0:0:0:0:
307,122,70350,1,8,0:0:0:0:
307,122,70505,1,0,0:0:0:0:
307,122,70660,1,0,0:0:0:0:
307,122,70814,1,8,0:0:0:0:
307,122,70969,1,8,0:0:0:0:
307,122,71124,1,0,0:0:0:0:
103,116,71433,1,8,0:0:0:0:
103,116,71588,1,8,0:0:0:0:
103,116,71742,1,0,0:0:0:0:
103,116,71897,1,0,0:0:0:0:
125,185,72052,1,8,0:0:0:0:
125,185,72361,1,8,0:0:0:0:
125,185,72515,1,0,0:0:0:0:
125,185,72670,1,0,0:0:0:0:
125,185,72825,1,8,0:0:0:0:
125,185,72979,1,8,0:0:0:0:
187,164,73134,1,0,0:0:0:0:
187,164,73289,1,0,0:0:0:0:
187,164,73443,1,8,0:0:0:0:
195,99,73598,2,0,L|318:54,1,125.999996154785
157,278,74216,1,0,0:0:0:0:
101,193,74526,1,8,0:0:0:0:
101,193,74835,1,0,0:0:0:0:
101,193,74990,1,0,0:0:0:0:
101,193,75144,1,0,0:0:0:0:
208,148,75299,1,8,0:0:0:0:
208,148,75454,1,0,0:0:0:0:
208,148,75608,1,0,0:0:0:0:
213,171,75763,1,8,0:0:0:0:
208,168,75918,1,8,0:0:0:0:
202,168,76072,1,0,0:0:0:0:
96,169,76381,1,8,0:0:0:0:
96,169,76536,1,8,0:0:0:0:
96,169,76691,1,0,0:0:0:0:
96,169,76845,1,0,0:0:0:0:
96,169,77000,1,8,0:0:0:0:
96,169,77155,1,0,0:0:0:0:
96,169,77309,1,0,0:0:0:0:
96,169,77464,1,8,0:0:0:0:
96,169,77619,1,0,0:0:0:0:
96,169,77773,1,0,0:0:0:0:
96,169,77928,1,0,0:0:0:0:
191,107,78082,1,8,0:0:0:0:
157,196,78237,1,8,0:0:0:0:
157,196,78392,1,8,0:0:0:0:
146,196,78546,1,0,0:0:0:0:
254,123,78856,1,4,0:0:0:0:
254,123,79010,1,8,0:0:0:0:
254,123,79165,1,0,0:0:0:0:
254,123,79320,1,8,0:0:0:0:
254,123,79397,1,8,0:0:0:0:
254,123,79474,1,0,0:0:0:0:
133,125,79629,1,8,0:0:0:0:
133,125,79783,1,8,0:0:0:0:
133,125,79938,1,0,0:0:0:0:
202,167,80015,1,0,0:0:0:0:
202,167,80093,1,0,0:0:0:0:
202,167,80247,1,8,0:0:0:0:
202,167,80402,1,8,0:0:0:0:
202,167,80557,1,0,0:0:0:0:
202,167,80634,1,0,0:0:0:0:
202,167,80711,1,8,0:0:0:0:
202,167,80866,1,8,0:0:0:0:
202,167,80943,1,0,0:0:0:0:
202,167,81021,1,8,0:0:0:0:
202,167,81098,1,8,0:0:0:0:
202,167,81175,1,0,0:0:0:0:
303,117,81330,1,8,0:0:0:0:
104,138,81485,1,0,0:0:0:0:
104,138,81562,1,0,0:0:0:0:
104,138,81639,1,8,0:0:0:0:
101,199,81794,1,8,0:0:0:0:
174,130,81948,1,8,0:0:0:0:
174,130,82026,1,0,0:0:0:0:
174,130,82103,1,0,0:0:0:0:
174,130,82180,1,8,0:0:0:0:
174,130,82258,1,8,0:0:0:0:
174,130,82335,1,0,0:0:0:0:
174,130,82412,1,8,0:0:0:0:
128,178,82490,1,0,0:0:0:0:
128,178,82567,1,8,0:0:0:0:
267,99,82722,1,8,0:0:0:0:
267,99,82799,1,0,0:0:0:0:
267,99,82876,1,8,0:0:0:0:
267,99,82954,1,8,0:0:0:0:
267,99,83031,1,0,0:0:0:0:
364,199,83186,1,8,0:0:0:0:
364,199,83263,1,0,0:0:0:0:
364,199,83340,1,8,0:0:0:0:
364,199,83418,1,8,0:0:0:0:
364,199,83495,1,0,0:0:0:0:
364,199,83572,1,8,0:0:0:0:
364,199,83649,1,0,0:0:0:0:
105,146,83804,1,8,0:0:0:0:
105,146,83959,1,0,0:0:0:0:
105,146,84036,1,0,0:0:0:0:
105,146,84113,1,8,0:0:0:0:
166,144,84268,1,8,0:0:0:0:
166,144,84423,1,0,0:0:0:0:
166,144,84500,1,0,0:0:0:0:
166,144,84577,1,0,0:0:0:0:
133,222,84732,1,8,0:0:0:0:
133,222,84887,1,8,0:0:0:0:
133,222,84964,1,8,0:0:0:0:
133,222,85041,1,0,0:0:0:0:
72,126,85196,1,8,0:0:0:0:
72,126,85273,1,0,0:0:0:0:
72,126,85350,1,8,0:0:0:0:
72,126,85428,1,8,0:0:0:0:
72,126,85505,1,0,0:0:0:0:
181,106,85660,1,8,0:0:0:0:
181,106,85737,1,0,0:0:0:0:
181,106,85814,1,0,0:0:0:0:
181,106,85892,1,0,0:0:0:0:
181,106,85969,1,8,0:0:0:0:
181,106,86046,1,8,0:0:0:0:
181,106,86124,1,0,0:0:0:0:
288,87,86278,1,8,0:0:0:0:
288,87,86433,1,0,0:0:0:0:
288,87,86588,1,0,0:0:0:0:
288,87,86742,1,8,0:0:0:0:
288,87,86897,1,8,0:0:0:0:
288,87,87052,1,0,0:0:0:0:
288,87,87129,1,0,0:0:0:0:
288,87,87206,1,0,0:0:0:0:
288,87,87361,1,8,0:0:0:0:
233,128,87515,1,8,0:0:0:0:
395,100,87592,1,8,0:0:0:0:
380,101,87670,1,0,0:0:0:0:
395,100,87747,1,8,0:0:0:0:
395,100,87824,1,0,0:0:0:0:
385,100,87902,1,0,0:0:0:0:
385,100,87979,1,8,0:0:0:0:
385,100,88056,1,0,0:0:0:0:
385,100,88134,1,8,0:0:0:0:
385,100,88211,1,8,0:0:0:0:
385,100,88288,1,0,0:0:0:0:
385,100,88366,1,8,0:0:0:0:
395,100,88443,1,0,0:0:0:0:
395,100,88520,1,0,0:0:0:0:
395,100,88598,1,8,0:0:0:0:
395,100,88675,1,0,0:0:0:0:
395,100,88752,1,8,0:0:0:0:
101,158,88907,1,0,0:0:0:0:
101,158,89062,1,8,0:0:0:0:
101,158,89139,1,0,0:0:0:0:
101,158,89294,1,0,0:0:0:0:
101,158,89371,1,8,0:0:0:0:
161,190,89526,1,0,0:0:0:0:
181,120,89680,1,8,0:0:0:0:
181,120,89758,1,8,0:0:0:0:
181,120,89912,1,0,0:0:0:0:
181,120,89990,1,8,0:0:0:0:
91,143,90144,1,0,0:0:0:0:
90,144,90299,1,8,0:0:0:0:
90,144,90376,1,0,0:0:0:0:
91,143,90531,1,0,0:0:0:0:
91,143,90608,1,8,0:0:0:0:
123,193,90763,1,0,0:0:0:0:
123,193,90918,1,8,0:0:0:0:
123,193,90995,1,0,0:0:0:0:
123,193,91072,1,8,0:0:0:0:
181,159,91227,1,8,0:0:0:0:
181,159,91304,1,8,0:0:0:0:
181,159,91381,1,0,0:0:0:0:
181,159,91459,1,0,0:0:0:0:
181,159,91536,1,8,0:0:0:0:
181,159,91613,1,8,0:0:0:0:
181,159,91691,1,0,0:0:0:0:
181,159,91768,1,0,0:0:0:0:
94,182,91845,1,8,0:0:0:0:
94,182,91923,1,0,0:0:0:0:
94,182,92000,1,8,0:0:0:0:
94,182,92077,1,8,0:0:0:0:
94,182,92155,1,0,0:0:0:0:
94,182,92232,1,8,0:0:0:0:
161,237,92309,1,0,0:0:0:0:
161,237,92387,1,0,0:0:0:0:
161,237,92464,1,8,0:0:0:0:
164,130,92619,1,8,0:0:0:0:
164,130,92696,1,8,0:0:0:0:
164,130,92773,1,8,0:0:0:0:
164,130,92928,1,8,0:0:0:0:
278,127,93082,1,0,0:0:0:0:
278,127,93160,1,0,0:0:0:0:
377,129,93237,1,8,0:0:0:0:
377,129,93289,1,8,0:0:0:0:
377,129,93340,1,8,0:0:0:0:
377,129,93392,1,0,0:0:0:0:
107,129,93701,1,12,0:0:0:0:
126,222,93856,1,0,0:0:0:0:
121,222,94010,1,8,0:0:0:0:
186,145,94165,1,8,0:0:0:0:
186,145,94242,1,8,0:0:0:0:
186,145,94320,1,0,0:0:0:0:
292,126,94474,1,8,0:0:0:0:
292,126,94552,1,0,0:0:0:0:
292,126,94629,1,8,0:0:0:0:
292,126,94706,1,8,0:0:0:0:
292,126,94783,1,0,0:0:0:0:
106,150,94938,1,8,0:0:0:0:
106,150,95093,1,0,0:0:0:0:
106,150,95170,1,0,0:0:0:0:
106,150,95247,1,0,0:0:0:0:
106,150,95402,1,8,0:0:0:0:
165,120,95557,1,8,0:0:0:0:
165,120,95634,1,0,0:0:0:0:
165,120,95711,1,0,0:0:0:0:
165,120,95866,1,8,0:0:0:0:
326,87,96021,1,12,0:0:0:0:
79,169,96330,1,0,0:0:0:0:
79,169,96485,1,8,0:0:0:0:
77,196,96639,1,0,0:0:0:0:
161,197,96794,1,8,0:0:0:0:
161,197,96871,1,8,0:0:0:0:
161,197,96948,1,0,0:0:0:0:
161,197,97103,1,8,0:0:0:0:
161,197,97258,1,0,0:0:0:0:
161,197,97335,1,0,0:0:0:0:
161,197,97412,1,0,0:0:0:0:
110,136,97567,1,8,0:0:0:0:
110,136,97722,1,0,0:0:0:0:
110,136,97799,1,0,0:0:0:0:
110,136,97876,1,8,0:0:0:0:
110,136,97954,1,0,0:0:0:0:
110,136,98031,1,8,0:0:0:0:
110,136,98108,1,8,0:0:0:0:
110,136,98186,1,0,0:0:0:0:
263,119,98495,1,0,0:0:0:0:
263,119,98546,1,0,0:0:0:0:
263,119,98598,1,0,0:0:0:0:
256,121,98649,1,8,0:0:0:0:
177,168,98804,1,0,0:0:0:0:
177,168,98959,1,8,0:0:0:0:
177,168,99113,1,0,0:0:0:0:
177,168,99268,1,0,0:0:0:0:
111,152,99423,1,8,0:0:0:0:
188,82,99577,1,8,0:0:0:0:
188,82,99655,1,8,0:0:0:0:
188,82,99732,1,0,0:0:0:0:
278,107,99887,1,8,0:0:0:0:
351,87,100041,1,0,0:0:0:0:
351,87,100119,1,0,0:0:0:0:
351,87,100196,1,0,0:0:0:0:
73,174,100350,1,8,0:0:0:0:
149,169,100505,1,8,0:0:0:0:
149,169,100582,1,8,0:0:0:0:
149,169,100660,1,0,0:0:0:0:
149,169,100737,1,0,0:0:0:0:
149,169,100814,1,8,0:0:0:0:
171,100,100892,1,8,0:0:0:0:
171,100,100969,1,0,0:0:0:0:
295,99,101124,1,8,0:0:0:0:
295,99,101278,1,0,0:0:0:0:
295,99,101433,1,0,0:0:0:0:
295,99,101588,1,8,0:0:0:0:
295,99,101742,1,8,0:0:0:0:
150,183,101897,1,0,0:0:0:0:
89,148,102052,1,8,0:0:0:0:
89,148,102129,1,8,0:0:0:0:
89,148,102206,1,8,0:0:0:0:
296,218,102361,1,4,0:0:0:0:
209,102,102515,1,8,0:0:0:0:
209,102,102670,1,4,0:0:0:0:
209,102,102825,1,8,0:0:0:0:
209,102,102979,1,4,0:0:0:0:
120,168,103134,1,8,0:0:0:0:
120,168,103211,1,8,0:0:0:0:
120,168,103289,1,0,0:0:0:0:
181,132,103598,1,0,0:0:0:0:
181,132,103753,1,12,0:0:0:0:
181,132,103907,1,4,0:0:0:0:
286,84,104062,1,8,0:0:0:0:
301,183,104216,1,0,0:0:0:0:
301,183,104294,1,0,0:0:0:0:
301,183,104371,1,0,0:0:0:0:
350,104,104526,1,8,0:0:0:0:
350,104,104603,1,0,0:0:0:0:
350,104,104680,1,8,0:0:0:0:
350,104,104758,1,8,0:0:0:0:
350,104,104835,1,0,0:0:0:0:
106,140,104990,1,8,0:0:0:0:
106,140,105067,1,0,0:0:0:0:
98,140,105144,1,0,0:0:0:0:
96,140,105222,1,0,0:0:0:0:
99,141,105299,1,8,0:0:0:0:
134,171,105454,1,0,0:0:0:0:
134,171,105608,1,8,0:0:0:0:
352,192,105686,1,8,0:0:0:0:
134,171,105763,1,0,0:0:0:0:
134,171,105918,1,12,0:0:0:0:
294,75,106227,1,8,0:0:0:0:
294,75,106381,1,0,0:0:0:0:
185,133,106536,1,0,0:0:0:0:
185,133,106691,1,8,0:0:0:0:
166,137,106768,1,8,0:0:0:0:
164,138,106845,1,0,0:0:0:0:
256,100,107000,1,8,0:0:0:0:
256,100,107155,1,0,0:0:0:0:
256,100,107232,1,0,0:0:0:0:
256,100,107309,1,0,0:0:0:0:
346,102,107464,1,8,0:0:0:0:
346,102,107541,1,8,0:0:0:0:
346,102,107619,1,0,0:0:0:0:
338,102,107696,1,0,0:0:0:0:
346,102,107773,1,8,0:0:0:0:
98,150,107928,1,8,0:0:0:0:
192,160,108005,1,0,0:0:0:0:
98,150,108082,1,0,0:0:0:0:
346,102,108392,1,0,0:0:0:0:
346,102,108444,1,0,0:0:0:0:
346,102,108495,1,0,0:0:0:0:
346,102,108546,1,8,0:0:0:0:
65,203,108701,1,8,0:0:0:0:
65,203,108856,1,0,0:0:0:0:
163,133,109010,1,8,0:0:0:0:
163,133,109088,1,0,0:0:0:0:
163,133,109165,1,8,0:0:0:0:
163,133,109242,1,8,0:0:0:0:
163,133,109320,1,0,0:0:0:0:
243,240,109475,1,0,0:0:0:0:
243,240,109552,1,0,0:0:0:0:
325,74,109629,1,8,0:0:0:0:
325,74,109681,1,8,0:0:0:0:
325,74,109732,1,8,0:0:0:0:
325,74,109784,1,0,0:0:0:0:
101,148,109939,1,0,0:0:0:0:
101,148,110093,1,8,0:0:0:0:
181,100,110248,1,8,0:0:0:0:
181,100,110325,1,8,0:0:0:0:
181,100,110403,1,0,0:0:0:0:
268,93,110557,1,8,0:0:0:0:
88,225,110712,1,8,0:0:0:0:
88,225,110763,1,0,0:0:0:0:
88,225,110815,1,0,0:0:0:0:
88,225,110866,1,8,0:0:0:0:
88,225,110918,1,0,0:0:0:0:
88,225,110970,1,0,0:0:0:0:
88,225,111021,1,8,0:0:0:0:
154,123,111330,1,8,0:0:0:0:
154,123,111640,1,8,0:0:0:0:
249,91,111948,1,8,0:0:0:0:
335,127,112104,1,4,0:0:0:0:
256,228,112413,1,4,0:0:0:0:
116,154,112567,1,8,0:0:0:0:
116,154,112722,1,8,0:0:0:0:
157,198,112877,1,8,0:0:0:0:
160,118,112954,1,0,0:0:0:0:
157,198,113031,1,0,0:0:0:0:
157,198,113108,1,8,0:0:0:0:
157,198,113186,1,8,0:0:0:0:
150,198,113495,1,0,0:0:0:0:
