osu file format v14

[General]
AudioFilename: audio.mp3
AudioLeadIn: 0
PreviewTime: 39878
Countdown: 0
SampleSet: Normal
StackLeniency: 0.7
Mode: 1
LetterboxInBreaks: 0
WidescreenStoryboard: 0

[Editor]
Bookmarks: 39879
DistanceSpacing: 0.2
BeatDivisor: 12
GridSize: 32
TimelineZoom: 1.4

[Metadata]
Title:Haachama Haachamatchama
TitleUnicode:はあちゃまはあちゃまっちゃま
Artist:REDALiCE
ArtistUnicode:REDALiCE
Creator:Quibby
Version:Inner Haachama
Source:
Tags:Hololive Vtuber Tsunomaki Watame Virtual Idol Japanese Electronic Novelty 赤井はあと 角巻わため ホロライブ Akai Haato youtuber プロダクション production
BeatmapID:2406327
BeatmapSetID:1152904

[Difficulty]
HPDrainRate:5.5
CircleSize:5
OverallDifficulty:5.5
ApproachRate:5
SliderMultiplier:1.4
SliderTickRate:1

[Events]
//Background and Video events
0,0,"AkaiHaatoSafe.jpg",0,0
//Break Periods
//Storyboard Layer 0 (Background)
//Storyboard Layer 1 (Fail)
//Storyboard Layer 2 (Pass)
//Storyboard Layer 3 (Foreground)
//Storyboard Layer 4 (Overlay)
//Storyboard Sound Samples

[TimingPoints]
350,352.941176470588,4,1,0,60,1,0
3173,352.941176470588,4,1,0,65,1,0
25761,-100,4,1,0,60,0,0
28584,352.941176470588,4,1,0,70,1,0
39878,-100,4,1,0,80,0,1
51172,-100,4,1,0,70,0,0

[HitObjects]
249,191,350,5,12,0:0:0:0:
262,172,702,1,12,0:0:0:0:
262,172,879,1,4,0:0:0:0:
262,172,1232,1,4,0:0:0:0:
262,172,1408,1,12,0:0:0:0:
108,267,1761,1,0,0:0:0:0:
108,267,1849,1,0,0:0:0:0:
108,267,1938,1,8,0:0:0:0:
108,267,2114,1,0,0:0:0:0:
108,267,2202,1,0,0:0:0:0:
255,226,2291,1,8,0:0:0:0:
429,282,2379,1,8,0:0:0:0:
405,282,2467,1,0,0:0:0:0:
405,282,2555,1,0,0:0:0:0:
429,282,2644,1,8,0:0:0:0:
429,282,2820,1,8,0:0:0:0:
351,195,3173,5,8,0:0:0:0:
208,300,3349,1,0,0:0:0:0:
209,275,3437,1,0,0:0:0:0:
208,300,3525,1,8,0:0:0:0:
302,286,3878,1,8,0:0:0:0:
302,286,4055,1,8,0:0:0:0:
242,277,4143,1,8,0:0:0:0:
302,286,4231,1,0,0:0:0:0:
188,198,4584,1,8,0:0:0:0:
188,198,4761,1,0,0:0:0:0:
255,191,4849,1,0,0:0:0:0:
188,198,4937,1,8,0:0:0:0:
314,198,5114,1,0,0:0:0:0:
266,213,5202,1,0,0:0:0:0:
188,198,5290,1,8,0:0:0:0:
188,198,5467,1,8,0:0:0:0:
300,335,5555,1,8,0:0:0:0:
188,198,5643,1,0,0:0:0:0:
188,198,5996,1,8,0:0:0:0:
188,198,6172,1,0,0:0:0:0:
23,208,6261,1,0,0:0:0:0:
188,198,6349,1,8,0:0:0:0:
235,129,6702,1,8,0:0:0:0:
235,129,6878,1,8,0:0:0:0:
117,219,6967,1,8,0:0:0:0:
235,129,7055,1,0,0:0:0:0:
290,255,7408,5,8,0:0:0:0:
290,255,7584,1,0,0:0:0:0:
200,215,7761,1,8,0:0:0:0:
290,255,8114,1,8,0:0:0:0:
226,200,8290,1,0,0:0:0:0:
226,200,8467,1,8,0:0:0:0:
351,195,8820,5,8,0:0:0:0:
208,300,8996,1,0,0:0:0:0:
216,225,9084,1,0,0:0:0:0:
208,300,9172,1,8,0:0:0:0:
302,286,9525,1,8,0:0:0:0:
302,286,9702,1,8,0:0:0:0:
320,270,9790,1,8,0:0:0:0:
302,286,9878,1,0,0:0:0:0:
188,198,10231,1,8,0:0:0:0:
188,198,10408,1,0,0:0:0:0:
104,203,10496,1,0,0:0:0:0:
188,198,10584,1,8,0:0:0:0:
314,198,10761,1,0,0:0:0:0:
104,203,10849,1,0,0:0:0:0:
188,198,10937,1,8,0:0:0:0:
188,198,11114,1,8,0:0:0:0:
188,232,11202,1,8,0:0:0:0:
188,198,11290,1,0,0:0:0:0:
188,198,11643,1,8,0:0:0:0:
188,198,11820,1,0,0:0:0:0:
202,231,11908,1,0,0:0:0:0:
188,198,11996,1,8,0:0:0:0:
235,129,12349,1,8,0:0:0:0:
235,129,12525,1,8,0:0:0:0:
297,228,12614,1,8,0:0:0:0:
235,129,12702,1,0,0:0:0:0:
290,255,13055,5,8,0:0:0:0:
290,255,13231,1,0,0:0:0:0:
246,282,13320,1,0,0:0:0:0:
200,215,13408,1,8,0:0:0:0:
230,157,13496,1,8,0:0:0:0:
378,146,13584,1,0,0:0:0:0:
290,255,13761,1,8,0:0:0:0:
226,200,13937,1,0,0:0:0:0:
277,114,14025,1,0,0:0:0:0:
226,200,14114,1,8,0:0:0:0:
320,195,14290,1,0,0:0:0:0:
249,191,14467,5,12,0:0:0:0:
262,172,14820,1,12,0:0:0:0:
262,172,14996,1,4,0:0:0:0:
262,172,15349,1,4,0:0:0:0:
262,172,15525,1,12,0:0:0:0:
346,226,17290,1,8,0:0:0:0:
377,189,17643,1,8,0:0:0:0:
377,189,17820,1,0,0:0:0:0:
139,229,18172,1,8,0:0:0:0:
139,229,18349,1,0,0:0:0:0:
139,229,18702,1,8,0:0:0:0:
261,219,18878,1,0,0:0:0:0:
237,242,19055,1,8,0:0:0:0:
237,242,19408,1,8,0:0:0:0:
237,242,19584,1,0,0:0:0:0:
263,229,19761,1,8,0:0:0:0:
346,226,20114,1,12,0:0:0:0:
377,189,20467,1,12,0:0:0:0:
377,189,20643,1,4,0:0:0:0:
139,229,20996,1,4,0:0:0:0:
139,229,21172,1,12,0:0:0:0:
240,211,21525,1,0,0:0:0:0:
240,211,21702,1,0,0:0:0:0:
240,211,21878,1,8,0:0:0:0:
240,211,22055,1,8,0:0:0:0:
240,211,22231,1,0,0:0:0:0:
240,211,22408,1,0,0:0:0:0:
240,211,22584,1,8,0:0:0:0:
240,211,22761,1,8,0:0:0:0:
363,217,22937,1,0,0:0:0:0:
363,217,23025,1,0,0:0:0:0:
363,217,23114,1,8,0:0:0:0:
419,221,23290,1,0,0:0:0:0:
464,184,23467,1,8,0:0:0:0:
310,211,23555,1,8,0:0:0:0:
310,211,23643,1,0,0:0:0:0:
50,149,23820,1,0,0:0:0:0:
385,223,23996,1,8,0:0:0:0:
419,183,24084,1,8,0:0:0:0:
497,125,24172,1,0,0:0:0:0:
347,182,24349,1,8,0:0:0:0:
265,202,24437,1,8,0:0:0:0:
265,202,24525,1,0,0:0:0:0:
265,202,24614,1,0,0:0:0:0:
265,202,24702,1,8,0:0:0:0:
308,175,24790,1,0,0:0:0:0:
308,175,24878,1,0,0:0:0:0:
308,175,24967,1,0,0:0:0:0:
393,181,25055,1,8,0:0:0:0:
393,181,25143,1,8,0:0:0:0:
393,181,25231,1,0,0:0:0:0:
393,181,25320,1,0,0:0:0:0:
393,181,25408,1,8,0:0:0:0:
341,228,25496,1,0,0:0:0:0:
341,228,25584,1,0,0:0:0:0:
341,228,25672,1,0,0:0:0:0:
346,226,25761,1,8,0:0:0:0:
377,189,26114,1,0,0:0:0:0:
377,189,26290,1,8,0:0:0:0:
139,229,26643,1,8,0:0:0:0:
139,229,26820,1,8,0:0:0:0:
294,246,27172,1,12,0:0:0:0:
300,185,27349,1,0,0:0:0:0:
300,185,27437,1,0,0:0:0:0:
294,246,27525,1,12,0:0:0:0:
300,185,27702,1,0,0:0:0:0:
300,185,27790,1,0,0:0:0:0:
294,246,27878,1,12,0:0:0:0:
300,185,28055,1,8,0:0:0:0:
300,185,28143,1,0,0:0:0:0:
294,246,28231,1,12,0:0:0:0:
360,228,28584,1,8,0:0:0:0:
247,269,28819,1,0,0:0:0:0:
247,269,28936,1,8,0:0:0:0:
204,187,29289,1,8,0:0:0:0:
204,187,29525,1,0,0:0:0:0:
204,187,29642,1,8,0:0:0:0:
204,187,29995,1,8,0:0:0:0:
204,187,30231,1,8,0:0:0:0:
337,200,30348,1,0,0:0:0:0:
337,200,30584,1,0,0:0:0:0:
369,202,30701,1,8,0:0:0:0:
369,202,30819,1,0,0:0:0:0:
369,202,30936,1,0,0:0:0:0:
202,175,31054,1,8,0:0:0:0:
401,140,31172,1,8,0:0:0:0:
423,120,31289,1,0,0:0:0:0:
360,228,31407,1,8,0:0:0:0:
247,269,31642,1,0,0:0:0:0:
247,269,31760,1,8,0:0:0:0:
204,187,32113,1,8,0:0:0:0:
204,187,32348,1,0,0:0:0:0:
204,187,32466,1,8,0:0:0:0:
204,187,32819,1,8,0:0:0:0:
204,187,33054,1,8,0:0:0:0:
337,200,33172,1,0,0:0:0:0:
337,200,33407,1,0,0:0:0:0:
369,202,33525,1,8,0:0:0:0:
369,202,33642,1,8,0:0:0:0:
369,202,33760,1,0,0:0:0:0:
202,175,33878,1,8,0:0:0:0:
401,140,33995,1,8,0:0:0:0:
423,120,34113,1,0,0:0:0:0:
360,228,34231,1,8,0:0:0:0:
247,269,34466,1,0,0:0:0:0:
247,269,34584,1,8,0:0:0:0:
204,187,34936,1,8,0:0:0:0:
204,187,35172,1,0,0:0:0:0:
204,187,35289,1,8,0:0:0:0:
204,187,35642,1,8,0:0:0:0:
204,187,35878,1,8,0:0:0:0:
337,200,35995,1,0,0:0:0:0:
337,200,36231,1,0,0:0:0:0:
369,202,36348,1,8,0:0:0:0:
369,202,36466,1,0,0:0:0:0:
369,202,36583,1,0,0:0:0:0:
202,175,36701,1,8,0:0:0:0:
401,140,36819,1,8,0:0:0:0:
423,120,36936,1,0,0:0:0:0:
277,186,37054,1,8,0:0:0:0:
277,186,37172,1,8,0:0:0:0:
379,197,37289,1,0,0:0:0:0:
277,186,37407,1,8,0:0:0:0:
379,197,37525,1,0,0:0:0:0:
379,197,37642,1,0,0:0:0:0:
397,209,37760,1,8,0:0:0:0:
396,208,37878,1,8,0:0:0:0:
381,223,37995,1,0,0:0:0:0:
396,208,38113,1,8,0:0:0:0:
438,198,38231,1,0,0:0:0:0:
438,198,38348,1,0,0:0:0:0:
277,242,38466,5,8,0:0:0:0:
277,242,38554,1,8,0:0:0:0:
277,242,38642,1,8,0:0:0:0:
277,242,38731,1,8,0:0:0:0:
277,242,38819,1,0,0:0:0:0:
277,242,38995,1,8,0:0:0:0:
277,242,39172,1,8,0:0:0:0:
126,201,39348,1,0,0:0:0:0:
287,147,39525,1,8,0:0:0:0:
405,248,39878,1,8,0:0:0:0:
405,248,40054,1,0,0:0:0:0:
405,248,40142,1,0,0:0:0:0:
405,248,40231,1,8,0:0:0:0:
277,223,40407,1,0,0:0:0:0:
405,248,40583,1,8,0:0:0:0:
163,233,40760,1,8,0:0:0:0:
266,258,40848,1,8,0:0:0:0:
277,223,40936,1,0,0:0:0:0:
277,223,41113,1,0,0:0:0:0:
394,256,41289,1,8,0:0:0:0:
417,228,41466,1,0,0:0:0:0:
417,228,41554,1,0,0:0:0:0:
505,210,41642,1,8,0:0:0:0:
505,210,41819,1,0,0:0:0:0:
256,235,41907,1,0,0:0:0:0:
256,235,41995,1,8,0:0:0:0:
308,191,42172,1,8,0:0:0:0:
308,191,42260,1,8,0:0:0:0:
308,191,42348,1,0,0:0:0:0:
277,223,42525,1,0,0:0:0:0:
405,248,42701,1,8,0:0:0:0:
405,248,42878,1,0,0:0:0:0:
405,248,42966,1,0,0:0:0:0:
405,248,43054,1,8,0:0:0:0:
277,223,43231,1,0,0:0:0:0:
405,248,43407,1,8,0:0:0:0:
163,233,43583,1,8,0:0:0:0:
266,258,43672,1,8,0:0:0:0:
277,223,43760,1,0,0:0:0:0:
277,223,43936,1,0,0:0:0:0:
394,256,44113,1,8,0:0:0:0:
417,228,44289,1,8,0:0:0:0:
417,228,44378,1,0,0:0:0:0:
505,210,44466,1,8,0:0:0:0:
505,210,44642,1,0,0:0:0:0:
256,235,44731,1,0,0:0:0:0:
256,235,44819,1,8,0:0:0:0:
308,191,44995,1,8,0:0:0:0:
308,191,45083,1,8,0:0:0:0:
308,191,45172,1,0,0:0:0:0:
277,223,45348,1,8,0:0:0:0:
405,248,45525,1,8,0:0:0:0:
405,248,45701,1,0,0:0:0:0:
405,248,45789,1,0,0:0:0:0:
405,248,45878,1,8,0:0:0:0:
277,223,46054,1,0,0:0:0:0:
405,248,46231,1,8,0:0:0:0:
163,233,46407,1,8,0:0:0:0:
266,258,46495,1,8,0:0:0:0:
277,223,46583,1,0,0:0:0:0:
277,223,46760,1,0,0:0:0:0:
394,256,46936,1,8,0:0:0:0:
417,228,47113,1,0,0:0:0:0:
417,228,47201,1,0,0:0:0:0:
505,210,47289,1,8,0:0:0:0:
505,210,47466,1,0,0:0:0:0:
256,235,47554,1,0,0:0:0:0:
256,235,47642,1,8,0:0:0:0:
308,191,47819,1,8,0:0:0:0:
308,191,47907,1,8,0:0:0:0:
308,191,47995,1,0,0:0:0:0:
277,223,48172,1,0,0:0:0:0:
268,266,48348,1,8,0:0:0:0:
254,200,48525,1,8,0:0:0:0:
268,266,48613,1,0,0:0:0:0:
315,264,48789,1,0,0:0:0:0:
268,266,48878,1,0,0:0:0:0:
359,200,49054,1,8,0:0:0:0:
359,200,49142,1,0,0:0:0:0:
359,200,49319,1,0,0:0:0:0:
344,200,49407,1,8,0:0:0:0:
343,202,49583,1,8,0:0:0:0:
405,201,49760,1,0,0:0:0:0:
424,185,49848,1,0,0:0:0:0:
424,185,49936,1,8,0:0:0:0:
424,185,50025,1,0,0:0:0:0:
405,201,50113,1,8,0:0:0:0:
424,185,50201,1,8,0:0:0:0:
405,201,50289,1,0,0:0:0:0:
155,218,50378,1,0,0:0:0:0:
424,185,50466,1,8,0:0:0:0:
424,185,50554,1,8,0:0:0:0:
378,246,50642,1,0,0:0:0:0:
363,257,50731,1,0,0:0:0:0:
454,211,50819,1,8,0:0:0:0:
134,160,50907,1,0,0:0:0:0:
256,257,50995,1,8,0:0:0:0:
319,295,51172,1,8,0:0:0:0:
475,125,51525,1,0,0:0:0:0:
445,176,51701,1,8,0:0:0:0:
435,40,51878,1,0,0:0:0:0:
149,153,52054,1,8,0:0:0:0:
149,153,52231,1,8,0:0:0:0:
149,153,52583,1,8,0:0:0:0:
149,153,52760,1,8,0:0:0:0:
154,154,52936,1,0,0:0:0:0:
149,153,53113,1,0,0:0:0:0:
279,191,53289,1,8,0:0:0:0:
279,191,53466,1,0,0:0:0:0:
279,191,53642,1,8,0:0:0:0:
319,295,53995,1,8,0:0:0:0:
475,125,54348,1,0,0:0:0:0:
445,176,54525,1,8,0:0:0:0:
413,139,54701,1,0,0:0:0:0:
149,153,54878,1,8,0:0:0:0:
149,153,55054,1,8,0:0:0:0:
149,153,55407,1,8,0:0:0:0:
149,153,55583,1,8,0:0:0:0:
154,154,55760,1,0,0:0:0:0:
149,153,55936,1,8,0:0:0:0:
279,191,56289,1,8,0:0:0:0:
319,295,56819,1,8,0:0:0:0:
475,125,57172,1,0,0:0:0:0:
445,176,57348,1,8,0:0:0:0:
248,213,57525,1,0,0:0:0:0:
149,153,57701,1,8,0:0:0:0:
149,153,57878,1,8,0:0:0:0:
149,153,58231,1,8,0:0:0:0:
149,153,58407,1,8,0:0:0:0:
154,154,58583,1,0,0:0:0:0:
149,153,58760,1,0,0:0:0:0:
279,191,58936,1,8,0:0:0:0:
279,191,59113,1,0,0:0:0:0:
279,191,59289,1,8,0:0:0:0:
337,211,59642,1,8,0:0:0:0:
361,197,59995,1,0,0:0:0:0:
361,197,60172,1,8,0:0:0:0:
232,114,60348,1,0,0:0:0:0:
361,197,60525,1,8,0:0:0:0:
361,197,60701,1,8,0:0:0:0:
446,210,61054,5,8,0:0:0:0:
446,210,61142,1,8,0:0:0:0:
446,210,61231,1,8,0:0:0:0:
446,210,61319,1,8,0:0:0:0:
446,210,61407,1,0,0:0:0:0:
446,210,61583,1,8,0:0:0:0:
446,210,61760,1,8,0:0:0:0:
319,106,61936,1,0,0:0:0:0:
319,106,62113,1,8,0:0:0:0:
445,252,62466,1,4,0:0:0:0:
