osu file format v14

[General]
AudioFilename: audio.mp3
AudioLeadIn: 0
PreviewTime: 39878
Countdown: 0
SampleSet: Normal
StackLeniency: 0.7
Mode: 1
LetterboxInBreaks: 0
WidescreenStoryboard: 1

[Editor]
Bookmarks: 39878
DistanceSpacing: 0.2
BeatDivisor: 4
GridSize: 32
TimelineZoom: 1.4

[Metadata]
Title:Haachama Haachamatchama
TitleUnicode:はあちゃまはあちゃまっちゃま
Artist:REDALiCE
ArtistUnicode:REDALiCE
Creator:Quibby
Version:Futsuu
Source:
Tags:Hololive Vtuber Tsunomaki Watame Virtual Idol Japanese Electronic Novelty 赤井はあと 角巻わため ホロライブ Akai Haato youtuber プロダクション production
BeatmapID:2406633
BeatmapSetID:1152904

[Difficulty]
HPDrainRate:7
CircleSize:5
OverallDifficulty:3
ApproachRate:5
SliderMultiplier:1.4
SliderTickRate:1

[Events]
//Background and Video events
0,0,"AkaiHaatoSafe.jpg",0,0
//Break Periods
//Storyboard Layer 0 (Background)
//Storyboard Layer 1 (Fail)
//Storyboard Layer 2 (Pass)
//Storyboard Layer 3 (Foreground)
//Storyboard Layer 4 (Overlay)
//Storyboard Sound Samples

[TimingPoints]
350,352.941176470588,4,1,0,60,1,0
3173,352.941176470588,4,1,0,65,1,0
25761,-100,4,1,0,60,0,0
28584,352.941176470588,4,1,0,70,1,0
39878,-100,4,1,0,80,0,1
51172,-100,4,1,0,70,0,0

[HitObjects]
249,191,350,5,12,0:0:0:0:
262,172,702,1,12,0:0:0:0:
262,172,879,1,4,0:0:0:0:
262,172,1232,1,4,0:0:0:0:
262,172,1408,1,12,0:0:0:0:
108,267,1761,1,0,0:0:0:0:
230,266,1938,1,0,0:0:0:0:
108,267,2114,1,0,0:0:0:0:
228,168,2467,1,0,0:0:0:0:
429,282,2820,1,8,0:0:0:0:
351,195,3173,5,8,0:0:0:0:
295,208,3525,1,0,0:0:0:0:
302,286,3878,1,8,0:0:0:0:
227,178,4055,1,0,0:0:0:0:
227,178,4231,1,8,0:0:0:0:
188,198,4584,1,0,0:0:0:0:
188,198,4937,1,8,0:0:0:0:
188,198,5290,1,8,0:0:0:0:
188,198,5996,1,8,0:0:0:0:
303,167,6349,1,0,0:0:0:0:
235,129,6702,1,0,0:0:0:0:
400,268,6878,1,0,0:0:0:0:
364,151,7055,1,8,0:0:0:0:
290,255,7408,5,8,0:0:0:0:
200,215,7761,1,8,0:0:0:0:
290,255,8114,1,8,0:0:0:0:
351,195,8820,5,8,0:0:0:0:
425,262,9172,1,0,0:0:0:0:
302,286,9525,1,8,0:0:0:0:
265,151,9702,1,0,0:0:0:0:
265,151,9878,1,8,0:0:0:0:
188,198,10231,1,0,0:0:0:0:
188,198,10584,1,8,0:0:0:0:
188,198,10937,1,8,0:0:0:0:
188,198,11643,1,8,0:0:0:0:
293,237,11996,1,0,0:0:0:0:
235,129,12349,1,0,0:0:0:0:
293,237,12525,1,0,0:0:0:0:
293,237,12702,1,8,0:0:0:0:
290,255,13055,5,8,0:0:0:0:
320,195,13231,1,0,0:0:0:0:
200,215,13408,1,8,0:0:0:0:
290,255,13761,1,0,0:0:0:0:
227,224,13937,1,0,0:0:0:0:
226,200,14114,1,8,0:0:0:0:
249,191,14467,5,12,0:0:0:0:
262,172,14820,1,12,0:0:0:0:
262,172,14996,1,4,0:0:0:0:
262,172,15349,1,4,0:0:0:0:
262,172,15525,1,12,0:0:0:0:
346,226,17290,1,8,0:0:0:0:
377,189,17643,1,8,0:0:0:0:
377,189,17820,1,0,0:0:0:0:
139,229,18172,1,8,0:0:0:0:
139,229,18349,1,0,0:0:0:0:
255,202,18702,1,8,0:0:0:0:
210,167,19408,1,0,0:0:0:0:
346,226,20114,1,12,0:0:0:0:
377,189,20467,1,12,0:0:0:0:
377,189,20643,1,4,0:0:0:0:
139,229,20996,1,4,0:0:0:0:
139,229,21172,1,12,0:0:0:0:
328,166,21525,1,0,0:0:0:0:
328,166,22231,1,0,0:0:0:0:
363,217,22937,1,0,0:0:0:0:
363,217,23114,1,8,0:0:0:0:
464,184,23467,1,8,0:0:0:0:
310,211,23643,1,0,0:0:0:0:
385,223,23996,1,8,0:0:0:0:
49,217,24172,1,0,0:0:0:0:
347,182,24349,1,8,0:0:0:0:
265,202,24702,1,8,0:0:0:0:
183,181,25055,1,0,0:0:0:0:
346,226,25761,1,8,0:0:0:0:
377,189,26114,1,0,0:0:0:0:
377,189,26290,1,8,0:0:0:0:
139,229,26643,1,8,0:0:0:0:
139,229,26820,1,8,0:0:0:0:
294,246,27172,1,4,0:0:0:0:
294,246,27525,1,4,0:0:0:0:
294,246,27878,1,4,0:0:0:0:
294,246,28231,1,4,0:0:0:0:
360,228,28584,1,8,0:0:0:0:
247,269,28936,1,8,0:0:0:0:
204,187,29289,1,0,0:0:0:0:
204,187,29642,1,8,0:0:0:0:
204,187,29995,1,8,0:0:0:0:
337,200,30348,1,0,0:0:0:0:
369,202,30701,1,8,0:0:0:0:
360,228,31407,1,8,0:0:0:0:
247,269,31760,1,0,0:0:0:0:
204,187,32113,1,8,0:0:0:0:
204,187,32466,1,0,0:0:0:0:
204,187,32819,1,8,0:0:0:0:
337,200,33172,1,8,0:0:0:0:
369,202,33525,1,8,0:0:0:0:
360,228,34231,1,8,0:0:0:0:
247,269,34584,1,8,0:0:0:0:
204,187,34936,1,0,0:0:0:0:
204,187,35289,1,8,0:0:0:0:
204,187,35642,1,8,0:0:0:0:
337,200,35995,1,0,0:0:0:0:
369,202,36348,1,8,0:0:0:0:
277,186,37054,1,8,0:0:0:0:
277,186,37407,1,0,0:0:0:0:
397,209,37760,1,8,0:0:0:0:
396,208,38113,1,0,0:0:0:0:
277,242,38466,5,8,0:0:0:0:
277,242,38642,1,8,0:0:0:0:
277,242,38819,1,0,0:0:0:0:
277,242,38995,1,8,0:0:0:0:
277,242,39172,1,8,0:0:0:0:
405,248,39878,1,8,0:0:0:0:
405,248,40054,1,0,0:0:0:0:
270,139,40231,1,0,0:0:0:0:
405,248,40583,1,8,0:0:0:0:
163,233,40760,1,8,0:0:0:0:
277,223,40936,1,8,0:0:0:0:
394,256,41289,1,0,0:0:0:0:
505,210,41642,1,0,0:0:0:0:
256,235,41995,1,8,0:0:0:0:
308,191,42172,1,8,0:0:0:0:
308,191,42348,1,8,0:0:0:0:
405,248,42701,1,8,0:0:0:0:
405,248,42878,1,0,0:0:0:0:
405,248,43054,1,0,0:0:0:0:
405,248,43407,1,8,0:0:0:0:
163,233,43583,1,8,0:0:0:0:
277,223,43760,1,8,0:0:0:0:
394,256,44113,1,8,0:0:0:0:
505,210,44466,1,8,0:0:0:0:
256,235,44819,1,0,0:0:0:0:
405,248,45525,1,8,0:0:0:0:
405,248,45701,1,0,0:0:0:0:
405,248,45878,1,0,0:0:0:0:
405,248,46231,1,8,0:0:0:0:
163,233,46407,1,8,0:0:0:0:
277,223,46583,1,8,0:0:0:0:
394,256,46936,1,0,0:0:0:0:
505,210,47289,1,0,0:0:0:0:
256,235,47642,1,8,0:0:0:0:
308,191,47819,1,8,0:0:0:0:
308,191,47995,1,8,0:0:0:0:
268,266,48348,1,8,0:0:0:0:
57,170,48878,1,0,0:0:0:0:
327,291,49054,1,8,0:0:0:0:
145,248,49407,1,8,0:0:0:0:
405,201,49760,1,0,0:0:0:0:
183,177,49936,1,0,0:0:0:0:
405,201,50113,1,8,0:0:0:0:
205,182,50289,1,8,0:0:0:0:
424,185,50466,1,0,0:0:0:0:
454,211,50819,1,8,0:0:0:0:
319,295,51172,1,8,0:0:0:0:
475,125,51525,1,0,0:0:0:0:
445,176,51701,1,8,0:0:0:0:
149,153,52054,1,8,0:0:0:0:
149,153,52231,1,8,0:0:0:0:
147,246,52583,1,0,0:0:0:0:
147,246,53289,1,0,0:0:0:0:
319,295,53995,1,8,0:0:0:0:
475,125,54348,1,0,0:0:0:0:
445,176,54525,1,8,0:0:0:0:
149,153,54878,1,8,0:0:0:0:
149,153,55054,1,8,0:0:0:0:
354,221,55407,1,0,0:0:0:0:
354,221,55936,1,8,0:0:0:0:
354,221,56289,1,0,0:0:0:0:
319,295,56819,1,8,0:0:0:0:
475,125,57172,1,0,0:0:0:0:
445,176,57348,1,8,0:0:0:0:
149,153,57701,1,0,0:0:0:0:
149,153,57878,1,8,0:0:0:0:
348,115,58231,1,0,0:0:0:0:
149,153,58936,1,0,0:0:0:0:
337,211,59642,1,8,0:0:0:0:
361,197,59995,1,0,0:0:0:0:
361,197,60172,1,8,0:0:0:0:
361,197,60525,1,0,0:0:0:0:
361,197,60701,1,8,0:0:0:0:
446,210,61054,5,8,0:0:0:0:
446,210,61231,1,8,0:0:0:0:
446,210,61407,1,0,0:0:0:0:
446,210,61583,1,8,0:0:0:0:
446,210,61760,1,8,0:0:0:0:
339,248,62113,1,8,0:0:0:0:
445,252,62466,1,4,0:0:0:0:
