osu file format v14

[General]
AudioFilename: audio.mp3
AudioLeadIn: 0
PreviewTime: 126601
Countdown: 0
SampleSet: Normal
StackLeniency: 0.7
Mode: 1
LetterboxInBreaks: 0
WidescreenStoryboard: 0

[Editor]
DistanceSpacing: 0.4
BeatDivisor: 16
GridSize: 16
TimelineZoom: 3.599999

[Metadata]
Title:Great Nano Desu*
TitleUnicode:グレイトなのです☆
Artist:REDALiCE
ArtistUnicode:REDALiCE
Creator:nassrall
Version:Hauauau~!
Source:ひぐらしのなく頃に
Tags:higurashi no naku koro ni kai ~character case book~ Vol.1 volume 1 when they cry japanese video game visual novel vn pop j-pop jpop electronic dance trance techno furude hanyuu 古手羽入 Yui Horie 堀江由衣 Yukari Tamura 田村ゆかり
BeatmapID:4289635
BeatmapSetID:2053574

[Difficulty]
HPDrainRate:5.5
CircleSize:5
OverallDifficulty:6.5
ApproachRate:5
SliderMultiplier:1.4
SliderTickRate:1

[Events]
//Background and Video events
0,0,"9bd24ba7773e3d8f6ba95ae0b6e474e5.jpg",0,80
//Break Periods
//Storyboard Layer 0 (Background)
//Storyboard Layer 1 (Fail)
//Storyboard Layer 2 (Pass)
//Storyboard Layer 3 (Foreground)
//Storyboard Layer 4 (Overlay)
//Storyboard Sound Samples

[TimingPoints]
1064,348.837209302326,4,1,0,60,1,0
1064,-125,4,1,0,60,0,0
23386,-100,4,1,0,75,0,0
44490,-99.0099,4,1,0,75,0,0
44664,-96.42493,4,1,0,75,0,0
44839,-93.95777,4,1,0,75,0,0
45013,-91.62678,4,1,0,75,0,0
45100,-90.50411,4,1,0,75,0,0
45187,-89.40863,4,1,0,75,0,0
45275,-88.32721,4,1,0,75,0,0
45362,-87.28349,4,1,0,75,0,0
45449,-86.26415,4,1,0,75,0,0
45536,-85.26835,4,1,0,75,0,0
45623,-84.295265,4,1,0,75,0,0
45711,-83.333336,4,1,0,75,0,0
45886,-100,4,1,0,75,0,0
55654,-101.010101010101,4,1,0,75,0,0
55828,-102.040816326531,4,1,0,75,0,0
56002,-103.092783505155,4,1,0,75,0,0
56177,-104.166666666667,4,1,0,75,0,0
56526,-105.263157894737,4,1,0,75,0,0
56874,-111.111111111111,4,1,0,75,0,0
61932,-109.89011,4,1,0,75,0,0
62019,-108.11145,4,1,0,75,0,0
62106,-106.389465,4,1,0,75,0,0
62193,-104.721466,4,1,0,75,0,0
62280,-103.10497,4,1,0,75,0,0
62368,-101.51989,4,1,0,75,0,0
62455,-100,4,1,0,75,0,0
72572,-101.010101010101,4,1,0,75,0,0
72747,-102.040816326531,4,1,0,75,0,0
72921,-103.092783505155,4,1,0,75,0,0
73095,-105.263157894737,4,1,0,75,0,0
73270,-106.382978723404,4,1,0,75,0,0
73619,-111.111111111111,4,1,0,75,0,0
79373,-109.89011,4,1,0,75,0,0
79548,-107.597176,4,1,0,75,0,0
79722,-105.410286,4,1,0,75,0,0
79897,-103.29869,4,1,0,75,0,0
80071,-101.281395,4,1,0,75,0,0
80246,-99.33046,4,1,0,75,0,0
80420,-97.463776,4,1,0,75,0,0
80594,-95.66597,4,1,0,75,0,0
80682,-94.78175,4,1,0,75,0,0
80769,-93.92351,4,1,0,75,0,0
80856,-93.080666,4,1,0,75,0,0
80943,-92.25281,4,1,0,75,0,0
81030,-91.43955,4,1,0,75,0,0
81118,-90.63142,4,1,0,75,0,0
81205,-89.846375,4,1,0,75,0,0
81292,-89.074814,4,1,0,75,0,0
81379,-88.31639,4,1,0,75,0,0
81466,-87.57077,4,1,0,75,0,0
81554,-86.82929,4,1,0,75,0,0
81641,-86.10847,4,1,0,75,0,0
81728,-85.39952,4,1,0,75,0,0
81815,-84.70215,4,1,0,75,0,0
81903,-84.00826,4,1,0,75,0,0
81990,-83.333336,4,1,0,90,0,0
82165,-125,4,1,0,60,0,0
93676,-123.45678,4,1,0,61,0,0
93850,-121.19207,4,1,0,62,0,0
94199,-116.89122,4,1,0,63,0,0
94548,-112.885155,4,1,0,64,0,0
94897,-109.14458,4,1,0,65,0,0
95246,-105.64394,4,1,0,66,0,0
95420,-103.981224,4,1,0,67,0,0
95594,-102.37001,4,1,0,68,0,0
95769,-100.79913,4,1,0,69,0,0
95943,-99.284325,4,1,0,70,0,0
96030,-98.54386,4,1,0,71,0,0
96118,-97.80603,4,1,0,72,0,0
96205,-97.08738,4,1,0,73,0,0
96292,-96.3792,4,1,0,74,0,0
96379,-95.6813,4,1,0,75,0,0
96466,-94.9934,4,1,0,76,0,0
96554,-94.30761,4,1,0,77,0,0
96641,-93.63927,4,1,0,78,0,0
96728,-92.98034,4,1,0,79,0,0
96815,-92.33061,4,1,0,80,0,0
96903,-91.68259,4,1,0,80,0,0
96990,-91.050804,4,1,0,80,0,0
97077,-90.42768,4,1,0,80,0,0
97164,-89.81302,4,1,0,80,0,0
97251,-89.20667,4,1,0,80,0,0
97339,-88.60161,4,1,0,80,0,0
97426,-88.01144,4,1,0,80,0,0
97513,-87.42909,4,1,0,80,0,0
97600,-86.85439,4,1,0,80,0,0
97687,-86.28288,4,1,0,80,0,0
97775,-85.90432,4,1,0,80,0,0
97862,-85.5333,4,1,0,80,0,0
97949,-85.16549,4,1,0,80,0,0
98036,-84.80082,4,1,0,80,0,0
98123,-84.439255,4,1,0,80,0,0
98211,-84.076675,4,1,0,80,0,0
98298,-83.72125,4,1,0,80,0,0
98385,-83.36882,4,1,0,80,0,0
98472,-83.01934,4,1,0,80,0,0
98560,-82.66882,4,1,0,80,0,0
98647,-82.32518,4,1,0,80,0,0
98734,-81.98437,4,1,0,75,0,0
99083,-90.90909,4,1,0,50,0,0
99432,-94.121216,4,1,0,50,0,0
99780,-97.5584,4,1,0,50,0,0
100129,-101.26719,4,1,0,50,0,0
100478,-105.26911,4,1,0,50,0,0
100827,-109.600334,4,1,0,50,0,0
101176,-114.303276,4,1,0,50,0,0
101525,-119.4279,4,1,0,50,0,0
101873,-125.0168,4,1,0,50,0,0
102924,-125.0168,4,1,0,50,0,0
103273,-125.0168,4,1,0,51,0,0
103622,-125.0168,4,1,0,52,0,0
103970,-125.0168,4,1,0,53,0,0
104318,-123.37164,4,1,0,54,0,0
104667,-118.61347,4,1,0,55,0,0
105016,-114.2087,4,1,0,56,0,0
105190,-112.132614,4,1,0,57,0,0
105278,-111.11112,4,1,0,58,0,0
105365,-110.119354,4,1,0,59,0,0
105539,-108.18802,4,1,0,60,0,0
105714,-106.312744,4,1,0,61,0,0
105801,-105.40444,4,1,0,62,0,0
105888,-104.51152,4,1,0,63,0,0
106063,-102.760506,4,1,0,64,0,0
106237,-101.07669,4,1,0,65,0,0
106324,-100.25531,4,1,0,66,0,0
106411,-99.44719,4,1,0,67,0,0
106499,-98.6429,4,1,0,68,0,0
106586,-97.86046,4,1,0,69,0,0
106673,-97.090324,4,1,0,70,0,0
106760,-96.332214,4,1,0,71,0,0
106847,-95.585846,4,1,0,72,0,0
106935,-94.84258,4,1,0,73,0,0
107109,-93.40644,4,1,0,75,0,0
107196,-92.70457,4,1,0,76,0,0
107283,-92.01315,4,1,0,77,0,0
107371,-91.32421,4,1,0,78,0,0
107458,-90.65317,4,1,0,79,0,0
107545,-89.991905,4,1,0,80,0,0
107632,-89.34023,4,1,0,80,0,0
107719,-88.697914,4,1,0,80,0,0
107807,-88.05755,4,1,0,80,0,0
107894,-87.433495,4,1,0,80,0,0
107981,-86.81821,4,1,0,80,0,0
108068,-86.211525,4,1,0,80,0,0
108156,-85.60644,4,1,0,81,0,0
108243,-85.01652,4,1,0,80,0,0
108330,-84.43467,4,1,0,80,0,0
108417,-83.860725,4,1,0,80,0,0
108501,-83.320404,4,1,0,80,0,0
108677,-100,4,1,0,80,0,0
109225,-98.0392156862745,4,1,0,80,0,0
109374,-97.0873786407767,4,1,0,80,0,0
109636,-96.1538461538461,4,1,0,80,0,0
109901,-83.3333333333333,4,1,0,90,0,1
130831,-83.3333333333333,4,1,0,90,0,0
131002,-84.745766,4,1,0,90,0,0
131176,-87.72812,4,1,0,90,0,0
131350,-90.90909,4,1,0,90,0,0
131525,-90.09009,4,1,0,90,0,0
131612,-89.0228,4,1,0,90,0,0
131699,-87.98049,4,1,0,90,0,0
131786,-86.96231,4,1,0,90,0,0
131873,-85.96742,4,1,0,90,0,0
132048,-84.033615,4,1,0,90,0,0
132226,-83.3333333333333,4,1,0,90,0,1
147575,-83.333336,4,1,0,90,0,0
147746,-85.11418,4,1,0,90,0,0
147920,-86.96195,4,1,0,90,0,0
148007,-87.91625,4,1,0,90,0,0
148094,-88.89172,4,1,0,90,0,0
148182,-89.90069,4,1,0,90,0,0
148269,-90.92095,4,1,0,90,0,0
148443,-93.03257,4,1,0,90,0,0
148618,-95.25762,4,1,0,90,0,0
148705,-96.40387,4,1,0,90,0,0
148792,-97.57805,4,1,0,90,0,0
148966,-100.01435,4,1,0,75,0,0
170071,-99.0099,4,1,0,75,0,0
170246,-96.41046,4,1,0,75,0,0
170420,-93.95777,4,1,0,75,0,0
170594,-91.62678,4,1,0,75,0,0
170682,-90.49137,4,1,0,75,0,0
170769,-89.396194,4,1,0,75,0,0
170856,-88.32721,4,1,0,75,0,0
170943,-87.28349,4,1,0,75,0,0
171030,-86.26415,4,1,0,75,0,0
171118,-85.25703,4,1,0,75,0,0
171205,-84.2842,4,1,0,75,0,0
171292,-83.333336,4,1,0,75,0,0
171467,-100,4,1,0,75,0,0
181757,-101.0101,4,1,0,75,0,0
181932,-103.36606,4,1,0,75,0,0
182106,-105.820114,4,1,0,75,0,0
182280,-108.39352,4,1,0,75,0,0
182455,-111.11112,4,1,0,75,0,0
187339,-109.89011,4,1,0,75,0,0
187426,-108.550064,4,1,0,75,0,0
187513,-107.24232,4,1,0,75,0,0
187600,-105.9657,4,1,0,75,0,0
187687,-104.71912,4,1,0,75,0,0
187775,-103.4877,4,1,0,75,0,0
187862,-102.29841,4,1,0,75,0,0
187949,-101.13615,4,1,0,75,0,0
188036,-100,4,1,0,75,0,0
198153,-101.0101,4,1,0,75,0,0
198327,-102.56109,4,1,0,75,0,0
198501,-104.16044,4,1,0,75,0,0
198676,-105.820114,4,1,0,75,0,0
198763,-106.66504,4,1,0,75,0,0
198850,-107.523575,4,1,0,75,0,0
199025,-109.293045,4,1,0,75,0,0
199199,-111.11112,4,1,0,75,0,0
204432,-109.89011,4,1,0,75,0,0
204519,-108.9277,4,1,0,75,0,0
204606,-107.981995,4,1,0,75,0,0
204693,-107.05258,4,1,0,75,0,0
204780,-106.13901,4,1,0,75,0,0
204955,-104.347824,4,1,0,75,0,0
205129,-102.62582,4,1,0,75,0,0
205304,-100.9503,4,1,0,75,0,0
205478,-99.337746,4,1,0,75,0,0
205653,-97.76706,4,1,0,75,0,0
205827,-96.25383,4,1,0,75,0,0
206001,-94.786736,4,1,0,75,0,0
206176,-93.35563,4,1,0,75,0,0
206263,-92.66013,4,1,0,75,0,0
206350,-91.97491,4,1,0,75,0,0
206437,-91.29976,4,1,0,75,0,0
206525,-90.626854,4,1,0,75,0,0
206612,-89.97127,4,1,0,75,0,0
206699,-89.32511,4,1,0,75,0,0
206786,-88.68816,4,1,0,75,0,0
206873,-88.06024,4,1,0,75,0,0
206961,-87.434074,4,1,0,75,0,0
207048,-86.823715,4,1,0,75,0,0
207135,-86.22182,4,1,0,75,0,0
207222,-85.62821,4,1,0,75,0,0
207310,-85.03605,4,1,0,75,0,0
207397,-84.4586,4,1,0,75,0,0
207484,-83.88894,4,1,0,75,0,0
207571,-83.32691,4,1,0,75,0,0
207920,-100,4,1,0,75,0,0
208269,-98.654015,4,1,0,75,0,0
208618,-97.34378,4,1,0,75,0,0
208966,-96.07151,4,1,0,75,0,0
209315,-94.828545,4,1,0,75,0,0
209664,-93.61733,4,1,0,75,0,0
210013,-92.436676,4,1,0,75,0,0
210362,-91.28542,4,1,0,75,0,0
210711,-90.16249,4,1,0,75,0,0
211060,-89.06685,4,1,0,75,0,0
211408,-88.00056,4,1,0,75,0,0
211757,-86.95652,4,1,0,75,0,0
212455,-90.09009,4,1,0,75,0,0
212629,-88.305244,4,1,0,75,0,0
212804,-86.580086,4,1,0,75,0,0
212891,-85.747284,4,1,0,75,0,0
212978,-84.93034,4,1,0,75,0,0
213065,-84.12882,4,1,0,75,0,0
213157,-83.333336,4,1,0,90,0,1
228502,-83.333336,4,1,0,90,0,1
228505,-83.333336,4,1,0,90,0,0
228676,-84.033615,4,1,0,90,0,0
228850,-85.10431,4,1,0,90,0,0
229025,-86.20904,4,1,0,90,0,0
229373,-88.493324,4,1,0,90,0,0
229548,-89.68841,4,1,0,90,0,0
229722,-90.90909,4,1,0,90,0,0
229898,-83.3333333333333,4,1,0,90,0,0
229901,-83.3333333333333,4,1,0,90,0,1
246641,-82.64463,4,1,0,90,0,1
246728,-82.37579,4,1,0,90,0,1
246815,-82.108696,4,1,0,90,0,1
246903,-81.840294,4,1,0,90,0,1
246990,-81.57665,4,1,0,90,0,1
247077,-81.31471,4,1,0,90,0,1
247164,-81.05444,4,1,0,90,0,1
247251,-80.79584,4,1,0,90,0,1
247339,-80.535934,4,1,0,90,0,1
247426,-80.280624,4,1,0,90,0,1
247513,-80.02692,4,1,0,90,0,1
247600,-79.77481,4,1,0,90,0,1
247687,-79.5243,4,1,0,90,0,1
247775,-79.2725,4,1,0,90,0,1
247862,-79.025116,4,1,0,90,0,1
247949,-78.77928,4,1,0,90,0,1
248036,-78.534966,4,1,0,90,0,1
248123,-78.29217,4,1,0,90,0,1
248211,-78.04809,4,1,0,90,0,1
248298,-77.80829,4,1,0,90,0,1
248385,-77.56995,4,1,0,90,0,1
248472,-77.33306,4,1,0,90,0,1
248560,-77.094925,4,1,0,90,0,1
248647,-76.86093,4,1,0,90,0,1
248734,-76.62836,4,1,0,90,0,1
248821,-76.39719,4,1,0,90,0,1
248908,-76.1674,4,1,0,90,0,1
248996,-75.93638,4,1,0,90,0,1
249083,-75.70935,4,1,0,90,0,1
249170,-75.48367,4,1,0,90,0,1
249257,-75.259346,4,1,0,90,0,1
249344,-75.03635,4,1,0,90,0,1
249432,-74.812126,4,1,0,90,0,1
249519,-74.59176,4,1,0,90,0,1
249606,-74.372696,4,1,0,90,0,1
249693,-74.15491,4,1,0,90,0,1
249780,-73.9384,4,1,0,90,0,1
249868,-73.72068,4,1,0,90,0,1
249955,-73.50669,4,1,0,90,0,1
250042,-73.29394,4,1,0,90,0,1
250129,-73.08241,4,1,0,90,0,1
250216,-72.872116,4,1,0,90,0,1
250304,-72.66062,4,1,0,90,0,1
250391,-72.452736,4,1,0,90,0,1
250478,-72.24604,4,1,0,90,0,1
250565,-72.04051,4,1,0,90,0,1
250653,-71.83381,4,1,0,90,0,1
250740,-71.630615,4,1,0,90,0,1
250831,-71.42857,4,1,0,90,0,0
251699,-91.74312,4,1,0,60,0,0
251873,-94.33451,4,1,0,60,0,0
252048,-97.09279,4,1,0,60,0,0
252222,-100,4,1,0,75,0,0
273327,-99.0099,4,1,0,75,0,0
273501,-96.42493,4,1,0,75,0,0
273676,-93.95777,4,1,0,75,0,0
273850,-91.62678,4,1,0,75,0,0
273937,-90.50411,4,1,0,75,0,0
274025,-89.396194,4,1,0,75,0,0
274112,-88.32721,4,1,0,75,0,0
274199,-87.28349,4,1,0,75,0,0
274286,-86.26415,4,1,0,75,0,0
274373,-85.26835,4,1,0,75,0,0
274461,-84.2842,4,1,0,75,0,0
274548,-83.333336,4,1,0,75,0,0
274723,-100,4,1,0,75,0,0
285363,-105.263157894737,4,1,0,75,0,0
285712,-111.111111111111,4,1,0,60,0,0
295653,-109.86933,4,1,0,60,0,0
295827,-106.369995,4,1,0,60,0,0
296001,-103.086685,4,1,0,60,0,0
296176,-99.98279,4,1,0,60,0,0
296526,-111.111111111111,4,1,0,50,0,0

[HitObjects]
357,195,1064,5,8,0:0:0:0:
234,186,1412,1,0,0:0:0:0:
366,184,1761,1,8,0:0:0:0:
225,190,2110,1,0,0:0:0:0:
355,183,2459,1,8,0:0:0:0:
249,184,2808,1,0,0:0:0:0:
294,189,3157,1,8,0:0:0:0:
301,190,3505,1,8,0:0:0:0:
235,184,3854,1,0,0:0:0:0:
337,189,4203,1,8,0:0:0:0:
245,202,4552,1,0,0:0:0:0:
330,182,4901,1,8,0:0:0:0:
223,195,5250,1,0,0:0:0:0:
320,198,5424,1,8,0:0:0:0:
243,200,5598,1,0,0:0:0:0:
320,198,5773,1,8,0:0:0:0:
259,192,5947,1,0,0:0:0:0:
368,171,6296,1,8,0:0:0:0:
243,154,6645,1,0,0:0:0:0:
361,177,6994,1,8,0:0:0:0:
265,186,7343,1,0,0:0:0:0:
342,195,7691,1,8,0:0:0:0:
223,197,8040,1,0,0:0:0:0:
357,189,8389,1,8,0:0:0:0:
281,189,8738,1,0,0:0:0:0:
254,191,9087,1,0,0:0:0:0:
370,191,9436,1,8,0:0:0:0:
281,210,9784,1,0,0:0:0:0:
332,200,10133,1,8,0:0:0:0:
247,203,10482,1,0,0:0:0:0:
319,194,10831,1,8,0:0:0:0:
263,197,11005,1,0,0:0:0:0:
305,204,11180,1,8,0:0:0:0:
328,207,11354,1,8,0:0:0:0:
255,189,11529,1,0,0:0:0:0:
339,186,11877,1,8,0:0:0:0:
255,189,12226,1,0,0:0:0:0:
303,202,12575,1,8,0:0:0:0:
240,197,12924,1,0,0:0:0:0:
303,202,13273,1,8,0:0:0:0:
255,196,13622,1,0,0:0:0:0:
291,200,13970,1,8,0:0:0:0:
263,208,14319,1,0,0:0:0:0:
263,208,14668,1,0,0:0:0:0:
357,203,15017,1,8,0:0:0:0:
250,190,15366,1,0,0:0:0:0:
332,189,15715,1,8,0:0:0:0:
272,182,16064,1,0,0:0:0:0:
343,184,16412,1,8,0:0:0:0:
321,198,16587,1,8,0:0:0:0:
270,199,16761,1,0,0:0:0:0:
216,186,16936,1,0,0:0:0:0:
279,193,17110,1,8,0:0:0:0:
301,192,17459,1,8,0:0:0:0:
274,196,17808,1,0,0:0:0:0:
352,179,18157,1,8,0:0:0:0:
274,186,18505,1,0,0:0:0:0:
352,193,18854,1,8,0:0:0:0:
242,200,19203,1,0,0:0:0:0:
331,197,19552,1,8,0:0:0:0:
260,190,19901,1,0,0:0:0:0:
260,190,20250,1,0,0:0:0:0:
368,194,20598,1,8,0:0:0:0:
306,182,20947,1,0,0:0:0:0:
368,194,21296,1,8,0:0:0:0:
273,191,21645,1,0,0:0:0:0:
381,180,21994,1,12,0:0:0:0:
372,186,23389,1,8,0:0:0:0:
372,186,23476,1,8,0:0:0:0:
241,186,23564,1,0,0:0:0:0:
228,211,23651,1,0,0:0:0:0:
293,191,23738,1,8,0:0:0:0:
287,193,23825,1,8,0:0:0:0:
218,176,23912,1,0,0:0:0:0:
254,184,24087,1,0,0:0:0:0:
316,200,24261,1,8,0:0:0:0:
316,200,24348,1,8,0:0:0:0:
283,189,24436,1,0,0:0:0:0:
281,194,24523,1,0,0:0:0:0:
334,181,24610,1,8,0:0:0:0:
254,191,24784,1,0,0:0:0:0:
322,184,24959,1,8,0:0:0:0:
321,184,25046,1,8,0:0:0:0:
232,184,25133,1,0,0:0:0:0:
245,209,25220,1,0,0:0:0:0:
321,184,25308,1,8,0:0:0:0:
248,195,25482,1,0,0:0:0:0:
239,198,25569,1,0,0:0:0:0:
303,194,25657,1,8,0:0:0:0:
248,195,25831,1,0,0:0:0:0:
247,195,25918,1,0,0:0:0:0:
297,180,26005,1,8,0:0:0:0:
288,184,26180,1,0,0:0:0:0:
288,184,26267,1,0,0:0:0:0:
288,184,26354,1,0,0:0:0:0:
321,196,26529,1,8,0:0:0:0:
321,196,26616,1,8,0:0:0:0:
219,195,26703,1,0,0:0:0:0:
219,195,26790,1,0,0:0:0:0:
314,180,26877,1,8,0:0:0:0:
198,204,27052,1,0,0:0:0:0:
198,205,27139,1,0,0:0:0:0:
250,195,27226,1,8,0:0:0:0:
250,195,27314,1,8,0:0:0:0:
215,190,27401,1,0,0:0:0:0:
214,190,27488,1,0,0:0:0:0:
294,184,27575,1,8,0:0:0:0:
310,196,27750,1,8,0:0:0:0:
234,201,27924,1,0,0:0:0:0:
308,188,28098,1,8,0:0:0:0:
307,188,28273,1,8,0:0:0:0:
264,186,28622,1,0,0:0:0:0:
353,190,28970,1,8,0:0:0:0:
335,186,29058,1,8,0:0:0:0:
279,181,29145,1,0,0:0:0:0:
261,196,29232,1,0,0:0:0:0:
324,202,29319,1,8,0:0:0:0:
298,198,29407,1,8,0:0:0:0:
234,206,29494,1,0,0:0:0:0:
317,186,29668,1,8,0:0:0:0:
247,211,29843,1,0,0:0:0:0:
246,212,29930,1,0,0:0:0:0:
324,202,30017,1,8,0:0:0:0:
324,202,30104,1,8,0:0:0:0:
269,182,30191,1,0,0:0:0:0:
336,213,30366,1,8,0:0:0:0:
258,199,30540,1,0,0:0:0:0:
266,204,30627,1,0,0:0:0:0:
354,191,30715,1,8,0:0:0:0:
286,200,30802,1,8,0:0:0:0:
255,189,30889,1,0,0:0:0:0:
311,208,31064,1,8,0:0:0:0:
311,208,31151,1,8,0:0:0:0:
235,202,31238,1,0,0:0:0:0:
325,197,31412,1,8,0:0:0:0:
324,197,31500,1,8,0:0:0:0:
272,180,31587,1,0,0:0:0:0:
303,202,31761,1,8,0:0:0:0:
303,202,31848,1,8,0:0:0:0:
305,191,31936,1,8,0:0:0:0:
249,198,32110,1,0,0:0:0:0:
249,198,32197,1,0,0:0:0:0:
344,185,32284,1,8,0:0:0:0:
344,185,32372,1,8,0:0:0:0:
256,182,32459,1,0,0:0:0:0:
290,207,32633,1,8,0:0:0:0:
290,207,32720,1,8,0:0:0:0:
232,199,32808,1,0,0:0:0:0:
231,200,32895,1,0,0:0:0:0:
302,199,32982,1,8,0:0:0:0:
301,199,33069,1,8,0:0:0:0:
206,189,33157,1,0,0:0:0:0:
321,208,33331,1,8,0:0:0:0:
241,216,33505,1,0,0:0:0:0:
293,197,33680,1,8,0:0:0:0:
208,202,33854,1,0,0:0:0:0:
338,190,34203,1,8,0:0:0:0:
372,186,34552,1,8,0:0:0:0:
372,186,34639,1,8,0:0:0:0:
241,186,34726,1,0,0:0:0:0:
245,174,34814,1,0,0:0:0:0:
326,186,34901,1,8,0:0:0:0:
316,188,34988,1,8,0:0:0:0:
241,186,35075,1,0,0:0:0:0:
236,189,35250,1,0,0:0:0:0:
316,200,35424,1,8,0:0:0:0:
316,200,35511,1,8,0:0:0:0:
283,189,35598,1,0,0:0:0:0:
281,194,35686,1,0,0:0:0:0:
334,181,35773,1,8,0:0:0:0:
254,191,35947,1,0,0:0:0:0:
322,184,36122,1,8,0:0:0:0:
321,184,36209,1,8,0:0:0:0:
232,184,36296,1,0,0:0:0:0:
263,200,36383,1,0,0:0:0:0:
321,184,36470,1,8,0:0:0:0:
248,195,36645,1,0,0:0:0:0:
239,198,36732,1,0,0:0:0:0:
303,194,36819,1,8,0:0:0:0:
248,195,36994,1,0,0:0:0:0:
247,195,37081,1,0,0:0:0:0:
297,180,37168,1,8,0:0:0:0:
288,184,37343,1,0,0:0:0:0:
288,184,37430,1,0,0:0:0:0:
288,184,37517,1,0,0:0:0:0:
321,196,37691,1,8,0:0:0:0:
321,196,37779,1,8,0:0:0:0:
219,195,37866,1,0,0:0:0:0:
219,195,37953,1,0,0:0:0:0:
314,180,38040,1,8,0:0:0:0:
198,204,38215,1,0,0:0:0:0:
198,205,38302,1,0,0:0:0:0:
250,195,38389,1,8,0:0:0:0:
250,195,38476,1,8,0:0:0:0:
215,190,38564,1,0,0:0:0:0:
214,190,38651,1,0,0:0:0:0:
294,184,38738,1,8,0:0:0:0:
229,193,38912,1,0,0:0:0:0:
229,193,39087,1,0,0:0:0:0:
305,199,39261,1,8,0:0:0:0:
247,198,39436,1,0,0:0:0:0:
360,186,39784,1,8,0:0:0:0:
353,190,40133,1,8,0:0:0:0:
335,186,40220,1,8,0:0:0:0:
279,181,40308,1,0,0:0:0:0:
266,198,40395,1,0,0:0:0:0:
324,202,40482,1,8,0:0:0:0:
297,186,40569,1,8,0:0:0:0:
234,206,40657,1,0,0:0:0:0:
317,186,40831,1,8,0:0:0:0:
247,211,41005,1,0,0:0:0:0:
246,212,41093,1,0,0:0:0:0:
324,202,41180,1,8,0:0:0:0:
324,202,41267,1,8,0:0:0:0:
269,182,41354,1,0,0:0:0:0:
336,213,41529,1,8,0:0:0:0:
258,199,41703,1,0,0:0:0:0:
266,204,41790,1,0,0:0:0:0:
354,191,41877,1,8,0:0:0:0:
319,196,41965,1,8,0:0:0:0:
269,187,42052,1,0,0:0:0:0:
311,208,42226,1,8,0:0:0:0:
311,208,42314,1,8,0:0:0:0:
235,202,42401,1,0,0:0:0:0:
325,197,42575,1,8,0:0:0:0:
324,197,42662,1,8,0:0:0:0:
272,180,42750,1,0,0:0:0:0:
303,202,42924,1,8,0:0:0:0:
303,202,43011,1,8,0:0:0:0:
305,191,43098,1,8,0:0:0:0:
249,198,43273,1,0,0:0:0:0:
249,198,43360,1,0,0:0:0:0:
344,185,43447,1,8,0:0:0:0:
344,185,43534,1,8,0:0:0:0:
256,182,43622,1,0,0:0:0:0:
290,207,43796,1,8,0:0:0:0:
290,207,43883,1,8,0:0:0:0:
232,199,43970,1,0,0:0:0:0:
231,200,44058,1,0,0:0:0:0:
302,199,44145,1,8,0:0:0:0:
301,199,44232,1,8,0:0:0:0:
206,189,44319,1,4,0:0:0:0:
315,206,44494,1,8,0:0:0:0:
252,195,44668,1,0,0:0:0:0:
293,191,44843,1,8,0:0:0:0:
266,196,45017,1,0,0:0:0:0:
292,193,45104,1,8,0:0:0:0:
261,191,45191,1,0,0:0:0:0:
252,195,45279,1,0,0:0:0:0:
272,201,45366,1,8,0:0:0:0:
232,200,45453,1,0,0:0:0:0:
321,186,45540,1,8,0:0:0:0:
248,182,45627,1,0,0:0:0:0:
383,178,45715,1,12,0:0:0:0:
277,211,45889,1,0,0:0:0:0:
355,176,46064,1,8,0:0:0:0:
344,203,46151,1,8,0:0:0:0:
344,203,46238,1,8,0:0:0:0:
268,198,46412,1,0,0:0:0:0:
319,202,46761,1,8,0:0:0:0:
277,198,46936,1,0,0:0:0:0:
316,194,47110,1,8,0:0:0:0:
316,194,47197,1,8,0:0:0:0:
337,178,47284,1,0,0:0:0:0:
356,202,47459,1,8,0:0:0:0:
277,198,47633,1,0,0:0:0:0:
295,191,47982,1,0,0:0:0:0:
345,197,48157,1,8,0:0:0:0:
217,203,48331,1,0,0:0:0:0:
359,198,48505,1,8,0:0:0:0:
345,186,48593,1,8,0:0:0:0:
283,190,48680,1,0,0:0:0:0:
281,191,48767,1,0,0:0:0:0:
339,171,48854,1,8,0:0:0:0:
276,181,49029,1,0,0:0:0:0:
290,214,49203,1,8,0:0:0:0:
225,186,49290,1,0,0:0:0:0:
296,194,49377,1,8,0:0:0:0:
296,194,49465,1,8,0:0:0:0:
249,189,49552,1,0,0:0:0:0:
290,214,49639,1,0,0:0:0:0:
325,198,49726,1,8,0:0:0:0:
283,189,49814,1,0,0:0:0:0:
322,182,49901,1,8,0:0:0:0:
250,198,50075,1,0,0:0:0:0:
250,198,50250,1,0,0:0:0:0:
351,211,50424,1,8,0:0:0:0:
268,202,50598,1,0,0:0:0:0:
314,206,50773,1,8,0:0:0:0:
334,193,51122,1,8,0:0:0:0:
268,202,51296,1,4,0:0:0:0:
257,220,51470,1,0,0:0:0:0:
341,209,51645,1,8,0:0:0:0:
257,210,51732,1,0,0:0:0:0:
334,193,51819,1,8,0:0:0:0:
307,184,51907,1,8,0:0:0:0:
255,187,51994,1,0,0:0:0:0:
335,211,52343,1,8,0:0:0:0:
273,185,52517,1,0,0:0:0:0:
345,202,52691,1,8,0:0:0:0:
344,202,52779,1,8,0:0:0:0:
344,202,52866,1,8,0:0:0:0:
264,191,53040,1,0,0:0:0:0:
308,192,53215,1,8,0:0:0:0:
240,208,53564,1,0,0:0:0:0:
365,204,53738,1,8,0:0:0:0:
250,202,53912,1,0,0:0:0:0:
358,211,54087,1,8,0:0:0:0:
384,202,54174,1,8,0:0:0:0:
249,205,54261,1,0,0:0:0:0:
322,201,54436,1,8,0:0:0:0:
322,201,54523,1,8,0:0:0:0:
322,201,54610,1,8,0:0:0:0:
274,206,54784,1,0,0:0:0:0:
272,206,54959,1,0,0:0:0:0:
333,209,55133,1,8,0:0:0:0:
266,198,55308,1,0,0:0:0:0:
303,207,55657,1,8,0:0:0:0:
221,213,55831,1,0,0:0:0:0:
336,222,56005,1,8,0:0:0:0:
292,185,56180,1,0,0:0:0:0:
283,189,56529,1,0,0:0:0:0:
363,198,56877,1,8,0:0:0:0:
341,209,57052,1,8,0:0:0:0:
282,196,57139,1,0,0:0:0:0:
318,206,57226,1,8,0:0:0:0:
318,206,57314,1,8,0:0:0:0:
243,197,57401,1,0,0:0:0:0:
243,197,57488,1,0,0:0:0:0:
292,203,57575,1,8,0:0:0:0:
248,231,57750,1,0,0:0:0:0:
308,206,57924,1,8,0:0:0:0:
308,206,58011,1,8,0:0:0:0:
250,201,58098,1,0,0:0:0:0:
276,205,58186,1,0,0:0:0:0:
310,206,58273,1,8,0:0:0:0:
264,204,58360,1,0,0:0:0:0:
314,193,58447,1,8,0:0:0:0:
350,191,58534,1,8,0:0:0:0:
251,195,58622,1,0,0:0:0:0:
212,204,58709,1,0,0:0:0:0:
308,193,58796,1,8,0:0:0:0:
217,202,58883,1,0,0:0:0:0:
283,182,58970,1,8,0:0:0:0:
226,199,59145,1,0,0:0:0:0:
308,206,59319,1,8,0:0:0:0:
310,196,59494,1,8,0:0:0:0:
286,214,59668,1,0,0:0:0:0:
330,235,59755,1,8,0:0:0:0:
250,215,59843,1,0,0:0:0:0:
311,200,60017,1,8,0:0:0:0:
258,209,60104,1,0,0:0:0:0:
281,204,60279,1,0,0:0:0:0:
333,180,60366,1,8,0:0:0:0:
187,192,60540,1,0,0:0:0:0:
317,208,60627,1,8,0:0:0:0:
321,205,60715,1,8,0:0:0:0:
235,191,60802,1,0,0:0:0:0:
307,212,60889,1,8,0:0:0:0:
298,193,61064,1,8,0:0:0:0:
199,193,61151,1,0,0:0:0:0:
199,193,61238,1,0,0:0:0:0:
290,196,61325,1,8,0:0:0:0:
227,208,61412,1,0,0:0:0:0:
224,209,61500,1,0,0:0:0:0:
271,212,61587,1,8,0:0:0:0:
198,202,61674,1,0,0:0:0:0:
306,184,61761,1,8,0:0:0:0:
263,207,61936,1,0,0:0:0:0:
263,207,62023,1,0,0:0:0:0:
263,207,62110,1,0,0:0:0:0:
263,207,62197,1,0,0:0:0:0:
263,207,62284,1,0,0:0:0:0:
263,207,62372,1,0,0:0:0:0:
321,205,62459,1,12,0:0:0:0:
262,193,62633,1,0,0:0:0:0:
310,197,62808,1,8,0:0:0:0:
330,224,62895,1,8,0:0:0:0:
309,233,62982,1,8,0:0:0:0:
283,201,63157,1,0,0:0:0:0:
270,206,63505,1,0,0:0:0:0:
318,197,63680,1,8,0:0:0:0:
283,201,63854,1,0,0:0:0:0:
281,206,63941,1,0,0:0:0:0:
312,192,64029,1,8,0:0:0:0:
337,203,64203,1,8,0:0:0:0:
274,198,64377,1,0,0:0:0:0:
268,206,64726,1,0,0:0:0:0:
306,208,64901,1,8,0:0:0:0:
274,198,65075,1,0,0:0:0:0:
326,201,65250,1,8,0:0:0:0:
323,202,65337,1,8,0:0:0:0:
223,193,65424,1,0,0:0:0:0:
261,197,65511,1,0,0:0:0:0:
306,202,65598,1,8,0:0:0:0:
305,202,65686,1,8,0:0:0:0:
248,189,65773,1,0,0:0:0:0:
348,189,65947,1,8,0:0:0:0:
312,199,66122,1,8,0:0:0:0:
306,178,66209,1,8,0:0:0:0:
229,213,66296,1,0,0:0:0:0:
272,234,66470,1,0,0:0:0:0:
213,193,66558,1,0,0:0:0:0:
326,197,66645,1,8,0:0:0:0:
245,197,66819,1,0,0:0:0:0:
288,200,66994,1,8,0:0:0:0:
231,193,67168,1,0,0:0:0:0:
359,190,67343,1,8,0:0:0:0:
247,203,67517,1,0,0:0:0:0:
210,192,67604,1,0,0:0:0:0:
247,203,67691,1,0,0:0:0:0:
359,190,67866,1,8,0:0:0:0:
303,178,67953,1,8,0:0:0:0:
223,205,68040,1,4,0:0:0:0:
301,204,68215,1,8,0:0:0:0:
301,204,68389,1,8,0:0:0:0:
311,206,68476,1,8,0:0:0:0:
250,197,68564,1,0,0:0:0:0:
323,195,68738,1,8,0:0:0:0:
337,177,68912,1,8,0:0:0:0:
259,203,69087,1,0,0:0:0:0:
306,189,69261,1,8,0:0:0:0:
268,227,69436,1,0,0:0:0:0:
268,226,69523,1,0,0:0:0:0:
268,226,69610,1,0,0:0:0:0:
265,204,69784,1,0,0:0:0:0:
313,209,69959,1,8,0:0:0:0:
287,220,70308,1,0,0:0:0:0:
255,194,70657,1,0,0:0:0:0:
376,205,70831,1,8,0:0:0:0:
299,202,71005,1,0,0:0:0:0:
336,193,71093,1,8,0:0:0:0:
285,200,71180,1,0,0:0:0:0:
330,191,71354,1,8,0:0:0:0:
354,208,71529,1,8,0:0:0:0:
279,201,71616,1,0,0:0:0:0:
348,197,71703,1,8,0:0:0:0:
257,202,71790,1,0,0:0:0:0:
308,207,71877,1,8,0:0:0:0:
304,208,71965,1,8,0:0:0:0:
265,189,72052,1,0,0:0:0:0:
308,207,72401,1,8,0:0:0:0:
228,198,72575,1,0,0:0:0:0:
303,200,72750,1,8,0:0:0:0:
291,192,72924,1,0,0:0:0:0:
255,209,73098,1,0,0:0:0:0:
336,187,73273,1,8,0:0:0:0:
337,202,73622,1,8,0:0:0:0:
255,193,73709,1,0,0:0:0:0:
290,189,73796,1,8,0:0:0:0:
330,209,73883,1,8,0:0:0:0:
255,193,73970,1,0,0:0:0:0:
261,187,74058,1,0,0:0:0:0:
323,193,74145,1,8,0:0:0:0:
257,211,74232,1,0,0:0:0:0:
334,186,74319,1,8,0:0:0:0:
327,165,74494,1,8,0:0:0:0:
264,196,74668,1,0,0:0:0:0:
263,206,74755,1,0,0:0:0:0:
286,210,74843,1,8,0:0:0:0:
290,198,74930,1,8,0:0:0:0:
227,194,75017,1,0,0:0:0:0:
204,211,75104,1,0,0:0:0:0:
296,198,75191,1,8,0:0:0:0:
235,197,75279,1,0,0:0:0:0:
286,195,75366,1,8,0:0:0:0:
300,204,75453,1,8,0:0:0:0:
232,193,75540,1,0,0:0:0:0:
211,197,75627,1,0,0:0:0:0:
305,184,75715,1,8,0:0:0:0:
223,195,75889,1,0,0:0:0:0:
304,200,76064,1,8,0:0:0:0:
210,191,76238,1,0,0:0:0:0:
328,203,76412,1,8,0:0:0:0:
243,202,76500,1,0,0:0:0:0:
314,181,76674,1,8,0:0:0:0:
265,191,76761,1,0,0:0:0:0:
255,194,76848,1,0,0:0:0:0:
323,190,76936,1,8,0:0:0:0:
352,199,77110,1,8,0:0:0:0:
343,202,77197,1,8,0:0:0:0:
341,202,77284,1,8,0:0:0:0:
278,203,77459,1,0,0:0:0:0:
319,201,77633,1,8,0:0:0:0:
334,220,77808,1,8,0:0:0:0:
281,208,77895,1,0,0:0:0:0:
279,208,77982,1,0,0:0:0:0:
268,206,78069,1,8,0:0:0:0:
215,200,78157,1,0,0:0:0:0:
210,203,78244,1,0,0:0:0:0:
314,196,78331,1,8,0:0:0:0:
188,203,78418,1,0,0:0:0:0:
290,183,78505,1,8,0:0:0:0:
308,231,78593,1,8,0:0:0:0:
255,217,78680,1,0,0:0:0:0:
292,194,78854,1,8,0:0:0:0:
297,195,78941,1,8,0:0:0:0:
217,209,79029,1,0,0:0:0:0:
217,209,79116,1,0,0:0:0:0:
303,206,79203,1,12,0:0:0:0:
252,208,79377,1,0,0:0:0:0:
332,210,79552,1,8,0:0:0:0:
242,208,79726,1,0,0:0:0:0:
306,193,79901,1,8,0:0:0:0:
263,202,80075,1,0,0:0:0:0:
290,205,80250,1,8,0:0:0:0:
240,188,80424,1,0,0:0:0:0:
279,212,80598,1,8,0:0:0:0:
246,200,80686,1,0,0:0:0:0:
245,201,80773,1,0,0:0:0:0:
293,204,80860,1,8,0:0:0:0:
246,206,80947,1,0,0:0:0:0:
235,207,81034,1,0,0:0:0:0:
274,189,81122,1,8,0:0:0:0:
252,213,81209,1,0,0:0:0:0:
285,201,81296,1,8,0:0:0:0:
281,202,81383,1,8,0:0:0:0:
219,204,81470,1,0,0:0:0:0:
215,204,81558,1,0,0:0:0:0:
323,179,81645,1,8,0:0:0:0:
270,224,81732,1,0,0:0:0:0:
326,209,81819,1,8,0:0:0:0:
234,200,81907,1,0,0:0:0:0:
300,208,81994,1,12,0:0:0:0:
241,231,82343,1,0,0:0:0:0:
245,205,82517,1,0,0:0:0:0:
341,209,82691,1,8,0:0:0:0:
243,208,82866,1,0,0:0:0:0:
370,185,83215,1,8,0:0:0:0:
248,188,83389,1,0,0:0:0:0:
326,202,83564,1,8,0:0:0:0:
326,202,83738,1,8,0:0:0:0:
284,178,83912,1,0,0:0:0:0:
292,215,84261,1,8,0:0:0:0:
272,176,84436,1,0,0:0:0:0:
336,196,84784,1,8,0:0:0:0:
335,231,85133,1,8,0:0:0:0:
248,198,85308,1,0,0:0:0:0:
305,195,85482,1,8,0:0:0:0:
257,217,85831,1,0,0:0:0:0:
257,217,86005,1,0,0:0:0:0:
346,191,86180,1,8,0:0:0:0:
245,190,86354,1,0,0:0:0:0:
339,186,86529,1,8,0:0:0:0:
330,189,86703,1,8,0:0:0:0:
276,193,87226,1,0,0:0:0:0:
377,195,87575,1,8,0:0:0:0:
305,198,87924,1,0,0:0:0:0:
339,194,88098,1,8,0:0:0:0:
339,194,88273,1,8,0:0:0:0:
260,206,88447,1,0,0:0:0:0:
334,188,88622,1,8,0:0:0:0:
283,195,88796,1,0,0:0:0:0:
328,206,88970,1,8,0:0:0:0:
325,206,89145,1,8,0:0:0:0:
308,226,89319,1,0,0:0:0:0:
336,206,89494,1,8,0:0:0:0:
360,208,89843,1,8,0:0:0:0:
248,195,90017,1,0,0:0:0:0:
321,184,90366,1,8,0:0:0:0:
256,200,90540,1,0,0:0:0:0:
327,194,90715,1,8,0:0:0:0:
309,205,90889,1,8,0:0:0:0:
274,199,91064,1,0,0:0:0:0:
268,220,91238,1,0,0:0:0:0:
336,197,91412,1,8,0:0:0:0:
309,205,91587,1,8,0:0:0:0:
278,195,91761,1,0,0:0:0:0:
309,205,91936,1,8,0:0:0:0:
257,206,92110,1,0,0:0:0:0:
368,191,92284,1,8,0:0:0:0:
281,212,92633,1,0,0:0:0:0:
316,220,92808,1,8,0:0:0:0:
286,206,92982,1,0,0:0:0:0:
368,193,93157,1,8,0:0:0:0:
329,204,93680,1,8,0:0:0:0:
234,194,93854,1,0,0:0:0:0:
383,202,94203,1,8,0:0:0:0:
282,206,94552,1,0,0:0:0:0:
366,182,94901,1,8,0:0:0:0:
276,189,95250,1,0,0:0:0:0:
301,198,95424,1,8,0:0:0:0:
276,189,95598,1,0,0:0:0:0:
238,193,95773,1,0,0:0:0:0:
353,171,95947,1,8,0:0:0:0:
334,197,96034,1,8,0:0:0:0:
301,198,96122,1,8,0:0:0:0:
294,200,96209,1,8,0:0:0:0:
255,183,96296,1,0,0:0:0:0:
251,187,96383,1,0,0:0:0:0:
342,176,96470,1,8,0:0:0:0:
249,188,96558,1,0,0:0:0:0:
322,192,96645,1,8,0:0:0:0:
247,175,96732,1,0,0:0:0:0:
283,183,96819,1,0,0:0:0:0:
271,184,96907,1,0,0:0:0:0:
328,198,96994,1,8,0:0:0:0:
322,192,97081,1,8,0:0:0:0:
274,198,97168,1,0,0:0:0:0:
265,200,97255,1,0,0:0:0:0:
288,189,97343,1,8,0:0:0:0:
255,211,97430,1,0,0:0:0:0:
328,198,97517,1,8,0:0:0:0:
321,200,97604,1,8,0:0:0:0:
246,195,97691,1,0,0:0:0:0:
245,196,97779,1,0,0:0:0:0:
294,187,97866,1,8,0:0:0:0:
291,188,97953,1,8,0:0:0:0:
252,189,98040,1,0,0:0:0:0:
252,189,98127,1,0,0:0:0:0:
331,209,98215,1,8,0:0:0:0:
246,195,98302,1,0,0:0:0:0:
294,201,98389,1,8,0:0:0:0:
223,199,98476,1,0,0:0:0:0:
317,202,98564,1,8,0:0:0:0:
317,202,98651,1,8,0:0:0:0:
254,197,98738,1,4,0:0:0:0:
352,192,99087,1,8,0:0:0:0:
269,192,99436,1,0,0:0:0:0:
324,198,99784,1,8,0:0:0:0:
255,199,100133,1,0,0:0:0:0:
352,200,100482,1,8,0:0:0:0:
256,220,100831,1,0,0:0:0:0:
256,220,101180,1,0,0:0:0:0:
332,212,101529,1,8,0:0:0:0:
268,209,101877,1,0,0:0:0:0:
313,210,102226,1,8,0:0:0:0:
263,198,102401,1,0,0:0:0:0:
304,204,102575,1,8,0:0:0:0:
263,198,102750,1,0,0:0:0:0:
307,208,102924,1,8,0:0:0:0:
221,208,103273,1,0,0:0:0:0:
332,215,103622,1,8,0:0:0:0:
255,204,103970,1,0,0:0:0:0:
313,191,104319,1,8,0:0:0:0:
285,202,104668,1,0,0:0:0:0:
287,191,105017,1,8,0:0:0:0:
278,199,105191,1,0,0:0:0:0:
242,195,105279,1,0,0:0:0:0:
308,210,105366,1,8,0:0:0:0:
209,191,105540,1,0,0:0:0:0:
339,199,105715,1,8,0:0:0:0:
292,205,105802,1,8,0:0:0:0:
178,195,105889,1,0,0:0:0:0:
331,196,106064,1,8,0:0:0:0:
260,197,106238,1,0,0:0:0:0:
223,209,106325,1,0,0:0:0:0:
363,180,106412,1,8,0:0:0:0:
223,203,106500,1,0,0:0:0:0:
250,185,106587,1,0,0:0:0:0:
228,189,106674,1,0,0:0:0:0:
331,196,106761,1,8,0:0:0:0:
259,204,106848,1,0,0:0:0:0:
303,195,106936,1,8,0:0:0:0:
271,209,107110,1,0,0:0:0:0:
271,209,107197,1,0,0:0:0:0:
342,217,107284,1,8,0:0:0:0:
264,171,107372,1,8,0:0:0:0:
211,211,107459,1,0,0:0:0:0:
211,211,107546,1,0,0:0:0:0:
326,209,107633,1,8,0:0:0:0:
326,209,107720,1,8,0:0:0:0:
326,209,107808,1,8,0:0:0:0:
326,209,107895,1,8,0:0:0:0:
234,204,107982,1,0,0:0:0:0:
233,204,108069,1,0,0:0:0:0:
270,201,108157,1,8,0:0:0:0:
308,210,108244,1,8,0:0:0:0:
215,198,108331,1,0,0:0:0:0:
259,200,108418,1,0,0:0:0:0:
317,195,108505,1,12,0:0:0:0:
319,216,109225,1,8,0:0:0:0:
330,222,109377,1,8,0:0:0:0:
314,193,109639,1,8,0:0:0:0:
334,217,109901,1,8,0:0:0:0:
325,210,109988,1,8,0:0:0:0:
254,204,110075,1,0,0:0:0:0:
254,204,110162,1,0,0:0:0:0:
367,184,110250,1,8,0:0:0:0:
268,223,110337,1,0,0:0:0:0:
310,211,110424,1,8,0:0:0:0:
311,211,110511,1,8,0:0:0:0:
210,195,110598,1,0,0:0:0:0:
302,223,110773,1,8,0:0:0:0:
299,232,110860,1,8,0:0:0:0:
223,206,110947,1,0,0:0:0:0:
246,219,111034,1,0,0:0:0:0:
308,203,111122,1,8,0:0:0:0:
294,233,111209,1,8,0:0:0:0:
232,188,111296,1,0,0:0:0:0:
307,209,111470,1,8,0:0:0:0:
223,206,111558,1,0,0:0:0:0:
297,200,111645,1,8,0:0:0:0:
292,202,111732,1,8,0:0:0:0:
204,209,111819,1,0,0:0:0:0:
337,175,111994,1,8,0:0:0:0:
317,193,112081,1,8,0:0:0:0:
232,194,112168,1,0,0:0:0:0:
308,195,112343,1,8,0:0:0:0:
308,195,112430,1,8,0:0:0:0:
240,183,112517,1,0,0:0:0:0:
313,204,112691,1,8,0:0:0:0:
279,208,112779,1,0,0:0:0:0:
279,208,112866,1,0,0:0:0:0:
279,208,112953,1,0,0:0:0:0:
285,200,113040,1,8,0:0:0:0:
281,201,113127,1,8,0:0:0:0:
206,198,113215,1,0,0:0:0:0:
206,198,113302,1,0,0:0:0:0:
291,185,113389,1,8,0:0:0:0:
241,213,113564,1,0,0:0:0:0:
241,213,113651,1,0,0:0:0:0:
290,193,113738,1,8,0:0:0:0:
206,198,113825,1,0,0:0:0:0:
289,197,113912,1,8,0:0:0:0:
286,198,114000,1,8,0:0:0:0:
209,189,114087,1,0,0:0:0:0:
266,200,114261,1,8,0:0:0:0:
280,202,114348,1,8,0:0:0:0:
218,196,114436,1,0,0:0:0:0:
217,196,114523,1,0,0:0:0:0:
291,177,114610,1,8,0:0:0:0:
220,209,114784,1,0,0:0:0:0:
220,209,114872,1,0,0:0:0:0:
274,191,114959,1,8,0:0:0:0:
230,201,115133,1,0,0:0:0:0:
230,201,115220,1,0,0:0:0:0:
321,185,115308,1,8,0:0:0:0:
245,197,115482,1,0,0:0:0:0:
245,197,115569,1,0,0:0:0:0:
312,205,115657,1,8,0:0:0:0:
210,197,115744,1,0,0:0:0:0:
299,197,115831,1,8,0:0:0:0:
338,175,115918,1,8,0:0:0:0:
231,195,116005,1,0,0:0:0:0:
225,196,116093,1,0,0:0:0:0:
305,178,116180,1,8,0:0:0:0:
252,198,116354,1,0,0:0:0:0:
296,182,116441,1,8,0:0:0:0:
236,192,116529,1,0,0:0:0:0:
231,195,116616,1,0,0:0:0:0:
331,191,116703,1,8,0:0:0:0:
331,191,116790,1,8,0:0:0:0:
238,175,116877,1,0,0:0:0:0:
317,193,117052,1,8,0:0:0:0:
316,193,117139,1,8,0:0:0:0:
230,202,117226,1,0,0:0:0:0:
306,195,117314,1,8,0:0:0:0:
277,190,117401,1,0,0:0:0:0:
323,206,117575,1,8,0:0:0:0:
322,206,117662,1,8,0:0:0:0:
205,208,117750,1,0,0:0:0:0:
305,199,117924,1,8,0:0:0:0:
306,195,118011,1,8,0:0:0:0:
253,189,118098,1,0,0:0:0:0:
346,206,118273,1,8,0:0:0:0:
272,188,118360,1,0,0:0:0:0:
250,202,118447,1,0,0:0:0:0:
259,198,118534,1,0,0:0:0:0:
316,188,118622,1,8,0:0:0:0:
265,195,118709,1,8,0:0:0:0:
244,194,118796,1,0,0:0:0:0:
240,194,118883,1,0,0:0:0:0:
296,173,118970,1,8,0:0:0:0:
225,197,119145,1,0,0:0:0:0:
214,197,119232,1,0,0:0:0:0:
297,186,119319,1,8,0:0:0:0:
235,189,119407,1,0,0:0:0:0:
323,188,119494,1,8,0:0:0:0:
313,190,119581,1,8,0:0:0:0:
198,180,119668,1,0,0:0:0:0:
338,195,119843,1,8,0:0:0:0:
223,201,119930,1,0,0:0:0:0:
307,175,120017,1,8,0:0:0:0:
225,180,120104,1,0,0:0:0:0:
277,178,120191,1,8,0:0:0:0:
332,206,120279,1,8,0:0:0:0:
221,189,120366,1,0,0:0:0:0:
268,222,120453,1,0,0:0:0:0:
303,200,120540,1,8,0:0:0:0:
237,200,120715,1,0,0:0:0:0:
237,200,120802,1,0,0:0:0:0:
237,200,120889,1,0,0:0:0:0:
375,180,121064,1,8,0:0:0:0:
286,195,121151,1,8,0:0:0:0:
277,189,121238,1,0,0:0:0:0:
268,191,121325,1,0,0:0:0:0:
311,189,121412,1,8,0:0:0:0:
248,188,121500,1,0,0:0:0:0:
312,175,121587,1,8,0:0:0:0:
341,218,121674,1,8,0:0:0:0:
249,178,121761,1,0,0:0:0:0:
311,189,121936,1,8,0:0:0:0:
236,200,122023,1,0,0:0:0:0:
325,193,122110,1,8,0:0:0:0:
325,193,122197,1,8,0:0:0:0:
255,198,122284,1,0,0:0:0:0:
248,199,122372,1,0,0:0:0:0:
371,177,122459,1,8,0:0:0:0:
255,191,122633,1,0,0:0:0:0:
255,191,122720,1,0,0:0:0:0:
325,193,122808,1,8,0:0:0:0:
203,200,122895,1,0,0:0:0:0:
326,204,122982,1,8,0:0:0:0:
256,188,123157,1,0,0:0:0:0:
276,213,123244,1,0,0:0:0:0:
328,200,123331,1,8,0:0:0:0:
291,209,123505,1,0,0:0:0:0:
290,209,123593,1,0,0:0:0:0:
336,184,123680,1,8,0:0:0:0:
270,212,123854,1,0,0:0:0:0:
269,208,123941,1,0,0:0:0:0:
325,195,124029,1,8,0:0:0:0:
246,200,124116,1,0,0:0:0:0:
326,186,124203,1,8,0:0:0:0:
325,186,124290,1,8,0:0:0:0:
227,183,124377,1,0,0:0:0:0:
256,229,124465,1,0,0:0:0:0:
305,186,124552,1,8,0:0:0:0:
251,206,124726,1,0,0:0:0:0:
317,197,124814,1,8,0:0:0:0:
262,197,124901,1,0,0:0:0:0:
261,197,124988,1,0,0:0:0:0:
305,195,125075,1,8,0:0:0:0:
303,196,125162,1,8,0:0:0:0:
226,187,125250,1,0,0:0:0:0:
303,207,125424,1,8,0:0:0:0:
251,206,125511,1,0,0:0:0:0:
288,198,125598,1,8,0:0:0:0:
288,198,125686,1,8,0:0:0:0:
238,183,125773,1,0,0:0:0:0:
308,203,125947,1,8,0:0:0:0:
306,203,126034,1,8,0:0:0:0:
223,200,126122,1,0,0:0:0:0:
310,197,126296,1,8,0:0:0:0:
310,197,126383,1,8,0:0:0:0:
312,174,126470,1,0,0:0:0:0:
263,204,126645,1,8,0:0:0:0:
196,211,126732,1,0,0:0:0:0:
196,211,126819,1,0,0:0:0:0:
196,211,126907,1,0,0:0:0:0:
296,199,126994,1,8,0:0:0:0:
296,199,127081,1,8,0:0:0:0:
201,204,127168,1,0,0:0:0:0:
215,206,127255,1,0,0:0:0:0:
313,183,127343,1,8,0:0:0:0:
235,204,127517,1,0,0:0:0:0:
304,195,127604,1,8,0:0:0:0:
212,201,127691,1,0,0:0:0:0:
210,201,127779,1,0,0:0:0:0:
272,184,127866,1,8,0:0:0:0:
314,228,127953,1,8,0:0:0:0:
154,199,128040,1,0,0:0:0:0:
306,226,128215,1,8,0:0:0:0:
330,198,128302,1,8,0:0:0:0:
255,202,128389,1,0,0:0:0:0:
254,202,128476,1,0,0:0:0:0:
309,184,128564,1,8,0:0:0:0:
270,226,128738,1,0,0:0:0:0:
270,226,128825,1,0,0:0:0:0:
308,214,128912,1,8,0:0:0:0:
267,216,129087,1,0,0:0:0:0:
267,216,129174,1,0,0:0:0:0:
302,186,129261,1,8,0:0:0:0:
254,205,129436,1,0,0:0:0:0:
250,206,129523,1,0,0:0:0:0:
289,205,129610,1,8,0:0:0:0:
265,203,129697,1,0,0:0:0:0:
326,197,129784,1,8,0:0:0:0:
325,197,129872,1,8,0:0:0:0:
217,186,129959,1,0,0:0:0:0:
217,186,130046,1,0,0:0:0:0:
329,177,130133,1,8,0:0:0:0:
250,206,130308,1,0,0:0:0:0:
306,204,130395,1,8,0:0:0:0:
225,192,130482,1,0,0:0:0:0:
224,192,130569,1,0,0:0:0:0:
274,196,130657,1,8,0:0:0:0:
273,196,130744,1,8,0:0:0:0:
225,175,130831,1,0,0:0:0:0:
306,204,131005,1,8,0:0:0:0:
241,200,131180,1,0,0:0:0:0:
283,202,131354,1,8,0:0:0:0:
231,188,131529,1,0,0:0:0:0:
247,213,131616,1,0,0:0:0:0:
310,206,131703,1,8,0:0:0:0:
252,202,131790,1,0,0:0:0:0:
336,189,131877,1,8,0:0:0:0:
217,188,132052,1,0,0:0:0:0:
346,196,132226,1,8,0:0:0:0:
281,191,132314,1,0,0:0:0:0:
281,191,132401,1,0,0:0:0:0:
281,191,132488,1,0,0:0:0:0:
340,176,132575,1,8,0:0:0:0:
312,201,132662,1,8,0:0:0:0:
258,198,132750,1,0,0:0:0:0:
294,190,132837,1,8,0:0:0:0:
182,173,132924,1,0,0:0:0:0:
270,196,133011,1,0,0:0:0:0:
313,193,133098,1,8,0:0:0:0:
231,195,133186,1,0,0:0:0:0:
231,195,133273,1,0,0:0:0:0:
231,195,133360,1,0,0:0:0:0:
324,172,133447,1,8,0:0:0:0:
328,218,133534,1,8,0:0:0:0:
242,188,133622,1,0,0:0:0:0:
277,210,133709,1,0,0:0:0:0:
321,199,133796,1,8,0:0:0:0:
320,200,133883,1,8,0:0:0:0:
191,199,133970,1,0,0:0:0:0:
197,199,134058,1,0,0:0:0:0:
323,197,134145,1,8,0:0:0:0:
323,197,134232,1,8,0:0:0:0:
323,207,134319,1,8,0:0:0:0:
308,220,134407,1,8,0:0:0:0:
228,208,134494,1,0,0:0:0:0:
223,208,134581,1,0,0:0:0:0:
312,182,134668,1,8,0:0:0:0:
276,179,134843,1,0,0:0:0:0:
331,193,135017,1,8,0:0:0:0:
257,198,135104,1,0,0:0:0:0:
257,198,135191,1,0,0:0:0:0:
257,198,135279,1,0,0:0:0:0:
312,182,135366,1,8,0:0:0:0:
316,184,135453,1,8,0:0:0:0:
234,189,135540,1,0,0:0:0:0:
256,193,135627,1,0,0:0:0:0:
343,192,135715,1,8,0:0:0:0:
234,189,135802,1,0,0:0:0:0:
277,203,135889,1,8,0:0:0:0:
286,202,135976,1,8,0:0:0:0:
224,188,136064,1,0,0:0:0:0:
312,195,136238,1,8,0:0:0:0:
254,215,136412,1,0,0:0:0:0:
248,202,136500,1,0,0:0:0:0:
306,200,136587,1,8,0:0:0:0:
238,210,136674,1,0,0:0:0:0:
312,180,136761,1,8,0:0:0:0:
327,194,136848,1,8,0:0:0:0:
227,193,136936,1,0,0:0:0:0:
310,186,137023,1,0,0:0:0:0:
294,182,137110,1,8,0:0:0:0:
217,200,137284,1,0,0:0:0:0:
262,200,137372,1,0,0:0:0:0:
312,180,137459,1,8,0:0:0:0:
239,186,137633,1,0,0:0:0:0:
297,205,137808,1,8,0:0:0:0:
308,195,137895,1,8,0:0:0:0:
307,196,137982,1,8,0:0:0:0:
307,196,138069,1,8,0:0:0:0:
248,185,138157,1,0,0:0:0:0:
274,228,138244,1,0,0:0:0:0:
297,205,138331,1,8,0:0:0:0:
297,205,138418,1,8,0:0:0:0:
219,179,138505,1,0,0:0:0:0:
284,214,138593,1,8,0:0:0:0:
195,204,138680,1,0,0:0:0:0:
195,204,138767,1,0,0:0:0:0:
292,178,138854,1,8,0:0:0:0:
286,207,138941,1,8,0:0:0:0:
250,198,139029,1,0,0:0:0:0:
250,198,139116,1,0,0:0:0:0:
306,183,139203,1,8,0:0:0:0:
239,202,139290,1,0,0:0:0:0:
299,199,139377,1,8,0:0:0:0:
297,213,139465,1,8,0:0:0:0:
261,192,139552,1,0,0:0:0:0:
264,234,139639,1,0,0:0:0:0:
281,203,139726,1,8,0:0:0:0:
223,209,139814,1,0,0:0:0:0:
223,209,139901,1,0,0:0:0:0:
223,209,139988,1,0,0:0:0:0:
314,190,140075,1,8,0:0:0:0:
300,220,140162,1,8,0:0:0:0:
270,191,140250,1,0,0:0:0:0:
193,196,140337,1,0,0:0:0:0:
305,209,140424,1,8,0:0:0:0:
193,211,140598,1,0,0:0:0:0:
309,211,140686,1,8,0:0:0:0:
237,200,140773,1,0,0:0:0:0:
241,198,140860,1,0,0:0:0:0:
270,191,140947,1,8,0:0:0:0:
308,223,141034,1,8,0:0:0:0:
229,211,141122,1,0,0:0:0:0:
229,211,141209,1,0,0:0:0:0:
326,186,141296,1,8,0:0:0:0:
255,207,141383,1,0,0:0:0:0:
335,199,141470,1,8,0:0:0:0:
323,202,141558,1,8,0:0:0:0:
265,193,141645,1,0,0:0:0:0:
258,204,141732,1,0,0:0:0:0:
330,205,141819,1,8,0:0:0:0:
328,205,141907,1,8,0:0:0:0:
259,190,141994,1,0,0:0:0:0:
271,208,142081,1,0,0:0:0:0:
326,206,142168,1,8,0:0:0:0:
219,199,142255,1,0,0:0:0:0:
349,175,142343,1,8,0:0:0:0:
308,208,142430,1,8,0:0:0:0:
238,183,142517,1,0,0:0:0:0:
197,195,142604,1,0,0:0:0:0:
316,174,142691,1,8,0:0:0:0:
208,213,142866,1,0,0:0:0:0:
203,214,142953,1,0,0:0:0:0:
325,209,143040,1,8,0:0:0:0:
241,201,143215,1,0,0:0:0:0:
319,217,143389,1,8,0:0:0:0:
301,208,143476,1,8,0:0:0:0:
301,210,143564,1,8,0:0:0:0:
301,211,143651,1,8,0:0:0:0:
313,211,143738,1,8,0:0:0:0:
312,211,143825,1,8,0:0:0:0:
241,201,143912,1,0,0:0:0:0:
235,202,144000,1,0,0:0:0:0:
328,191,144087,1,8,0:0:0:0:
252,205,144174,1,0,0:0:0:0:
250,205,144261,1,0,0:0:0:0:
248,206,144348,1,0,0:0:0:0:
311,197,144436,1,8,0:0:0:0:
325,225,144523,1,8,0:0:0:0:
221,211,144610,1,0,0:0:0:0:
274,210,144697,1,0,0:0:0:0:
278,204,144784,1,8,0:0:0:0:
237,209,144872,1,0,0:0:0:0:
317,197,144959,1,8,0:0:0:0:
311,197,145046,1,8,0:0:0:0:
219,204,145133,1,0,0:0:0:0:
254,217,145220,1,0,0:0:0:0:
312,200,145308,1,8,0:0:0:0:
306,201,145395,1,8,0:0:0:0:
259,189,145482,1,0,0:0:0:0:
317,212,145657,1,8,0:0:0:0:
275,185,145744,1,8,0:0:0:0:
264,210,145831,1,0,0:0:0:0:
316,188,146005,1,8,0:0:0:0:
255,217,146180,1,0,0:0:0:0:
255,217,146267,1,0,0:0:0:0:
255,217,146354,1,0,0:0:0:0:
255,217,146441,1,0,0:0:0:0:
279,251,146529,1,0,0:0:0:0:
279,251,146616,1,0,0:0:0:0:
323,218,146703,1,8,0:0:0:0:
320,192,146790,1,8,0:0:0:0:
237,206,146877,1,0,0:0:0:0:
310,211,146965,1,8,0:0:0:0:
310,212,147052,1,8,0:0:0:0:
310,212,147139,1,8,0:0:0:0:
212,208,147226,1,0,0:0:0:0:
253,217,147314,1,0,0:0:0:0:
318,195,147401,1,8,0:0:0:0:
317,195,147488,1,8,0:0:0:0:
255,183,147575,1,0,0:0:0:0:
292,191,147750,1,8,0:0:0:0:
201,183,147924,1,0,0:0:0:0:
343,205,148011,1,8,0:0:0:0:
212,198,148098,1,0,0:0:0:0:
208,199,148186,1,0,0:0:0:0:
315,180,148273,1,8,0:0:0:0:
309,204,148447,1,8,0:0:0:0:
269,203,148622,1,0,0:0:0:0:
283,192,148709,1,8,0:0:0:0:
223,194,148796,1,0,0:0:0:0:
372,186,148970,1,8,0:0:0:0:
372,186,149058,1,8,0:0:0:0:
241,186,149145,1,0,0:0:0:0:
239,194,149232,1,0,0:0:0:0:
317,193,149319,1,8,0:0:0:0:
317,193,149407,1,8,0:0:0:0:
241,224,149494,1,0,0:0:0:0:
236,189,149668,1,0,0:0:0:0:
316,200,149843,1,8,0:0:0:0:
316,200,149930,1,8,0:0:0:0:
283,189,150017,1,0,0:0:0:0:
281,194,150104,1,0,0:0:0:0:
334,181,150191,1,8,0:0:0:0:
254,191,150366,1,0,0:0:0:0:
322,184,150540,1,8,0:0:0:0:
321,184,150627,1,8,0:0:0:0:
232,184,150715,1,0,0:0:0:0:
241,186,150802,1,0,0:0:0:0:
321,184,150889,1,8,0:0:0:0:
248,195,151064,1,0,0:0:0:0:
239,198,151151,1,0,0:0:0:0:
303,194,151238,1,8,0:0:0:0:
248,195,151412,1,0,0:0:0:0:
247,195,151500,1,0,0:0:0:0:
297,180,151587,1,8,0:0:0:0:
288,184,151761,1,0,0:0:0:0:
288,184,151848,1,0,0:0:0:0:
288,184,151936,1,0,0:0:0:0:
321,196,152110,1,8,0:0:0:0:
321,196,152197,1,8,0:0:0:0:
219,195,152284,1,0,0:0:0:0:
219,195,152372,1,0,0:0:0:0:
314,180,152459,1,8,0:0:0:0:
198,204,152633,1,0,0:0:0:0:
198,205,152720,1,0,0:0:0:0:
250,195,152808,1,8,0:0:0:0:
250,195,152895,1,8,0:0:0:0:
215,190,152982,1,0,0:0:0:0:
214,190,153069,1,0,0:0:0:0:
294,184,153157,1,8,0:0:0:0:
226,212,153331,1,0,0:0:0:0:
269,188,153505,1,8,0:0:0:0:
250,195,153680,1,0,0:0:0:0:
307,188,153854,1,8,0:0:0:0:
264,186,154203,1,0,0:0:0:0:
353,190,154552,1,8,0:0:0:0:
335,186,154639,1,8,0:0:0:0:
279,181,154726,1,0,0:0:0:0:
258,206,154814,1,0,0:0:0:0:
324,202,154901,1,8,0:0:0:0:
328,191,154988,1,8,0:0:0:0:
234,206,155075,1,0,0:0:0:0:
317,186,155250,1,8,0:0:0:0:
247,211,155424,1,0,0:0:0:0:
246,212,155511,1,0,0:0:0:0:
324,202,155598,1,8,0:0:0:0:
324,202,155686,1,8,0:0:0:0:
269,182,155773,1,0,0:0:0:0:
336,213,155947,1,8,0:0:0:0:
258,199,156122,1,0,0:0:0:0:
266,204,156209,1,0,0:0:0:0:
354,191,156296,1,8,0:0:0:0:
310,198,156383,1,8,0:0:0:0:
269,187,156470,1,0,0:0:0:0:
311,208,156645,1,8,0:0:0:0:
311,208,156732,1,8,0:0:0:0:
235,202,156819,1,0,0:0:0:0:
325,197,156994,1,8,0:0:0:0:
324,197,157081,1,8,0:0:0:0:
272,180,157168,1,0,0:0:0:0:
303,202,157343,1,8,0:0:0:0:
303,202,157430,1,8,0:0:0:0:
305,191,157517,1,8,0:0:0:0:
249,198,157691,1,0,0:0:0:0:
249,198,157779,1,0,0:0:0:0:
344,185,157866,1,8,0:0:0:0:
344,185,157953,1,8,0:0:0:0:
256,182,158040,1,0,0:0:0:0:
290,207,158215,1,8,0:0:0:0:
290,207,158302,1,8,0:0:0:0:
232,199,158389,1,0,0:0:0:0:
231,200,158476,1,0,0:0:0:0:
302,199,158564,1,8,0:0:0:0:
301,199,158651,1,8,0:0:0:0:
206,189,158738,1,0,0:0:0:0:
321,208,158912,1,8,0:0:0:0:
241,216,159087,1,0,0:0:0:0:
293,197,159261,1,8,0:0:0:0:
208,202,159436,1,0,0:0:0:0:
338,190,159784,1,8,0:0:0:0:
372,186,160133,1,8,0:0:0:0:
372,186,160220,1,8,0:0:0:0:
241,186,160308,1,0,0:0:0:0:
239,216,160395,1,0,0:0:0:0:
305,184,160482,1,8,0:0:0:0:
314,184,160569,1,8,0:0:0:0:
257,178,160657,1,0,0:0:0:0:
236,189,160831,1,0,0:0:0:0:
316,200,161005,1,8,0:0:0:0:
316,200,161093,1,8,0:0:0:0:
283,189,161180,1,0,0:0:0:0:
281,194,161267,1,0,0:0:0:0:
334,181,161354,1,8,0:0:0:0:
254,191,161529,1,0,0:0:0:0:
322,184,161703,1,8,0:0:0:0:
321,184,161790,1,8,0:0:0:0:
232,184,161877,1,0,0:0:0:0:
252,206,161965,1,0,0:0:0:0:
321,184,162052,1,8,0:0:0:0:
248,195,162226,1,0,0:0:0:0:
239,198,162314,1,0,0:0:0:0:
303,194,162401,1,8,0:0:0:0:
248,195,162575,1,0,0:0:0:0:
247,195,162662,1,0,0:0:0:0:
297,180,162750,1,8,0:0:0:0:
288,184,162924,1,0,0:0:0:0:
288,184,163011,1,0,0:0:0:0:
288,184,163098,1,0,0:0:0:0:
321,196,163273,1,8,0:0:0:0:
321,196,163360,1,8,0:0:0:0:
219,195,163447,1,0,0:0:0:0:
219,195,163534,1,0,0:0:0:0:
314,180,163622,1,8,0:0:0:0:
198,204,163796,1,0,0:0:0:0:
198,205,163883,1,0,0:0:0:0:
250,195,163970,1,8,0:0:0:0:
250,195,164058,1,8,0:0:0:0:
215,190,164145,1,0,0:0:0:0:
214,190,164232,1,0,0:0:0:0:
294,184,164319,1,8,0:0:0:0:
229,193,164494,1,0,0:0:0:0:
229,193,164668,1,0,0:0:0:0:
305,199,164843,1,8,0:0:0:0:
247,198,165017,1,0,0:0:0:0:
360,186,165366,1,8,0:0:0:0:
353,190,165715,1,8,0:0:0:0:
335,186,165802,1,8,0:0:0:0:
279,181,165889,1,0,0:0:0:0:
272,206,165976,1,0,0:0:0:0:
324,202,166064,1,8,0:0:0:0:
301,205,166151,1,8,0:0:0:0:
234,206,166238,1,0,0:0:0:0:
317,186,166412,1,8,0:0:0:0:
247,211,166587,1,0,0:0:0:0:
246,212,166674,1,0,0:0:0:0:
324,202,166761,1,8,0:0:0:0:
324,202,166848,1,8,0:0:0:0:
269,182,166936,1,0,0:0:0:0:
336,213,167110,1,8,0:0:0:0:
258,199,167284,1,0,0:0:0:0:
266,204,167372,1,0,0:0:0:0:
354,191,167459,1,8,0:0:0:0:
328,199,167546,1,8,0:0:0:0:
269,187,167633,1,0,0:0:0:0:
311,208,167808,1,8,0:0:0:0:
311,208,167895,1,8,0:0:0:0:
235,202,167982,1,0,0:0:0:0:
325,197,168157,1,8,0:0:0:0:
324,197,168244,1,8,0:0:0:0:
272,180,168331,1,0,0:0:0:0:
303,202,168505,1,8,0:0:0:0:
303,202,168593,1,8,0:0:0:0:
305,191,168680,1,8,0:0:0:0:
249,198,168854,1,0,0:0:0:0:
249,198,168941,1,0,0:0:0:0:
344,185,169029,1,8,0:0:0:0:
344,185,169116,1,8,0:0:0:0:
256,182,169203,1,0,0:0:0:0:
290,207,169377,1,8,0:0:0:0:
290,207,169465,1,8,0:0:0:0:
232,199,169552,1,0,0:0:0:0:
231,200,169639,1,0,0:0:0:0:
302,199,169726,1,8,0:0:0:0:
301,199,169814,1,8,0:0:0:0:
206,189,169901,1,4,0:0:0:0:
290,193,170075,1,8,0:0:0:0:
247,182,170250,1,0,0:0:0:0:
334,194,170424,1,8,0:0:0:0:
308,199,170598,1,8,0:0:0:0:
296,193,170686,1,8,0:0:0:0:
255,199,170773,1,0,0:0:0:0:
254,199,170860,1,0,0:0:0:0:
320,179,170947,1,8,0:0:0:0:
246,209,171034,1,0,0:0:0:0:
268,210,171122,1,8,0:0:0:0:
235,205,171209,1,0,0:0:0:0:
326,192,171296,1,12,0:0:0:0:
254,216,171470,1,0,0:0:0:0:
328,209,171645,1,8,0:0:0:0:
327,210,171732,1,8,0:0:0:0:
327,210,171819,1,8,0:0:0:0:
250,202,171994,1,0,0:0:0:0:
299,198,172343,1,8,0:0:0:0:
289,200,172517,1,0,0:0:0:0:
359,203,172691,1,8,0:0:0:0:
341,197,172779,1,8,0:0:0:0:
285,195,172866,1,0,0:0:0:0:
359,203,173040,1,8,0:0:0:0:
236,205,173215,1,0,0:0:0:0:
270,229,173564,1,0,0:0:0:0:
315,222,173738,1,8,0:0:0:0:
276,206,173912,1,0,0:0:0:0:
300,208,174087,1,8,0:0:0:0:
321,206,174261,1,8,0:0:0:0:
255,198,174436,1,0,0:0:0:0:
246,198,174523,1,0,0:0:0:0:
277,187,174610,1,8,0:0:0:0:
306,217,174697,1,8,0:0:0:0:
255,198,174784,1,0,0:0:0:0:
219,187,174959,1,0,0:0:0:0:
276,228,175133,1,8,0:0:0:0:
243,202,175220,1,0,0:0:0:0:
268,202,175308,1,8,0:0:0:0:
276,202,175395,1,8,0:0:0:0:
236,197,175482,1,0,0:0:0:0:
310,190,175657,1,8,0:0:0:0:
272,220,175831,1,0,0:0:0:0:
303,212,176005,1,8,0:0:0:0:
267,204,176180,1,0,0:0:0:0:
347,180,176354,1,8,0:0:0:0:
255,183,176703,1,0,0:0:0:0:
286,180,176877,1,12,0:0:0:0:
357,182,177052,1,8,0:0:0:0:
250,202,177226,1,0,0:0:0:0:
305,193,177401,1,8,0:0:0:0:
269,212,177575,1,8,0:0:0:0:
268,212,177662,1,8,0:0:0:0:
237,204,177750,1,0,0:0:0:0:
318,212,177924,1,8,0:0:0:0:
324,212,178011,1,8,0:0:0:0:
225,197,178098,1,0,0:0:0:0:
305,206,178273,1,8,0:0:0:0:
316,204,178360,1,8,0:0:0:0:
219,200,178447,1,0,0:0:0:0:
220,207,178534,1,0,0:0:0:0:
291,191,178622,1,8,0:0:0:0:
243,229,178709,1,0,0:0:0:0:
317,181,178796,1,8,0:0:0:0:
218,206,179145,1,0,0:0:0:0:
292,200,179319,1,8,0:0:0:0:
250,192,179494,1,0,0:0:0:0:
312,205,179668,1,8,0:0:0:0:
235,198,179755,1,0,0:0:0:0:
333,188,179843,1,8,0:0:0:0:
264,197,180017,1,0,0:0:0:0:
330,182,180191,1,8,0:0:0:0:
324,200,180366,1,8,0:0:0:0:
324,200,180453,1,8,0:0:0:0:
257,197,180540,1,0,0:0:0:0:
258,197,180627,1,0,0:0:0:0:
317,177,180715,1,8,0:0:0:0:
318,186,180889,1,8,0:0:0:0:
227,211,181238,1,0,0:0:0:0:
322,204,181412,1,8,0:0:0:0:
246,201,181500,1,0,0:0:0:0:
294,194,181587,1,8,0:0:0:0:
270,190,181761,1,0,0:0:0:0:
228,201,181936,1,0,0:0:0:0:
310,193,182110,1,8,0:0:0:0:
274,191,182284,1,0,0:0:0:0:
316,198,182459,1,12,0:0:0:0:
272,208,182633,1,0,0:0:0:0:
330,205,182720,1,8,0:0:0:0:
259,191,182808,1,0,0:0:0:0:
317,206,182982,1,8,0:0:0:0:
313,206,183069,1,8,0:0:0:0:
226,199,183157,1,0,0:0:0:0:
310,204,183244,1,8,0:0:0:0:
194,206,183418,1,0,0:0:0:0:
293,184,183505,1,8,0:0:0:0:
247,193,183680,1,0,0:0:0:0:
321,181,183767,1,8,0:0:0:0:
265,189,183854,1,0,0:0:0:0:
243,211,183941,1,0,0:0:0:0:
287,211,184029,1,8,0:0:0:0:
273,200,184116,1,8,0:0:0:0:
271,201,184203,1,0,0:0:0:0:
321,198,184290,1,8,0:0:0:0:
282,195,184377,1,0,0:0:0:0:
265,189,184465,1,8,0:0:0:0:
257,199,184552,1,0,0:0:0:0:
306,200,184726,1,8,0:0:0:0:
240,198,184901,1,0,0:0:0:0:
295,186,185075,1,8,0:0:0:0:
228,200,185250,1,0,0:0:0:0:
306,187,185424,1,8,0:0:0:0:
230,207,185511,1,0,0:0:0:0:
279,195,185598,1,8,0:0:0:0:
221,215,185773,1,0,0:0:0:0:
221,215,185860,1,0,0:0:0:0:
302,194,185947,1,8,0:0:0:0:
224,222,186122,1,0,0:0:0:0:
309,202,186296,1,8,0:0:0:0:
297,215,186645,1,8,0:0:0:0:
253,217,186819,1,0,0:0:0:0:
305,208,186907,1,8,0:0:0:0:
259,208,187081,1,0,0:0:0:0:
316,199,187168,1,8,0:0:0:0:
208,198,187343,1,0,0:0:0:0:
236,209,187430,1,0,0:0:0:0:
236,209,187517,1,0,0:0:0:0:
236,209,187604,1,0,0:0:0:0:
283,185,187691,1,8,0:0:0:0:
296,200,187779,1,8,0:0:0:0:
242,199,187866,1,0,0:0:0:0:
285,207,187953,1,8,0:0:0:0:
203,204,188040,1,4,0:0:0:0:
352,187,188215,1,8,0:0:0:0:
236,209,188389,1,0,0:0:0:0:
235,205,188476,1,0,0:0:0:0:
276,192,188564,1,8,0:0:0:0:
221,202,188738,1,0,0:0:0:0:
230,204,189087,1,0,0:0:0:0:
335,182,189261,1,8,0:0:0:0:
268,200,189436,1,0,0:0:0:0:
268,200,189523,1,0,0:0:0:0:
268,200,189610,1,0,0:0:0:0:
311,212,189784,1,8,0:0:0:0:
270,182,189959,1,0,0:0:0:0:
261,189,190308,1,0,0:0:0:0:
312,194,190482,1,8,0:0:0:0:
277,188,190657,1,0,0:0:0:0:
272,190,190831,1,8,0:0:0:0:
205,193,190918,1,0,0:0:0:0:
270,189,191005,1,8,0:0:0:0:
266,191,191093,1,8,0:0:0:0:
223,171,191180,1,0,0:0:0:0:
257,189,191354,1,0,0:0:0:0:
328,188,191529,1,8,0:0:0:0:
328,188,191616,1,8,0:0:0:0:
328,188,191703,1,8,0:0:0:0:
295,199,191790,1,0,0:0:0:0:
294,188,191877,1,8,0:0:0:0:
261,187,192052,1,0,0:0:0:0:
209,196,192139,1,0,0:0:0:0:
308,181,192226,1,8,0:0:0:0:
258,207,192401,1,0,0:0:0:0:
234,192,192575,1,0,0:0:0:0:
299,188,192750,1,8,0:0:0:0:
319,197,192924,1,8,0:0:0:0:
256,220,193098,1,0,0:0:0:0:
352,184,193186,1,8,0:0:0:0:
257,209,193273,1,0,0:0:0:0:
305,198,193447,1,8,0:0:0:0:
342,189,193534,1,8,0:0:0:0:
226,189,193622,1,4,0:0:0:0:
326,193,193796,1,8,0:0:0:0:
227,204,193883,1,0,0:0:0:0:
355,176,193970,1,8,0:0:0:0:
328,206,194058,1,8,0:0:0:0:
207,191,194145,1,0,0:0:0:0:
290,182,194319,1,8,0:0:0:0:
263,226,194494,1,0,0:0:0:0:
319,208,194668,1,8,0:0:0:0:
221,200,194843,1,0,0:0:0:0:
321,229,195017,1,8,0:0:0:0:
242,208,195104,1,0,0:0:0:0:
290,202,195191,1,8,0:0:0:0:
290,202,195279,1,8,0:0:0:0:
216,204,195366,1,0,0:0:0:0:
216,205,195453,1,0,0:0:0:0:
286,195,195540,1,8,0:0:0:0:
279,211,195627,1,0,0:0:0:0:
335,188,195715,1,8,0:0:0:0:
248,198,195889,1,0,0:0:0:0:
314,201,196238,1,8,0:0:0:0:
272,201,196412,1,0,0:0:0:0:
271,201,196500,1,0,0:0:0:0:
270,202,196587,1,0,0:0:0:0:
324,208,196761,1,8,0:0:0:0:
259,198,196936,1,0,0:0:0:0:
293,199,197110,1,8,0:0:0:0:
299,218,197284,1,8,0:0:0:0:
319,215,197372,1,8,0:0:0:0:
259,198,197459,1,0,0:0:0:0:
288,225,197546,1,0,0:0:0:0:
348,194,197633,1,8,0:0:0:0:
252,203,197982,1,0,0:0:0:0:
311,214,198157,1,8,0:0:0:0:
259,211,198331,1,0,0:0:0:0:
325,195,198505,1,8,0:0:0:0:
217,197,198680,1,0,0:0:0:0:
289,188,198767,1,8,0:0:0:0:
289,188,198854,1,8,0:0:0:0:
301,191,199029,1,8,0:0:0:0:
255,206,199203,1,0,0:0:0:0:
255,206,199290,1,0,0:0:0:0:
285,184,199377,1,8,0:0:0:0:
259,206,199552,1,0,0:0:0:0:
289,200,199639,1,8,0:0:0:0:
229,198,199726,1,0,0:0:0:0:
265,197,199814,1,0,0:0:0:0:
301,188,199901,1,8,0:0:0:0:
267,191,200075,1,8,0:0:0:0:
226,186,200250,1,0,0:0:0:0:
265,202,200337,1,0,0:0:0:0:
268,194,200424,1,8,0:0:0:0:
265,197,200511,1,8,0:0:0:0:
195,174,200598,1,0,0:0:0:0:
322,204,200773,1,8,0:0:0:0:
243,208,200860,1,0,0:0:0:0:
301,189,200947,1,8,0:0:0:0:
306,217,201034,1,8,0:0:0:0:
242,193,201122,1,0,0:0:0:0:
270,235,201209,1,0,0:0:0:0:
332,190,201296,1,8,0:0:0:0:
274,208,201470,1,0,0:0:0:0:
303,196,201558,1,8,0:0:0:0:
247,197,201645,1,0,0:0:0:0:
306,195,201819,1,8,0:0:0:0:
263,193,201994,1,0,0:0:0:0:
311,204,202168,1,8,0:0:0:0:
271,201,202255,1,8,0:0:0:0:
235,206,202343,1,0,0:0:0:0:
287,195,202430,1,8,0:0:0:0:
263,193,202517,1,0,0:0:0:0:
302,209,202691,1,8,0:0:0:0:
230,213,202779,1,0,0:0:0:0:
299,207,202866,1,8,0:0:0:0:
297,208,202953,1,8,0:0:0:0:
251,192,203040,1,0,0:0:0:0:
326,206,203215,1,8,0:0:0:0:
232,218,203302,1,0,0:0:0:0:
266,209,203389,1,8,0:0:0:0:
265,209,203476,1,8,0:0:0:0:
203,204,203564,1,0,0:0:0:0:
303,208,203738,1,8,0:0:0:0:
239,213,203825,1,0,0:0:0:0:
326,206,203912,1,8,0:0:0:0:
326,206,204000,1,8,0:0:0:0:
231,200,204087,1,0,0:0:0:0:
270,232,204261,1,0,0:0:0:0:
270,232,204348,1,0,0:0:0:0:
303,208,204436,1,8,0:0:0:0:
261,201,204523,1,0,0:0:0:0:
257,215,204610,1,8,0:0:0:0:
207,195,204697,1,0,0:0:0:0:
288,201,204784,1,12,0:0:0:0:
207,195,204959,1,0,0:0:0:0:
314,225,205133,1,8,0:0:0:0:
252,214,205308,1,0,0:0:0:0:
306,219,205482,1,8,0:0:0:0:
252,214,205657,1,0,0:0:0:0:
279,208,205831,1,8,0:0:0:0:
229,213,206005,1,0,0:0:0:0:
299,206,206180,1,8,0:0:0:0:
274,211,206267,1,0,0:0:0:0:
271,212,206354,1,0,0:0:0:0:
270,212,206441,1,0,0:0:0:0:
425,177,206529,1,8,0:0:0:0:
299,206,206616,1,8,0:0:0:0:
229,213,206703,1,0,0:0:0:0:
229,213,206790,1,0,0:0:0:0:
281,175,206877,1,8,0:0:0:0:
266,208,206965,1,0,0:0:0:0:
264,208,207052,1,0,0:0:0:0:
263,209,207139,1,0,0:0:0:0:
274,198,207226,1,8,0:0:0:0:
235,206,207314,1,0,0:0:0:0:
310,215,207401,1,8,0:0:0:0:
310,215,207488,1,8,0:0:0:0:
262,188,207575,1,4,0:0:0:0:
306,202,207924,1,8,0:0:0:0:
265,202,208273,1,0,0:0:0:0:
338,197,208622,1,8,0:0:0:0:
241,211,208970,1,0,0:0:0:0:
353,213,209319,1,8,0:0:0:0:
248,202,209668,1,0,0:0:0:0:
319,209,210017,1,8,0:0:0:0:
241,204,210366,1,0,0:0:0:0:
328,211,210715,1,8,0:0:0:0:
261,205,211064,1,0,0:0:0:0:
341,193,211412,1,8,0:0:0:0:
223,214,211761,1,4,0:0:0:0:
295,196,212459,1,8,0:0:0:0:
251,207,212633,1,0,0:0:0:0:
286,202,212808,1,8,0:0:0:0:
286,202,212895,1,8,0:0:0:0:
230,204,212982,1,0,0:0:0:0:
230,204,213069,1,0,0:0:0:0:
284,189,213157,1,8,0:0:0:0:
321,206,213244,1,8,0:0:0:0:
321,206,213331,1,8,0:0:0:0:
321,206,213418,1,8,0:0:0:0:
189,197,213505,1,0,0:0:0:0:
189,197,213593,1,0,0:0:0:0:
319,187,213680,1,8,0:0:0:0:
204,170,213767,1,0,0:0:0:0:
323,196,213854,1,8,0:0:0:0:
255,191,213941,1,0,0:0:0:0:
255,191,214029,1,0,0:0:0:0:
255,191,214116,1,0,0:0:0:0:
303,183,214203,1,8,0:0:0:0:
350,215,214290,1,8,0:0:0:0:
188,191,214377,1,0,0:0:0:0:
188,191,214465,1,0,0:0:0:0:
282,177,214552,1,8,0:0:0:0:
245,202,214639,1,0,0:0:0:0:
245,202,214726,1,0,0:0:0:0:
245,202,214814,1,0,0:0:0:0:
326,186,214901,1,8,0:0:0:0:
312,200,214988,1,8,0:0:0:0:
258,197,215075,1,0,0:0:0:0:
299,183,215162,1,8,0:0:0:0:
299,183,215250,1,8,0:0:0:0:
299,183,215337,1,8,0:0:0:0:
272,189,215424,1,0,0:0:0:0:
270,189,215511,1,0,0:0:0:0:
260,180,215598,1,8,0:0:0:0:
276,167,215773,1,0,0:0:0:0:
318,186,215947,1,8,0:0:0:0:
318,186,216034,1,8,0:0:0:0:
243,200,216122,1,0,0:0:0:0:
323,189,216209,1,8,0:0:0:0:
253,189,216296,1,0,0:0:0:0:
228,177,216383,1,0,0:0:0:0:
334,184,216470,1,8,0:0:0:0:
332,184,216558,1,8,0:0:0:0:
226,171,216645,1,0,0:0:0:0:
297,195,216732,1,8,0:0:0:0:
258,189,216819,1,0,0:0:0:0:
245,189,216907,1,0,0:0:0:0:
307,175,216994,1,8,0:0:0:0:
334,184,217081,1,8,0:0:0:0:
241,197,217168,1,0,0:0:0:0:
279,193,217255,1,8,0:0:0:0:
226,171,217343,1,0,0:0:0:0:
237,200,217430,1,0,0:0:0:0:
276,200,217517,1,8,0:0:0:0:
276,200,217604,1,8,0:0:0:0:
181,209,217691,1,0,0:0:0:0:
203,209,217779,1,0,0:0:0:0:
282,202,217866,1,8,0:0:0:0:
281,202,217953,1,8,0:0:0:0:
299,187,218040,1,8,0:0:0:0:
277,193,218127,1,8,0:0:0:0:
207,191,218215,1,0,0:0:0:0:
206,191,218302,1,0,0:0:0:0:
310,182,218389,1,8,0:0:0:0:
213,182,218564,1,0,0:0:0:0:
286,196,218738,1,8,0:0:0:0:
280,197,218825,1,8,0:0:0:0:
257,197,218912,1,0,0:0:0:0:
248,197,219000,1,0,0:0:0:0:
296,184,219087,1,8,0:0:0:0:
232,199,219174,1,0,0:0:0:0:
301,198,219261,1,8,0:0:0:0:
297,199,219348,1,8,0:0:0:0:
217,180,219436,1,0,0:0:0:0:
256,219,219523,1,0,0:0:0:0:
323,194,219610,1,8,0:0:0:0:
321,194,219697,1,8,0:0:0:0:
266,197,219784,1,0,0:0:0:0:
266,197,219872,1,0,0:0:0:0:
314,194,219959,1,8,0:0:0:0:
313,195,220046,1,8,0:0:0:0:
255,185,220133,1,0,0:0:0:0:
290,200,220220,1,8,0:0:0:0:
243,194,220308,1,0,0:0:0:0:
231,196,220395,1,0,0:0:0:0:
298,180,220482,1,8,0:0:0:0:
237,202,220569,1,0,0:0:0:0:
323,191,220657,1,8,0:0:0:0:
289,197,220744,1,8,0:0:0:0:
289,197,220831,1,8,0:0:0:0:
290,200,220918,1,8,0:0:0:0:
273,192,221005,1,0,0:0:0:0:
273,192,221093,1,0,0:0:0:0:
326,168,221180,1,8,0:0:0:0:
277,204,221354,1,0,0:0:0:0:
302,203,221529,1,8,0:0:0:0:
301,203,221616,1,8,0:0:0:0:
301,203,221703,1,8,0:0:0:0:
301,203,221790,1,8,0:0:0:0:
261,196,221877,1,0,0:0:0:0:
259,197,221965,1,0,0:0:0:0:
302,195,222052,1,8,0:0:0:0:
301,195,222139,1,8,0:0:0:0:
261,183,222226,1,0,0:0:0:0:
329,186,222314,1,8,0:0:0:0:
329,186,222401,1,8,0:0:0:0:
329,186,222488,1,8,0:0:0:0:
240,190,222575,1,0,0:0:0:0:
225,193,222662,1,0,0:0:0:0:
323,195,222750,1,8,0:0:0:0:
319,195,222837,1,8,0:0:0:0:
237,184,222924,1,0,0:0:0:0:
224,215,223011,1,0,0:0:0:0:
266,193,223098,1,8,0:0:0:0:
224,215,223186,1,0,0:0:0:0:
323,179,223273,1,8,0:0:0:0:
281,195,223360,1,8,0:0:0:0:
245,198,223447,1,0,0:0:0:0:
245,198,223534,1,0,0:0:0:0:
295,187,223622,1,8,0:0:0:0:
258,193,223796,1,0,0:0:0:0:
199,184,223883,1,0,0:0:0:0:
326,195,223970,1,8,0:0:0:0:
241,208,224145,1,0,0:0:0:0:
325,204,224319,1,8,0:0:0:0:
325,204,224407,1,8,0:0:0:0:
325,204,224494,1,8,0:0:0:0:
324,204,224581,1,8,0:0:0:0:
324,204,224668,1,8,0:0:0:0:
324,204,224755,1,8,0:0:0:0:
232,203,224843,1,0,0:0:0:0:
232,203,224930,1,0,0:0:0:0:
305,195,225017,1,8,0:0:0:0:
259,197,225104,1,0,0:0:0:0:
240,194,225191,1,0,0:0:0:0:
259,197,225279,1,0,0:0:0:0:
281,193,225366,1,8,0:0:0:0:
284,206,225453,1,8,0:0:0:0:
235,198,225540,1,0,0:0:0:0:
235,198,225627,1,0,0:0:0:0:
265,198,225715,1,8,0:0:0:0:
172,197,225802,1,0,0:0:0:0:
326,193,225889,1,8,0:0:0:0:
312,195,225976,1,8,0:0:0:0:
223,192,226064,1,0,0:0:0:0:
223,192,226151,1,0,0:0:0:0:
243,195,226238,1,8,0:0:0:0:
243,195,226325,1,8,0:0:0:0:
215,189,226412,1,0,0:0:0:0:
285,171,226587,1,8,0:0:0:0:
225,205,226761,1,0,0:0:0:0:
300,189,226936,1,8,0:0:0:0:
266,202,227110,1,0,0:0:0:0:
266,202,227197,1,0,0:0:0:0:
266,202,227284,1,0,0:0:0:0:
266,202,227372,1,0,0:0:0:0:
266,202,227459,1,0,0:0:0:0:
266,202,227546,1,0,0:0:0:0:
305,203,227633,1,8,0:0:0:0:
305,203,227720,1,8,0:0:0:0:
288,182,227808,1,0,0:0:0:0:
305,203,227895,1,8,0:0:0:0:
299,208,227982,1,8,0:0:0:0:
299,208,228069,1,8,0:0:0:0:
295,188,228157,1,0,0:0:0:0:
265,208,228244,1,0,0:0:0:0:
339,194,228331,1,8,0:0:0:0:
339,194,228418,1,8,0:0:0:0:
245,184,228505,1,0,0:0:0:0:
327,211,228680,1,8,0:0:0:0:
258,192,228854,1,0,0:0:0:0:
290,193,229029,1,8,0:0:0:0:
257,214,229377,1,0,0:0:0:0:
314,202,229552,1,8,0:0:0:0:
241,196,229726,1,0,0:0:0:0:
303,196,229901,1,8,0:0:0:0:
221,210,229988,1,0,0:0:0:0:
220,210,230075,1,0,0:0:0:0:
220,210,230162,1,0,0:0:0:0:
336,181,230250,1,8,0:0:0:0:
186,204,230337,1,0,0:0:0:0:
293,191,230424,1,8,0:0:0:0:
296,197,230511,1,8,0:0:0:0:
202,183,230598,1,0,0:0:0:0:
311,204,230686,1,8,0:0:0:0:
310,204,230773,1,8,0:0:0:0:
310,204,230860,1,8,0:0:0:0:
237,186,230947,1,0,0:0:0:0:
254,223,231034,1,0,0:0:0:0:
299,206,231122,1,8,0:0:0:0:
299,207,231209,1,8,0:0:0:0:
249,200,231296,1,0,0:0:0:0:
349,192,231383,1,8,0:0:0:0:
349,192,231470,1,8,0:0:0:0:
343,193,231558,1,8,0:0:0:0:
276,188,231645,1,0,0:0:0:0:
248,209,231732,1,0,0:0:0:0:
299,206,231819,1,8,0:0:0:0:
299,206,231907,1,8,0:0:0:0:
296,191,231994,1,8,0:0:0:0:
295,191,232081,1,8,0:0:0:0:
247,202,232168,1,0,0:0:0:0:
245,202,232255,1,0,0:0:0:0:
304,185,232343,1,8,0:0:0:0:
250,194,232517,1,0,0:0:0:0:
326,208,232691,1,8,0:0:0:0:
326,208,232779,1,8,0:0:0:0:
286,196,232866,1,0,0:0:0:0:
274,197,232953,1,0,0:0:0:0:
346,176,233040,1,8,0:0:0:0:
248,224,233127,1,0,0:0:0:0:
326,199,233215,1,8,0:0:0:0:
331,202,233302,1,8,0:0:0:0:
243,173,233389,1,0,0:0:0:0:
299,207,233476,1,8,0:0:0:0:
298,207,233564,1,8,0:0:0:0:
297,207,233651,1,8,0:0:0:0:
257,191,233738,1,0,0:0:0:0:
221,189,233825,1,0,0:0:0:0:
274,187,233912,1,8,0:0:0:0:
230,197,234000,1,0,0:0:0:0:
285,198,234087,1,8,0:0:0:0:
285,198,234174,1,8,0:0:0:0:
249,187,234261,1,0,0:0:0:0:
249,187,234348,1,0,0:0:0:0:
290,191,234436,1,8,0:0:0:0:
263,191,234523,1,0,0:0:0:0:
282,171,234610,1,8,0:0:0:0:
235,193,234697,1,0,0:0:0:0:
235,193,234784,1,0,0:0:0:0:
250,197,234872,1,0,0:0:0:0:
300,197,234959,1,8,0:0:0:0:
297,197,235046,1,8,0:0:0:0:
250,188,235133,1,0,0:0:0:0:
351,181,235308,1,8,0:0:0:0:
311,197,235482,1,8,0:0:0:0:
298,188,235569,1,8,0:0:0:0:
274,188,235657,1,0,0:0:0:0:
268,188,235744,1,0,0:0:0:0:
346,170,235831,1,8,0:0:0:0:
255,204,235918,1,0,0:0:0:0:
252,204,236005,1,0,0:0:0:0:
252,204,236093,1,0,0:0:0:0:
285,203,236180,1,8,0:0:0:0:
326,199,236267,1,8,0:0:0:0:
223,187,236354,1,0,0:0:0:0:
259,189,236441,1,0,0:0:0:0:
294,197,236529,1,8,0:0:0:0:
292,197,236616,1,8,0:0:0:0:
211,191,236703,1,0,0:0:0:0:
293,194,236790,1,8,0:0:0:0:
272,182,236877,1,0,0:0:0:0:
246,206,236965,1,0,0:0:0:0:
294,197,237052,1,8,0:0:0:0:
287,195,237139,1,8,0:0:0:0:
170,191,237226,1,0,0:0:0:0:
252,204,237314,1,0,0:0:0:0:
306,192,237401,1,8,0:0:0:0:
309,224,237488,1,8,0:0:0:0:
309,224,237575,1,8,0:0:0:0:
309,224,237662,1,8,0:0:0:0:
239,187,237750,1,0,0:0:0:0:
234,187,237837,1,0,0:0:0:0:
253,184,237924,1,8,0:0:0:0:
226,187,238098,1,0,0:0:0:0:
301,203,238273,1,8,0:0:0:0:
301,203,238360,1,8,0:0:0:0:
301,203,238447,1,8,0:0:0:0:
301,203,238534,1,8,0:0:0:0:
221,199,238622,1,0,0:0:0:0:
301,203,238709,1,8,0:0:0:0:
242,199,238796,1,0,0:0:0:0:
235,200,238883,1,0,0:0:0:0:
301,179,238970,1,8,0:0:0:0:
254,197,239058,1,0,0:0:0:0:
254,197,239145,1,0,0:0:0:0:
253,197,239232,1,0,0:0:0:0:
323,215,239319,1,8,0:0:0:0:
323,215,239407,1,8,0:0:0:0:
209,203,239494,1,0,0:0:0:0:
235,209,239581,1,0,0:0:0:0:
311,191,239668,1,8,0:0:0:0:
246,208,239755,1,0,0:0:0:0:
276,205,239843,1,8,0:0:0:0:
276,205,239930,1,8,0:0:0:0:
230,191,240017,1,0,0:0:0:0:
250,218,240104,1,0,0:0:0:0:
298,194,240191,1,8,0:0:0:0:
248,208,240279,1,0,0:0:0:0:
305,186,240366,1,8,0:0:0:0:
190,190,240540,1,0,0:0:0:0:
239,224,240627,1,0,0:0:0:0:
294,191,240715,1,8,0:0:0:0:
245,192,240889,1,0,0:0:0:0:
305,186,241064,1,8,0:0:0:0:
305,186,241151,1,8,0:0:0:0:
302,187,241238,1,8,0:0:0:0:
301,187,241325,1,8,0:0:0:0:
301,187,241412,1,8,0:0:0:0:
301,187,241500,1,8,0:0:0:0:
224,202,241587,1,0,0:0:0:0:
223,202,241674,1,0,0:0:0:0:
305,186,241761,1,8,0:0:0:0:
259,186,241848,1,0,0:0:0:0:
259,186,241936,1,0,0:0:0:0:
259,186,242023,1,0,0:0:0:0:
303,195,242110,1,8,0:0:0:0:
300,195,242197,1,8,0:0:0:0:
220,189,242284,1,0,0:0:0:0:
232,197,242372,1,0,0:0:0:0:
305,186,242459,1,8,0:0:0:0:
232,198,242546,1,0,0:0:0:0:
285,188,242633,1,8,0:0:0:0:
285,188,242720,1,8,0:0:0:0:
252,180,242808,1,0,0:0:0:0:
211,185,242895,1,0,0:0:0:0:
308,189,242982,1,8,0:0:0:0:
300,195,243069,1,8,0:0:0:0:
266,173,243157,1,0,0:0:0:0:
291,202,243331,1,8,0:0:0:0:
361,175,243418,1,8,0:0:0:0:
266,205,243505,1,0,0:0:0:0:
323,199,243680,1,8,0:0:0:0:
251,209,243854,1,0,0:0:0:0:
251,209,243941,1,0,0:0:0:0:
251,209,244029,1,0,0:0:0:0:
251,209,244116,1,0,0:0:0:0:
251,209,244203,1,0,0:0:0:0:
251,209,244290,1,0,0:0:0:0:
310,204,244377,1,8,0:0:0:0:
308,204,244465,1,8,0:0:0:0:
245,200,244552,1,0,0:0:0:0:
328,200,244639,1,8,0:0:0:0:
325,200,244726,1,8,0:0:0:0:
322,200,244814,1,8,0:0:0:0:
244,198,244901,1,0,0:0:0:0:
237,199,244988,1,0,0:0:0:0:
288,193,245075,1,8,0:0:0:0:
286,193,245162,1,8,0:0:0:0:
256,193,245250,1,0,0:0:0:0:
287,202,245337,1,8,0:0:0:0:
234,195,245424,1,0,0:0:0:0:
230,196,245511,1,0,0:0:0:0:
316,181,245598,1,8,0:0:0:0:
310,214,245686,1,8,0:0:0:0:
254,199,245773,1,0,0:0:0:0:
254,199,245860,1,0,0:0:0:0:
300,181,245947,1,8,0:0:0:0:
245,199,246034,1,0,0:0:0:0:
245,200,246122,1,0,0:0:0:0:
245,200,246209,1,0,0:0:0:0:
279,193,246296,1,8,0:0:0:0:
294,211,246383,1,8,0:0:0:0:
273,180,246470,1,0,0:0:0:0:
252,204,246645,1,8,0:0:0:0:
245,199,246732,1,0,0:0:0:0:
236,198,246819,1,0,0:0:0:0:
236,198,246907,1,0,0:0:0:0:
235,198,246994,1,8,0:0:0:0:
307,211,247081,1,8,0:0:0:0:
271,200,247168,1,0,0:0:0:0:
268,200,247255,1,0,0:0:0:0:
302,197,247343,1,8,0:0:0:0:
295,198,247430,1,8,0:0:0:0:
292,199,247517,1,8,0:0:0:0:
292,199,247604,1,8,0:0:0:0:
220,191,247691,1,0,0:0:0:0:
276,211,247779,1,8,0:0:0:0:
213,202,247866,1,0,0:0:0:0:
212,203,247953,1,0,0:0:0:0:
281,185,248040,1,8,0:0:0:0:
219,211,248127,1,0,0:0:0:0:
219,211,248215,1,0,0:0:0:0:
219,211,248302,1,0,0:0:0:0:
325,198,248389,1,8,0:0:0:0:
319,199,248476,1,8,0:0:0:0:
247,196,248564,1,0,0:0:0:0:
242,208,248651,1,0,0:0:0:0:
308,181,248738,1,8,0:0:0:0:
341,197,248825,1,8,0:0:0:0:
341,197,248912,1,8,0:0:0:0:
340,197,249000,1,8,0:0:0:0:
230,220,249087,1,0,0:0:0:0:
323,205,249174,1,8,0:0:0:0:
281,200,249261,1,0,0:0:0:0:
281,200,249348,1,0,0:0:0:0:
323,182,249436,1,8,0:0:0:0:
243,199,249523,1,0,0:0:0:0:
241,199,249610,1,0,0:0:0:0:
241,200,249697,1,0,0:0:0:0:
305,190,249784,1,8,0:0:0:0:
318,220,249872,1,8,0:0:0:0:
268,209,249959,1,0,0:0:0:0:
266,209,250046,1,0,0:0:0:0:
305,199,250133,1,8,0:0:0:0:
254,204,250220,1,0,0:0:0:0:
244,206,250308,1,0,0:0:0:0:
244,206,250395,1,0,0:0:0:0:
323,183,250482,1,8,0:0:0:0:
255,183,250569,1,0,0:0:0:0:
311,204,250657,1,8,0:0:0:0:
271,189,250744,1,0,0:0:0:0:
325,197,250831,1,12,0:0:0:0:
312,191,251703,1,8,0:0:0:0:
248,194,251877,1,0,0:0:0:0:
310,183,252052,1,8,0:0:0:0:
372,186,252226,1,8,0:0:0:0:
372,186,252314,1,8,0:0:0:0:
236,164,252401,1,0,0:0:0:0:
249,205,252488,1,0,0:0:0:0:
310,183,252575,1,8,0:0:0:0:
310,183,252662,1,8,0:0:0:0:
249,205,252750,1,0,0:0:0:0:
236,189,252924,1,0,0:0:0:0:
316,200,253098,1,8,0:0:0:0:
316,200,253186,1,8,0:0:0:0:
283,189,253273,1,0,0:0:0:0:
281,194,253360,1,0,0:0:0:0:
334,181,253447,1,8,0:0:0:0:
254,191,253622,1,0,0:0:0:0:
322,184,253796,1,8,0:0:0:0:
321,184,253883,1,8,0:0:0:0:
232,184,253970,1,0,0:0:0:0:
272,178,254058,1,0,0:0:0:0:
321,184,254145,1,8,0:0:0:0:
248,195,254319,1,0,0:0:0:0:
239,198,254407,1,0,0:0:0:0:
303,194,254494,1,8,0:0:0:0:
248,195,254668,1,0,0:0:0:0:
247,195,254755,1,0,0:0:0:0:
297,180,254843,1,8,0:0:0:0:
288,184,255017,1,0,0:0:0:0:
288,184,255104,1,0,0:0:0:0:
288,184,255191,1,0,0:0:0:0:
321,196,255366,1,8,0:0:0:0:
321,196,255453,1,8,0:0:0:0:
219,195,255540,1,0,0:0:0:0:
219,195,255627,1,0,0:0:0:0:
314,180,255715,1,8,0:0:0:0:
198,204,255889,1,0,0:0:0:0:
198,205,255976,1,0,0:0:0:0:
250,195,256064,1,8,0:0:0:0:
250,195,256151,1,8,0:0:0:0:
215,190,256238,1,0,0:0:0:0:
214,190,256325,1,0,0:0:0:0:
294,184,256412,1,8,0:0:0:0:
219,195,256587,1,0,0:0:0:0:
339,197,256761,1,8,0:0:0:0:
228,159,256936,1,0,0:0:0:0:
307,188,257110,1,8,0:0:0:0:
264,186,257459,1,0,0:0:0:0:
353,190,257808,1,8,0:0:0:0:
335,186,257895,1,8,0:0:0:0:
279,181,257982,1,0,0:0:0:0:
265,198,258069,1,0,0:0:0:0:
324,202,258157,1,8,0:0:0:0:
334,190,258244,1,8,0:0:0:0:
234,206,258331,1,0,0:0:0:0:
317,186,258505,1,8,0:0:0:0:
247,211,258680,1,0,0:0:0:0:
246,212,258767,1,0,0:0:0:0:
324,202,258854,1,8,0:0:0:0:
324,202,258941,1,8,0:0:0:0:
269,182,259029,1,0,0:0:0:0:
336,213,259203,1,8,0:0:0:0:
258,199,259377,1,0,0:0:0:0:
266,204,259465,1,0,0:0:0:0:
354,191,259552,1,8,0:0:0:0:
350,218,259639,1,8,0:0:0:0:
269,187,259726,1,0,0:0:0:0:
311,208,259901,1,8,0:0:0:0:
311,208,259988,1,8,0:0:0:0:
235,202,260075,1,0,0:0:0:0:
325,197,260250,1,8,0:0:0:0:
324,197,260337,1,8,0:0:0:0:
272,180,260424,1,0,0:0:0:0:
303,202,260598,1,8,0:0:0:0:
303,202,260686,1,8,0:0:0:0:
305,191,260773,1,8,0:0:0:0:
249,198,260947,1,0,0:0:0:0:
249,198,261034,1,0,0:0:0:0:
344,185,261122,1,8,0:0:0:0:
344,185,261209,1,8,0:0:0:0:
256,182,261296,1,0,0:0:0:0:
290,207,261470,1,8,0:0:0:0:
290,207,261558,1,8,0:0:0:0:
232,199,261645,1,0,0:0:0:0:
231,200,261732,1,0,0:0:0:0:
302,199,261819,1,8,0:0:0:0:
301,199,261907,1,8,0:0:0:0:
206,189,261994,1,0,0:0:0:0:
321,208,262168,1,8,0:0:0:0:
241,216,262343,1,0,0:0:0:0:
293,197,262517,1,8,0:0:0:0:
208,202,262691,1,0,0:0:0:0:
338,190,263040,1,8,0:0:0:0:
372,186,263389,1,8,0:0:0:0:
372,186,263476,1,8,0:0:0:0:
241,186,263564,1,0,0:0:0:0:
252,199,263651,1,0,0:0:0:0:
285,194,263738,1,8,0:0:0:0:
306,194,263825,1,8,0:0:0:0:
241,186,263912,1,0,0:0:0:0:
236,189,264087,1,0,0:0:0:0:
316,200,264261,1,8,0:0:0:0:
316,200,264348,1,8,0:0:0:0:
283,189,264436,1,0,0:0:0:0:
281,194,264523,1,0,0:0:0:0:
334,181,264610,1,8,0:0:0:0:
254,191,264784,1,0,0:0:0:0:
322,184,264959,1,8,0:0:0:0:
321,184,265046,1,8,0:0:0:0:
232,184,265133,1,0,0:0:0:0:
260,192,265220,1,0,0:0:0:0:
321,184,265308,1,8,0:0:0:0:
248,195,265482,1,0,0:0:0:0:
239,198,265569,1,0,0:0:0:0:
303,194,265657,1,8,0:0:0:0:
248,195,265831,1,0,0:0:0:0:
247,195,265918,1,0,0:0:0:0:
297,180,266005,1,8,0:0:0:0:
288,184,266180,1,0,0:0:0:0:
288,184,266267,1,0,0:0:0:0:
288,184,266354,1,0,0:0:0:0:
321,196,266529,1,8,0:0:0:0:
321,196,266616,1,8,0:0:0:0:
219,195,266703,1,0,0:0:0:0:
219,195,266790,1,0,0:0:0:0:
314,180,266877,1,8,0:0:0:0:
198,204,267052,1,0,0:0:0:0:
198,205,267139,1,0,0:0:0:0:
250,195,267226,1,8,0:0:0:0:
250,195,267314,1,8,0:0:0:0:
215,190,267401,1,0,0:0:0:0:
214,190,267488,1,0,0:0:0:0:
294,184,267575,1,8,0:0:0:0:
229,193,267750,1,0,0:0:0:0:
229,193,267924,1,0,0:0:0:0:
305,199,268098,1,8,0:0:0:0:
247,198,268273,1,0,0:0:0:0:
360,186,268622,1,8,0:0:0:0:
353,190,268970,1,8,0:0:0:0:
335,186,269058,1,8,0:0:0:0:
279,181,269145,1,0,0:0:0:0:
254,188,269232,1,0,0:0:0:0:
324,202,269319,1,8,0:0:0:0:
300,202,269407,1,8,0:0:0:0:
234,206,269494,1,0,0:0:0:0:
317,186,269668,1,8,0:0:0:0:
247,211,269843,1,0,0:0:0:0:
246,212,269930,1,0,0:0:0:0:
324,202,270017,1,8,0:0:0:0:
324,202,270104,1,8,0:0:0:0:
269,182,270191,1,0,0:0:0:0:
336,213,270366,1,8,0:0:0:0:
258,199,270540,1,0,0:0:0:0:
266,204,270627,1,0,0:0:0:0:
354,191,270715,1,8,0:0:0:0:
332,174,270802,1,8,0:0:0:0:
269,187,270889,1,0,0:0:0:0:
311,208,271064,1,8,0:0:0:0:
311,208,271151,1,8,0:0:0:0:
235,202,271238,1,0,0:0:0:0:
325,197,271412,1,8,0:0:0:0:
324,197,271500,1,8,0:0:0:0:
272,180,271587,1,0,0:0:0:0:
303,202,271761,1,8,0:0:0:0:
303,202,271848,1,8,0:0:0:0:
305,191,271936,1,8,0:0:0:0:
249,198,272110,1,0,0:0:0:0:
249,198,272197,1,0,0:0:0:0:
344,185,272284,1,8,0:0:0:0:
344,185,272372,1,8,0:0:0:0:
256,182,272459,1,0,0:0:0:0:
290,207,272633,1,8,0:0:0:0:
290,207,272720,1,8,0:0:0:0:
232,199,272808,1,0,0:0:0:0:
231,200,272895,1,0,0:0:0:0:
302,199,272982,1,8,0:0:0:0:
301,199,273069,1,8,0:0:0:0:
206,189,273157,1,4,0:0:0:0:
277,204,273331,1,8,0:0:0:0:
258,189,273505,1,0,0:0:0:0:
299,191,273680,1,8,0:0:0:0:
216,178,273854,1,0,0:0:0:0:
264,214,273941,1,8,0:0:0:0:
245,207,274029,1,0,0:0:0:0:
243,208,274116,1,0,0:0:0:0:
267,199,274203,1,8,0:0:0:0:
201,195,274290,1,0,0:0:0:0:
242,191,274377,1,8,0:0:0:0:
243,184,274465,1,0,0:0:0:0:
289,202,274552,1,12,0:0:0:0:
214,155,274726,1,0,0:0:0:0:
332,194,274901,1,8,0:0:0:0:
346,195,274988,1,8,0:0:0:0:
255,175,275075,1,0,0:0:0:0:
234,186,275162,1,0,0:0:0:0:
337,189,275250,1,8,0:0:0:0:
263,186,275424,1,0,0:0:0:0:
290,195,275598,1,8,0:0:0:0:
321,191,275686,1,8,0:0:0:0:
246,185,275773,1,0,0:0:0:0:
348,182,275947,1,8,0:0:0:0:
223,184,276122,1,0,0:0:0:0:
307,183,276296,1,8,0:0:0:0:
317,184,276383,1,8,0:0:0:0:
299,208,276470,1,0,0:0:0:0:
299,206,276645,1,8,0:0:0:0:
220,194,276819,1,0,0:0:0:0:
328,195,276994,1,8,0:0:0:0:
223,206,277168,1,0,0:0:0:0:
292,209,277343,1,8,0:0:0:0:
296,192,277430,1,8,0:0:0:0:
291,193,277517,1,8,0:0:0:0:
227,190,277691,1,0,0:0:0:0:
300,176,277866,1,8,0:0:0:0:
227,190,278215,1,0,0:0:0:0:
325,193,278389,1,8,0:0:0:0:
325,193,278476,1,8,0:0:0:0:
212,191,278564,1,0,0:0:0:0:
212,191,278651,1,0,0:0:0:0:
311,185,278738,1,8,0:0:0:0:
246,178,278912,1,0,0:0:0:0:
268,198,279087,1,8,0:0:0:0:
221,196,279261,1,0,0:0:0:0:
241,175,279436,1,0,0:0:0:0:
323,212,279784,1,8,0:0:0:0:
321,194,280133,1,8,0:0:0:0:
254,187,280308,1,0,0:0:0:0:
308,180,280482,1,8,0:0:0:0:
299,180,280569,1,8,0:0:0:0:
274,185,280657,1,0,0:0:0:0:
254,187,280744,1,0,0:0:0:0:
305,199,280831,1,8,0:0:0:0:
243,186,281005,1,0,0:0:0:0:
300,194,281180,1,8,0:0:0:0:
300,194,281267,1,8,0:0:0:0:
254,192,281354,1,0,0:0:0:0:
301,193,281529,1,8,0:0:0:0:
270,193,281703,1,0,0:0:0:0:
294,191,281877,1,8,0:0:0:0:
294,191,281965,1,8,0:0:0:0:
250,175,282052,1,0,0:0:0:0:
326,188,282226,1,8,0:0:0:0:
269,187,282401,1,0,0:0:0:0:
326,188,282575,1,8,0:0:0:0:
239,182,282750,1,0,0:0:0:0:
348,188,282924,1,8,0:0:0:0:
346,188,283011,1,8,0:0:0:0:
346,188,283098,1,8,0:0:0:0:
244,193,283273,1,0,0:0:0:0:
336,188,283447,1,8,0:0:0:0:
193,202,283796,1,0,0:0:0:0:
336,188,283970,1,8,0:0:0:0:
326,187,284058,1,8,0:0:0:0:
249,184,284145,1,0,0:0:0:0:
243,184,284232,1,0,0:0:0:0:
308,175,284319,1,8,0:0:0:0:
215,186,284494,1,0,0:0:0:0:
315,202,284668,1,8,0:0:0:0:
243,187,284843,1,0,0:0:0:0:
318,188,285017,1,8,0:0:0:0:
253,188,285366,1,0,0:0:0:0:
336,208,285715,1,12,0:0:0:0:
257,204,285889,1,0,0:0:0:0:
301,193,286064,1,8,0:0:0:0:
301,193,286238,1,8,0:0:0:0:
283,217,286587,1,0,0:0:0:0:
310,209,286761,1,8,0:0:0:0:
347,175,286936,1,8,0:0:0:0:
303,190,287284,1,8,0:0:0:0:
298,175,287459,1,8,0:0:0:0:
243,192,287633,1,0,0:0:0:0:
294,189,287808,1,8,0:0:0:0:
267,194,287982,1,0,0:0:0:0:
335,184,288157,1,8,0:0:0:0:
305,220,288331,1,0,0:0:0:0:
341,208,288505,1,8,0:0:0:0:
255,182,288680,1,0,0:0:0:0:
315,193,288854,1,8,0:0:0:0:
315,193,289029,1,8,0:0:0:0:
201,203,289377,1,0,0:0:0:0:
302,195,289552,1,8,0:0:0:0:
208,191,289726,1,0,0:0:0:0:
290,190,289901,1,8,0:0:0:0:
224,202,290075,1,0,0:0:0:0:
212,204,290250,1,0,0:0:0:0:
262,204,290424,1,8,0:0:0:0:
189,201,290598,1,0,0:0:0:0:
317,187,290947,1,8,0:0:0:0:
239,213,291296,1,4,0:0:0:0:
239,213,291470,1,0,0:0:0:0:
310,190,291645,1,8,0:0:0:0:
263,196,291819,1,0,0:0:0:0:
339,190,292168,1,8,0:0:0:0:
265,191,292343,1,0,0:0:0:0:
303,186,292517,1,8,0:0:0:0:
211,207,292866,1,0,0:0:0:0:
243,204,293040,1,0,0:0:0:0:
283,197,293215,1,8,0:0:0:0:
247,200,293389,1,0,0:0:0:0:
305,200,293564,1,8,0:0:0:0:
266,189,293738,1,0,0:0:0:0:
352,192,293912,1,8,0:0:0:0:
273,191,294087,1,0,0:0:0:0:
239,191,294261,1,0,0:0:0:0:
316,190,294436,1,8,0:0:0:0:
243,182,294610,1,0,0:0:0:0:
316,190,294959,1,8,0:0:0:0:
251,194,295133,1,0,0:0:0:0:
267,193,295308,1,0,0:0:0:0:
336,177,295482,1,12,0:0:0:0:
260,198,295657,1,0,0:0:0:0:
333,171,295831,1,8,0:0:0:0:
267,175,296005,1,0,0:0:0:0:
299,190,296180,1,8,0:0:0:0:
323,197,296877,1,8,0:0:0:0:
247,197,297226,1,0,0:0:0:0:
339,194,297401,1,8,0:0:0:0:
308,204,297750,1,8,0:0:0:0:
252,189,297924,1,0,0:0:0:0:
315,197,298098,1,8,0:0:0:0:
270,193,298273,1,0,0:0:0:0:
337,178,299668,1,8,0:0:0:0:
282,190,300017,1,0,0:0:0:0:
318,185,300191,1,8,0:0:0:0:
326,194,300540,1,8,0:0:0:0:
290,200,300715,1,0,0:0:0:0:
324,197,300889,1,8,0:0:0:0:
258,193,301064,1,0,0:0:0:0:
