osu file format v14

[General]
AudioFilename: audio.mp3
AudioLeadIn: 0
PreviewTime: 209329
Countdown: 0
SampleSet: Normal
StackLeniency: 0.7
Mode: 0
LetterboxInBreaks: 0
WidescreenStoryboard: 1

[Editor]
DistanceSpacing: 0.6
BeatDivisor: 4
GridSize: 8
TimelineZoom: 2

[Metadata]
Title:Great Nano Desu
TitleUnicode:Great Nano Desu
Artist:REDALiCE
ArtistUnicode:REDALiCE
Creator:Milr
Version:Nanother
Source:ひぐらしのなく頃に解
Tags:remix hanyuu horie yui nanodesu higurashi no naku koro ni hardcore techno
BeatmapID:1106485
BeatmapSetID:506861

[Difficulty]
HPDrainRate:6
CircleSize:4
OverallDifficulty:8
ApproachRate:9
SliderMultiplier:2
SliderTickRate:1

[Events]
//Background and Video events
0,0,"bg.jpg",0,0
//Break Periods
//Storyboard Layer 0 (Background)
//Storyboard Layer 1 (Fail)
//Storyboard Layer 2 (Pass)
//Storyboard Layer 3 (Foreground)
//Storyboard Sound Samples

[TimingPoints]
27,348.837209302326,4,1,1,65,1,0
22352,-95.2380952380952,4,1,1,65,0,0
43282,-95.2380952380952,4,2,1,65,0,0
43457,-125,4,2,1,65,0,0
43980,-153.846153846154,4,2,1,65,0,0
44503,-153.846153846154,4,2,1,5,0,0
44678,-100,4,1,1,65,0,0
55143,-133.333333333333,4,1,1,65,0,0
59329,-117.647058823529,4,1,1,65,0,0
60027,-117.647058823529,4,2,1,65,0,0
61422,-100,4,1,1,65,0,0
71887,-133.333333333333,4,1,1,65,0,0
76771,-133.333333333333,4,2,1,65,0,0
77730,-133.333333333333,4,1,1,5,0,0
77817,-133.333333333333,4,1,1,65,0,0
79561,-133.333333333333,4,1,1,30,0,0
79911,-133.333333333333,4,1,1,40,0,0
80085,-133.333333333333,4,1,1,45,0,0
80260,-133.333333333333,4,1,1,50,0,0
80433,-133.333333333333,4,1,1,55,0,0
80608,-133.333333333333,4,1,1,60,0,0
80782,-133.333333333333,4,1,1,65,0,0
80957,-125,4,2,1,55,0,0
97701,-142.857142857143,4,2,1,55,0,0
104678,-125,4,2,1,55,0,0
106073,-111.111111111111,4,2,1,55,0,0
108166,-100,4,2,1,65,0,1
108777,-100,4,2,1,65,0,0
108864,-90.9090909090909,4,1,1,65,0,1
129794,-111.111111111111,4,2,1,65,0,0
131189,-90.9090909090909,4,1,1,65,0,1
146538,-100,4,1,1,65,0,0
168864,-111.111111111111,4,2,1,65,0,0
170259,-111.111111111111,4,1,1,65,0,0
185608,-111.111111111111,4,2,1,65,0,0
186306,-117.647058823529,4,1,1,65,0,0
187003,-100,4,1,1,65,0,0
205143,-117.647058823529,4,1,1,30,0,0
205492,-117.647058823529,4,1,1,40,0,0
205666,-117.647058823529,4,1,1,45,0,0
205840,-117.647058823529,4,1,1,50,0,0
206015,-117.647058823529,4,1,1,55,0,0
206189,-117.647058823529,4,1,1,60,0,0
206538,-117.647058823529,4,2,1,60,0,0
209329,-100,4,2,1,60,0,0
210986,-100,4,2,1,5,0,0
211073,-100,4,2,1,65,0,0
211335,-100,4,2,1,5,0,0
211422,-100,4,2,1,65,0,1
211683,-100,4,2,1,5,0,1
211771,-100,4,2,1,65,0,1
212032,-100,4,2,1,65,0,0
212120,-88.8888888888889,4,1,1,65,0,1
227468,-100,4,1,1,65,0,0
228864,-88.4955752212389,4,1,1,65,0,1
249794,-100,4,1,1,65,0,0
250666,-133.333333333333,4,1,1,65,0,0
251189,-100,4,1,1,65,0,0
272120,-111.111111111111,4,2,1,65,0,0
273515,-105.263157894737,4,1,1,65,0,0
284678,-111.111111111111,4,2,1,65,0,0
290259,-117.647058823529,4,2,1,65,0,0

[Colours]
Combo1 : 154,151,213
Combo2 : 241,155,249
Combo3 : 255,89,89
Combo4 : 89,168,255

[HitObjects]
208,64,27,6,0,P|256:48|304:64,1,100
160,136,375,1,0,0:0:0:0:
256,232,550,1,0,0:0:0:0:
352,136,724,2,0,L|376:256,1,100
140,234,1073,2,0,L|160:136,1,100
208,320,1422,6,0,P|256:336|304:320,1,100
472,248,1771,2,0,P|424:232|376:248,1,100
424,328,2120,1,0,0:0:0:0:
256,232,2294,1,0,0:0:0:0:
328,144,2468,2,0,L|432:128,1,100
192,144,2730,1,0,0:0:0:0:
192,144,2817,6,0,L|80:128,1,100
328,232,3166,1,0,0:0:0:0:
184,232,3340,1,0,0:0:0:0:
256,88,3515,1,0,0:0:0:0:
256,288,3689,2,0,P|304:320|352:320,1,100
440,288,4038,1,0,0:0:0:0:
72,288,4213,5,0,0:0:0:0:
152,48,4387,2,0,L|136:152,1,100
375,146,4736,2,0,L|360:48,2,100
288,112,5172,1,0,0:0:0:0:
288,112,5259,2,0,L|176:104,1,100
40,224,5608,6,0,L|152:216,1,100
320,304,5957,1,0,0:0:0:0:
192,304,6131,1,0,0:0:0:0:
472,224,6306,2,0,L|360:216,1,100
256,360,6654,1,0,0:0:0:0:
256,144,6829,1,0,0:0:0:0:
349,298,7003,6,0,P|362:251|347:204,1,100
164,204,7352,2,0,P|149:250|162:298,1,100
360,128,7701,1,0,0:0:0:0:
152,128,7875,1,0,0:0:0:0:
256,40,8050,2,0,L|256:144,1,100
192,208,8311,1,0,0:0:0:0:
192,208,8399,6,0,P|144:224|96:208,1,100
320,176,8747,2,0,P|368:160|416:176,1,100
320,344,9096,1,0,0:0:0:0:
168,288,9271,2,0,L|56:296,1,100
200,176,9620,1,0,0:0:0:0:
256,368,9794,5,0,0:0:0:0:
344,288,9968,2,0,L|456:296,1,100
168,176,10317,2,0,P|192:128|176:88,2,100
208,256,10753,1,0,0:0:0:0:
208,256,10840,2,0,L|104:264,1,100
344,176,11189,6,0,P|320:128|336:88,1,100
304,256,11538,2,0,L|408:264,1,100
448,152,11887,1,0,0:0:0:0:
472,336,12061,2,0,L|360:344,1,100
256,232,12410,1,0,0:0:0:0:
40,336,12585,6,0,L|152:344,1,100
256,140,12933,2,0,P|271:185|254:233,1,100
160,264,13282,1,0,0:0:0:0:
352,264,13457,1,0,0:0:0:0:
256,368,13631,2,0,P|241:323|258:275,1,100
348,176,13893,1,0,0:0:0:0:
348,176,13980,6,0,L|448:184,1,100
163,176,14329,2,0,L|64:184,1,100
256,80,14678,1,0,0:0:0:0:
352,128,14852,2,0,P|368:80|352:32,1,100
158,34,15201,2,0,P|144:81|160:128,1,100
336,224,15550,5,0,0:0:0:0:
176,224,15724,1,0,0:0:0:0:
352,312,15899,2,0,P|400:328|448:312,2,100
256,208,16335,1,0,0:0:0:0:
256,208,16422,2,0,L|136:216,1,100
48,320,16771,6,0,L|160:328,1,100
336,256,17120,2,0,P|352:208|328:152,1,100
152,80,17468,1,0,0:0:0:0:
360,80,17643,1,0,0:0:0:0:
174,162,17817,2,0,P|160:209|176:256,1,100
408,344,18166,6,0,L|296:336,1,100
184,248,18515,1,0,0:0:0:0:
328,248,18689,1,0,0:0:0:0:
104,344,18864,2,0,L|216:336,1,100
392,200,19213,2,0,P|416:152|400:104,1,100
336,48,19474,1,0,0:0:0:0:
336,48,19561,6,0,P|312:96|328:144,1,100
192,200,19910,2,0,L|80:192,1,100
328,288,20259,1,0,0:0:0:0:
184,288,20433,1,0,0:0:0:0:
408,336,20608,2,0,P|424:288|408:240,1,100
102,242,20957,5,0,0:0:0:0:
102,242,21654,5,0,0:0:0:0:
60,259,21742,1,0,0:0:0:0:
18,242,21829,1,0,0:0:0:0:
1,200,21916,1,0,0:0:0:0:
18,158,22003,1,0,0:0:0:0:
60,141,22090,1,0,0:0:0:0:
102,158,22178,1,0,0:0:0:0:
144,144,22265,1,0,0:0:0:0:
161,102,22352,6,0,P|112:64|64:72,1,104.999996795654
328,184,22701,1,8,0:0:0:0:
184,184,22875,1,0,0:0:0:0:
351,102,23050,2,0,P|400:64|448:72,1,104.999996795654
256,40,23399,1,8,0:0:0:0:
256,240,23573,1,0,0:0:0:0:
416,147,23747,6,0,L|400:259,1,104.999996795654
110,250,24096,2,0,L|96:147,1,104.999996795654,8|0,0:0|0:0,0:0:0:0:
336,96,24445,1,0,0:0:0:0:
176,96,24620,1,0,0:0:0:0:
256,336,24794,2,0,L|256:224,1,104.999996795654,8|0,0:0|0:0,0:0:0:0:
336,176,25056,1,8,0:0:0:0:
336,176,25143,6,0,P|389:191|438:176,1,104.999996795654
176,208,25492,2,0,P|123:193|74:208,1,104.999996795654,8|0,0:0|0:0,0:0:0:0:
256,112,25840,1,0,0:0:0:0:
125,278,26015,2,0,L|133:394,1,104.999996795654,0|8,0:0|0:0,0:0:0:0:
370,271,26364,1,0,0:0:0:0:
384,104,26538,6,0,L|392:-12,1,104.999996795654
256,64,26887,1,8,0:0:0:0:
345,179,27061,2,0,P|406:186|443:163,1,104.999996795654
256,320,27410,1,0,0:0:0:0:
144,240,27585,2,0,P|189:216|240:225,1,104.999996795654,8|0,0:0|0:0,0:0:0:0:
336,264,27846,1,8,0:0:0:0:
336,264,27933,6,0,L|352:376,1,104.999996795654
161,367,28282,2,0,L|176:264,1,104.999996795654,8|0,0:0|0:0,0:0:0:0:
352,176,28631,1,0,0:0:0:0:
160,176,28806,1,0,0:0:0:0:
303,108,28980,2,0,P|355:91|401:108,1,104.999996795654,8|0,0:0|0:0,0:0:0:0:
208,248,29329,6,0,P|156:265|110:248,1,104.999996795654
256,168,29678,1,8,0:0:0:0:
256,336,29852,1,0,0:0:0:0:
352,144,30027,2,0,L|368:32,1,104.999996795654
145,40,30375,2,0,L|160:144,1,104.999996795654,8|0,0:0|0:0,0:0:0:0:
96,216,30637,1,8,0:0:0:0:
96,216,30724,6,0,P|48:256|56:304,1,104.999996795654
208,328,31073,1,8,0:0:0:0:
120,352,31247,1,0,0:0:0:0:
296,304,31422,2,0,L|400:320,1,104.999996795654
208,200,31771,2,0,L|104:184,1,104.999996795654,8|0,0:0|0:0,0:0:0:0:
344,128,32120,6,0,P|363:79|344:32,1,104.999996795654
256,272,32468,1,8,0:0:0:0:
167,32,32643,2,0,P|148:80|168:128,1,104.999996795654
360,200,32992,1,0,0:0:0:0:
360,200,33079,1,0,0:0:0:0:
360,200,33166,1,8,0:0:0:0:
152,200,33340,1,0,0:0:0:0:
424,272,33515,6,0,L|408:384,1,104.999996795654
102,375,33864,2,0,L|88:272,1,104.999996795654,8|0,0:0|0:0,0:0:0:0:
328,192,34213,1,0,0:0:0:0:
200,320,34387,2,0,L|304:328,2,104.999996795654,0|8|0,0:0|0:0|0:0,0:0:0:0:
64,312,34910,5,0,0:0:0:0:
152,224,35085,2,0,P|176:168|160:120,1,104.999996795654,0|8,0:0|0:0,0:0:0:0:
256,264,35433,1,0,0:0:0:0:
346,127,35608,2,0,P|336:178|360:224,1,104.999996795654
448,328,35957,2,0,L|336:344,1,104.999996795654,8|0,0:0|0:0,0:0:0:0:
240,296,36218,1,8,0:0:0:0:
240,296,36306,6,0,L|264:184,1,104.999996795654
390,51,36654,2,0,P|340:39|293:60,1,104.999996795654,8|0,0:0|0:0,0:0:0:0:
176,128,37003,1,0,0:0:0:0:
368,208,37178,1,0,0:0:0:0:
144,208,37352,1,8,0:0:0:0:
336,128,37527,1,0,0:0:0:0:
176,288,37701,5,0,0:0:0:0:
312,344,37875,2,0,L|424:328,2,104.999996795654,0|8|0,0:0|0:0|0:0,0:0:0:0:
96,248,38399,2,0,P|120:192|104:152,1,104.999996795654
48,80,38660,1,0,0:0:0:0:
48,80,38747,2,0,L|152:64,1,104.999996795654,8|0,0:0|0:0,0:0:0:0:
464,80,39096,6,0,L|360:64,1,104.999996795654
184,144,39445,1,8,0:0:0:0:
328,144,39620,1,0,0:0:0:0:
120,208,39794,2,0,P|96:256|112:312,1,104.999996795654
184,368,40143,2,0,P|208:320|192:264,1,104.999996795654,8|0,0:0|0:0,0:0:0:0:
256,200,40492,6,0,L|360:208,1,104.999996795654
472,336,40840,2,0,L|368:344,1,104.999996795654,8|0,0:0|0:0,0:0:0:0:
280,352,41189,1,0,0:0:0:0:
456,216,41364,1,0,0:0:0:0:
360,120,41538,2,0,L|376:8,1,104.999996795654,8|0,0:0|0:0,0:0:0:0:
456,56,41800,1,8,0:0:0:0:
456,56,41887,6,0,L|441:159,1,104.999996795654
71,159,42236,2,0,L|56:56,1,104.999996795654,8|0,0:0|0:0,0:0:0:0:
368,208,42585,2,0,P|312:200|264:224,1,104.999996795654
144,88,42933,2,0,P|200:96|248:72,1,104.999996795654,8|0,0:0|0:0,0:0:0:0:
328,16,43195,1,0,0:0:0:0:
328,16,43282,5,2,0:0:0:0:
288,128,43457,2,0,L|304:224,1,80,2|2,0:0|0:0,0:0:0:0:
208,344,43806,1,2,0:0:0:0:
224,256,43980,2,2,P|304:296|393:207,1,227.499989585877
352,136,44678,6,0,L|368:16,1,100
146,36,45027,2,0,L|160:136,1,100,8|0,0:0|0:0,0:0:0:0:
304,200,45375,2,0,P|368:216|408:192,1,100
464,128,45637,1,0,0:0:0:0:
464,128,45724,2,0,L|448:240,1,100,8|0,0:0|0:0,0:0:0:0:
384,328,46073,6,0,L|496:352,1,100
256,360,46422,1,8,0:0:0:0:
30,348,46596,6,0,L|232:306,1,200
312,232,47032,1,0,0:0:0:0:
312,232,47120,2,0,P|336:184|312:136,1,100,8|0,0:0|0:0,0:0:0:0:
168,56,47468,5,0,0:0:0:0:
344,56,47643,1,0,0:0:0:0:
191,143,47817,2,0,P|176:189|200:232,1,100,8|0,0:0|0:0,0:0:0:0:
336,320,48166,2,0,L|440:304,1,100
176,320,48515,2,0,L|72:304,1,100,8|0,0:0|0:0,0:0:0:0:
256,232,48864,5,0,0:0:0:0:
152,64,49038,2,0,P|136:112|152:160,1,100,0|8,0:0|0:0,0:0:0:0:
361,157,49387,2,0,P|375:110|360:64,1,100
112,224,49736,1,0,0:0:0:0:
150,243,49823,1,0,0:0:0:0:
191,230,49910,2,0,L|294:239,1,100,8|0,0:0|0:0,0:0:0:0:
464,328,50259,6,0,L|360:337,1,100
48,328,50608,2,0,L|152:337,1,100,8|0,0:0|0:0,0:0:0:0:
328,224,50957,2,0,P|349:169|336:128,1,100
304,48,51218,1,0,0:0:0:0:
304,48,51306,2,0,L|408:56,1,100,8|0,0:0|0:0,0:0:0:0:
478,144,51654,6,0,P|457:199|470:240,1,100
344,344,52003,1,8,0:0:0:0:
48,304,52178,2,0,L|208:288,1,150
253,343,52527,2,0,P|276:288|256:240,1,100,0|8,0:0|0:0,0:0:0:0:
168,176,52875,1,0,0:0:0:0:
328,144,53050,6,0,L|432:128,1,100
184,144,53399,2,0,L|80:128,1,100,8|0,0:0|0:0,0:0:0:0:
344,224,53747,1,0,0:0:0:0:
144,304,53922,1,0,0:0:0:0:
368,304,54096,1,8,0:0:0:0:
168,224,54271,1,0,0:0:0:0:
256,352,54445,5,0,0:0:0:0:
40,256,54620,2,0,L|56:144,1,100,0|8,0:0|0:0,0:0:0:0:
256,48,54968,1,0,0:0:0:0:
461,168,55143,2,0,L|338:179,1,112.500004291535
344,208,55492,2,0,L|336:264,3,37.5000014305115,8|0|0|0,0:0|0:0|0:0|0:0,0:0:0:0:
399,333,55840,6,0,L|311:341,1,75.0000028610231
296,333,56102,1,0,0:0:0:0:
275,311,56189,1,8,0:0:0:0:
267,283,56277,1,0,0:0:0:0:
275,254,56364,1,0,0:0:0:0:
296,232,56451,1,0,0:0:0:0:
303,203,56538,6,0,P|296:168|240:152,1,75.0000028610231
236,151,56799,1,0,0:0:0:0:
210,166,56886,1,8,0:0:0:0:
197,194,56974,1,0,0:0:0:0:
198,224,57061,1,0,0:0:0:0:
215,248,57148,1,0,0:0:0:0:
192,280,57236,6,0,L|136:272,3,37.5000014305115
240,352,57585,2,0,L|288:344,3,37.5000014305115,8|0|0|0,0:0|0:0|0:0|0:0,0:0:0:0:
352,328,57933,6,0,P|368:280|360:256,1,75.0000028610231
304,192,58282,2,0,P|297:155|313:122,1,75.0000028610231,8|0,0:0|0:0,0:0:0:0:
376,56,58631,5,0,0:0:0:0:
376,56,58718,1,0,0:0:0:0:
376,56,58806,1,0,0:0:0:0:
136,56,58980,5,8,0:0:0:0:
136,56,59067,1,0,0:0:0:0:
136,56,59155,1,0,0:0:0:0:
136,56,59242,1,0,0:0:0:0:
136,56,59329,2,0,L|128:144,1,85.0000016212464
125,169,59590,1,0,0:0:0:0:
121,200,59678,1,8,0:0:0:0:
118,232,59765,1,0,0:0:0:0:
114,264,59852,1,0,0:0:0:0:
111,296,59939,1,0,0:0:0:0:
107,327,60027,6,0,L|203:310,1,85.0000016212464,2|0,0:0|0:0,0:0:0:0:
251,346,60288,2,0,L|347:330,1,85.0000016212464,2|0,0:0|0:0,0:0:0:0:
398,363,60550,1,2,0:0:0:0:
464,248,60724,2,0,B|416:168|504:160|456:80,1,170.000003242493
176,128,61422,6,0,L|48:112,1,100
336,128,61771,2,0,L|464:112,1,100,8|0,0:0|0:0,0:0:0:0:
200,216,62120,2,0,P|216:264|200:312,1,100
128,352,62381,1,0,0:0:0:0:
128,352,62468,2,0,L|16:336,1,100,8|0,0:0|0:0,0:0:0:0:
283,270,62817,6,0,L|381:284,1,100
440,184,63166,1,8,0:0:0:0:
176,16,63340,2,0,L|152:224,1,200
80,288,63777,1,0,0:0:0:0:
80,288,63864,2,0,P|128:320|176:320,1,100,8|0,0:0|0:0,0:0:0:0:
361,214,64213,5,0,0:0:0:0:
153,214,64387,1,0,0:0:0:0:
432,288,64561,2,0,P|384:320|336:320,1,100,8|0,0:0|0:0,0:0:0:0:
336,48,64910,2,0,L|320:146,1,100
191,146,65259,2,0,L|176:48,1,100,8|0,0:0|0:0,0:0:0:0:
352,240,65608,5,0,0:0:0:0:
160,240,65782,2,0,P|144:288|159:334,1,100,0|8,0:0|0:0,0:0:0:0:
353,333,66131,1,0,0:0:0:0:
184,144,66306,2,0,L|80:128,1,100
328,144,66567,1,0,0:0:0:0:
328,144,66654,2,0,L|432:128,1,100,8|0,0:0|0:0,0:0:0:0:
256,56,67003,5,0,0:0:0:0:
256,224,67178,1,0,0:0:0:0:
168,296,67352,2,0,P|120:312|72:296,1,100,8|0,0:0|0:0,0:0:0:0:
344,296,67701,2,0,P|392:280|440:296,1,100
352,160,68050,2,0,L|368:56,1,100,8|0,0:0|0:0,0:0:0:0:
144,61,68399,6,0,L|160:160,1,100
256,104,68747,1,8,0:0:0:0:
205,255,68922,2,0,P|257:324|309:255,1,200
120,208,69445,1,8,0:0:0:0:
392,208,69620,1,0,0:0:0:0:
176,304,69794,6,0,L|64:320,1,100
336,304,70143,2,0,L|448:320,1,100,8|0,0:0|0:0,0:0:0:0:
360,128,70492,1,0,0:0:0:0:
120,216,70666,1,0,0:0:0:0:
392,216,70840,1,8,0:0:0:0:
152,128,71015,1,0,0:0:0:0:
256,304,71189,5,0,0:0:0:0:
120,216,71364,2,0,L|104:320,1,100,0|8,0:0|0:0,0:0:0:0:
407,314,71713,1,0,0:0:0:0:
256,72,71887,2,0,B|232:128|280:160|255:222,1,150.000005722046,0|8,0:0|0:0,0:0:0:0:
384,288,72585,5,0,0:0:0:0:
413,281,72672,1,0,0:0:0:0:
434,259,72759,1,0,0:0:0:0:
442,231,72847,1,0,0:0:0:0:
434,202,72934,1,8,0:0:0:0:
413,180,73021,1,0,0:0:0:0:
383,169,73108,1,0,0:0:0:0:
353,176,73195,1,0,0:0:0:0:
328,200,73282,6,0,P|296:224|256:224,1,75.0000028610231
232,208,73544,1,0,0:0:0:0:
208,184,73631,1,8,0:0:0:0:
175,176,73718,1,0,0:0:0:0:
142,184,73805,1,0,0:0:0:0:
119,208,73893,1,0,0:0:0:0:
110,241,73980,6,0,L|120:296,3,37.5000014305115
192,352,74329,2,0,L|200:304,3,37.5000014305115,8|0|0|0,0:0|0:0|0:0|0:0,0:0:0:0:
296,240,74678,6,0,L|400:248,1,75.0000028610231
464,344,75027,2,0,L|389:338,1,75.0000028610231,8|0,0:0|0:0,0:0:0:0:
296,160,75375,5,0,0:0:0:0:
320,152,75463,1,0,0:0:0:0:
344,144,75550,1,0,0:0:0:0:
368,136,75637,1,0,0:0:0:0:
392,128,75724,1,8,0:0:0:0:
416,120,75811,1,0,0:0:0:0:
440,112,75899,1,0,0:0:0:0:
464,104,75986,1,0,0:0:0:0:
488,96,76073,6,0,L|496:56,1,37.5000014305115
400,32,76247,2,0,L|408:72,1,37.5000014305115
312,96,76422,2,0,L|320:56,1,37.5000014305115,8|0,0:0|0:0,0:0:0:0:
224,32,76596,2,0,L|232:72,1,37.5000014305115
152,96,76771,6,0,L|104:88,1,37.5000014305115,2|2,0:0|0:0,0:0:0:0:
208,232,77032,1,2,0:0:0:0:
244,224,77120,1,2,0:0:0:0:
24,64,77294,1,2,0:0:0:0:
32,104,77381,1,2,0:0:0:0:
40,144,77468,2,0,P|64:184|136:192,1,112.500004291535,2|0,0:0|0:0,0:0:0:0:
160,184,77817,5,4,0:0:0:0:
200,168,77904,1,4,0:0:0:0:
240,152,77992,1,4,0:0:0:0:
280,136,78079,1,4,0:0:0:0:
256,192,78166,12,0,79561,0:0:0:0:
216,160,79736,5,0,0:0:0:0:
192,152,79824,1,0,0:0:0:0:
168,144,79911,1,0,0:0:0:0:
144,136,79998,1,0,0:0:0:0:
120,128,80085,1,0,0:0:0:0:
96,120,80172,1,0,0:0:0:0:
72,112,80260,1,0,0:0:0:0:
48,104,80347,5,0,0:0:0:0:
40,128,80433,1,0,0:0:0:0:
32,152,80521,1,0,0:0:0:0:
40,176,80608,1,0,0:0:0:0:
48,200,80695,1,0,0:0:0:0:
40,224,80782,1,0,0:0:0:0:
32,248,80870,1,0,0:0:0:0:
40,272,80957,6,0,L|128:280,1,80,4|0,0:0|0:0,0:0:0:0:
248,328,81306,2,0,L|160:336,1,80
288,264,81654,2,0,L|376:272,1,80
496,320,82003,2,0,L|408:328,1,80
445,148,82352,5,0,0:0:0:0:
465,71,82527,1,0,0:0:0:0:
388,50,82701,1,0,0:0:0:0:
368,128,82875,1,0,0:0:0:0:
280,176,83050,1,0,0:0:0:0:
260,98,83224,1,0,0:0:0:0:
183,119,83399,1,0,0:0:0:0:
203,196,83573,1,0,0:0:0:0:
96,72,83747,6,0,L|176:56,1,80,4|0,0:0|0:0,0:0:0:0:
28,181,84096,2,0,L|108:165,1,80
112,264,84445,2,0,L|192:248,1,80
44,373,84794,2,0,L|124:357,1,80
232,336,85143,5,0,0:0:0:0:
265,212,85318,1,0,0:0:0:0:
388,245,85492,1,0,0:0:0:0:
355,369,85666,1,0,0:0:0:0:
272,291,85840,2,0,L|264:203,1,80,0|2,0:0|0:0,0:0:0:0:
336,144,86189,1,2,0:0:0:0:
24,64,86538,6,0,L|112:48,1,80,4|0,0:0|0:0,0:0:0:0:
200,160,86887,2,0,L|112:144,1,80
280,64,87236,2,0,L|368:48,1,80
456,160,87585,2,0,L|368:144,1,80
444,31,87933,5,0,0:0:0:0:
328,64,88108,1,0,0:0:0:0:
362,180,88282,1,0,0:0:0:0:
477,146,88457,1,0,0:0:0:0:
288,224,88631,1,0,0:0:0:0:
404,257,88806,1,0,0:0:0:0:
370,373,88980,1,0,0:0:0:0:
255,339,89155,1,0,0:0:0:0:
58,325,89329,6,0,L|146:301,1,80,4|0,0:0|0:0,0:0:0:0:
240,184,89678,2,0,L|162:205,1,80
24,144,90027,2,0,L|112:120,1,80
206,3,90376,2,0,L|128:24,1,80
304,24,90724,5,0,0:0:0:0:
408,48,90899,1,0,0:0:0:0:
280,128,91073,1,0,0:0:0:0:
384,152,91248,1,0,0:0:0:0:
192,200,91422,1,0,0:0:0:0:
448,320,91596,2,0,L|360:328,2,80
256,360,92120,6,0,P|289:287|256:218,1,160
184,288,92643,1,0,0:0:0:0:
118,164,92817,2,0,P|86:94|120:24,1,160
184,96,93340,1,0,0:0:0:0:
56,232,93515,6,0,L|72:320,1,80
184,232,93864,2,0,L|198:153,1,80
256,64,94213,1,0,0:0:0:0:
256,64,94300,1,0,0:0:0:0:
256,64,94387,1,0,0:0:0:0:
313,153,94561,2,0,L|328:232,1,80
458,227,94910,6,0,L|426:387,1,160
256,312,95433,1,0,0:0:0:0:
85,383,95608,2,0,L|54:227,1,160
176,248,96131,1,0,0:0:0:0:
80,136,96306,6,0,P|119:124|157:137,1,80
431,135,96654,2,0,P|394:123|356:135,1,80
256,192,97003,1,0,0:0:0:0:
256,80,97178,1,0,0:0:0:0:
160,264,97352,1,0,0:0:0:0:
352,264,97527,1,0,0:0:0:0:
256,296,97701,6,0,L|240:376,1,69.9999978637696,4|0,0:0|0:0,0:0:0:0:
146,332,98050,2,0,L|159:263,1,69.9999978637696
176,184,98399,1,0,0:0:0:0:
104,128,98573,2,0,P|72:120|32:128,2,69.9999978637696
64,224,99096,5,0,0:0:0:0:
192,96,99271,2,0,P|224:104|264:96,2,69.9999978637696
128,40,99794,1,0,0:0:0:0:
184,176,99968,1,0,0:0:0:0:
256,80,100143,1,0,0:0:0:0:
320,176,100317,1,0,0:0:0:0:
384,40,100492,6,0,L|456:48,1,69.9999978637696
389,183,100840,2,0,L|319:175,1,69.9999978637696
464,128,101189,1,0,0:0:0:0:
480,240,101364,2,0,P|489:275|480:312,2,69.9999978637696
392,280,101887,6,0,L|320:272,1,69.9999978637696
272,352,102236,2,0,L|200:344,1,69.9999978637696
192,256,102585,2,0,L|120:248,1,69.9999978637696
72,328,102934,2,0,L|0:320,1,69.9999978637696
48,208,103282,6,0,L|40:136,1,69.9999978637696
112,50,103631,2,0,L|120:120,1,69.9999978637696
128,200,103980,1,0,0:0:0:0:
200,144,104154,2,0,P|232:128|264:136,2,69.9999978637696
176,264,104678,6,0,L|168:360,1,80
342,343,105027,2,0,L|336:264,1,80
284,190,105375,2,0,P|321:175|366:183,1,80
496,288,105724,2,0,P|459:303|414:295,1,80
450,209,106073,6,0,L|459:115,1,89.9999972534181
385,51,106422,2,0,L|376:144,1,89.9999972534181
366,227,106771,1,0,0:0:0:0:
280,178,106945,2,0,P|240:165|194:180,2,89.9999972534181
240,264,107468,5,0,0:0:0:0:
240,264,108166,5,2,0:0:0:0:
216,272,108253,1,0,0:0:0:0:
192,280,108340,1,2,0:0:0:0:
168,288,108428,1,0,0:0:0:0:
144,296,108515,1,0,0:0:0:0:
120,304,108602,1,2,0:0:0:0:
96,312,108689,1,0,0:0:0:0:
72,320,108777,1,0,0:0:0:0:
48,328,108864,6,0,P|62:268|48:224,1,110.000003356934
208,56,109213,2,0,P|193:108|207:160,1,110.000003356934,8|0,0:0|0:0,0:0:0:0:
344,224,109561,2,0,L|456:208,1,110.000003356934
328,344,109910,1,8,0:0:0:0:
184,280,110085,1,0,0:0:0:0:
328,216,110259,6,0,L|344:104,1,110.000003356934
169,107,110608,2,0,L|184:215,1,110.000003356934,8|0,0:0|0:0,0:0:0:0:
256,280,110870,1,0,0:0:0:0:
256,280,110957,2,0,P|208:312|152:304,1,110.000003356934
0,240,111306,2,0,P|48:208|104:216,1,110.000003356934,8|0,0:0|0:0,0:0:0:0:
192,120,111654,6,0,L|80:104,1,110.000003356934
256,40,112003,1,8,0:0:0:0:
256,200,112178,1,0,0:0:0:0:
320,120,112352,2,0,L|432:104,1,110.000003356934
309,268,112701,2,0,P|256:290|200:264,1,110.000003356934,8|0,0:0|0:0,0:0:0:0:
392,344,113050,6,0,L|408:232,1,110.000003356934
104,235,113399,2,0,L|120:344,1,110.000003356934,8|0,0:0|0:0,0:0:0:0:
200,264,113660,1,0,0:0:0:0:
200,264,113747,2,0,P|208:208|176:160,1,110.000003356934
24,104,114096,2,0,L|136:88,1,110.000003356934,8|0,0:0|0:0,0:0:0:0:
488,104,114445,6,0,L|376:88,1,110.000003356934
312,192,114794,2,0,P|344:240|336:296,1,110.000003356934,8|0,0:0|0:0,0:0:0:0:
172,289,115143,2,0,P|168:236|200:192,1,110.000003356934
256,352,115492,1,8,0:0:0:0:
80,320,115666,1,0,0:0:0:0:
136,208,115840,6,0,L|120:96,1,110.000003356934
391,99,116189,2,0,L|376:208,1,110.000003356934,8|0,0:0|0:0,0:0:0:0:
304,248,116451,1,0,0:0:0:0:
304,248,116538,2,0,P|344:288|408:288,1,110.000003356934
200,352,116887,2,0,L|88:336,1,110.000003356934,8|0,0:0|0:0,0:0:0:0:
0,232,117236,6,0,L|112:216,1,110.000003356934
200,88,117585,1,8,0:0:0:0:
256,264,117759,1,0,0:0:0:0:
312,88,117933,1,0,0:0:0:0:
336,312,118108,2,0,P|352:260|325:204,1,110.000003356934,0|8,0:0|0:0,0:0:0:0:
180,210,118457,2,0,P|159:260|176:312,1,110.000003356934
304,384,118806,5,0,0:0:0:0:
256,176,118980,1,8,0:0:0:0:
464,240,119154,1,0,0:0:0:0:
192,336,119329,2,0,L|80:320,1,110.000003356934
320,336,119678,2,0,L|432:320,1,110.000003356934,8|0,0:0|0:0,0:0:0:0:
168,240,120027,5,0,0:0:0:0:
344,240,120201,1,0,0:0:0:0:
192,144,120375,2,0,L|176:32,1,110.000003356934,8|0,0:0|0:0,0:0:0:0:
335,35,120724,2,0,L|320:144,1,110.000003356934
440,200,121073,1,8,0:0:0:0:
272,248,121247,1,0,0:0:0:0:
336,344,121422,6,0,P|392:320|440:336,1,110.000003356934
176,344,121771,2,0,P|120:320|72:336,1,110.000003356934,8|0,0:0|0:0,0:0:0:0:
24,264,122032,1,0,0:0:0:0:
24,264,122120,2,0,L|32:144,1,110.000003356934
223,34,122468,2,0,L|216:144,1,110.000003356934,8|0,0:0|0:0,0:0:0:0:
40,64,122817,5,0,0:0:0:0:
152,208,122992,1,0,0:0:0:0:
256,144,123166,2,0,L|368:152,1,110.000003356934,8|0,0:0|0:0,0:0:0:0:
512,40,123515,2,0,L|400:48,1,110.000003356934
296,224,123864,2,0,P|328:272|312:328,1,110.000003356934,8|0,0:0|0:0,0:0:0:0:
176,352,124213,5,0,0:0:0:0:
216,184,124387,1,0,0:0:0:0:
344,288,124561,2,0,L|456:272,1,110.000003356934,8|0,0:0|0:0,0:0:0:0:
168,288,124823,1,0,0:0:0:0:
168,288,124910,2,0,L|56:272,1,110.000003356934
256,144,125259,2,0,B|272:91|239:80|256:32,1,110.000003356934,8|0,0:0|0:0,0:0:0:0:
384,224,125608,6,0,L|368:336,1,110.000003356934
143,332,125957,2,0,L|128:224,1,110.000003356934,8|0,0:0|0:0,0:0:0:0:
256,144,126306,1,0,0:0:0:0:
144,64,126480,2,0,P|88:56|48:88,2,110.000003356934,0|8|0,0:0|0:0|0:0,0:0:0:0:
256,224,127003,5,0,0:0:0:0:
368,64,127178,2,0,P|424:56|464:88,2,110.000003356934,0|8|0,0:0|0:0|0:0,0:0:0:0:
312,128,127614,1,0,0:0:0:0:
312,128,127701,2,0,L|328:240,1,110.000003356934
184,236,128050,2,0,L|200:128,1,110.000003356934,8|0,0:0|0:0,0:0:0:0:
320,336,128399,6,0,P|376:304|424:312,1,110.000003356934
192,336,128747,2,0,P|136:304|88:312,1,110.000003356934,8|0,0:0|0:0,0:0:0:0:
336,232,129096,1,0,0:0:0:0:
176,232,129271,1,0,0:0:0:0:
256,104,129445,1,8,0:0:0:0:
256,280,129620,1,0,0:0:0:0:
176,144,129794,5,0,0:0:0:0:
256,192,129968,2,0,L|345:184,1,89.9999972534181
512,336,130317,2,0,L|423:328,1,89.9999972534181,0|2,0:0|0:0,0:0:0:0:
388,323,130579,1,2,0:0:0:0:
380,291,130666,1,2,0:0:0:0:
372,259,130753,1,2,0:0:0:0:
364,227,130840,1,2,0:0:0:0:
356,195,130928,1,2,0:0:0:0:
348,163,131015,1,2,0:0:0:0:
340,131,131102,1,2,0:0:0:0:
332,99,131189,6,0,P|384:80|434:96,1,110.000003356934
180,99,131538,2,0,P|129:80|77:96,1,110.000003356934,8|0,0:0|0:0,0:0:0:0:
352,200,131887,1,0,0:0:0:0:
160,200,132061,1,0,0:0:0:0:
312,296,132236,2,0,L|432:288,1,110.000003356934,8|0,0:0|0:0,0:0:0:0:
207,351,132585,6,0,L|98:359,1,110.000003356934
256,232,132933,1,8,0:0:0:0:
176,48,133108,2,0,P|152:96|176:144,1,110.000003356934
336,143,133457,2,0,P|359:95|336:48,1,110.000003356934,0|8,0:0|0:0,0:0:0:0:
256,192,133806,1,0,0:0:0:0:
40,312,133980,6,0,L|160:328,1,110.000003356934
472,312,134329,2,0,L|352:328,1,110.000003356934,8|0,0:0|0:0,0:0:0:0:
184,240,134678,1,0,0:0:0:0:
312,120,134852,1,0,0:0:0:0:
256,312,135027,2,0,P|200:344|144:336,1,110.000003356934,8|0,0:0|0:0,0:0:0:0:
112,184,135375,6,0,L|128:72,1,110.000003356934
384,75,135724,2,0,L|400:184,1,110.000003356934,8|0,0:0|0:0,0:0:0:0:
336,248,135986,1,0,0:0:0:0:
336,248,136073,2,0,P|384:280|440:272,1,110.000003356934
256,352,136422,2,0,L|144:336,1,110.000003356934,8|0,0:0|0:0,0:0:0:0:
0,232,136771,6,0,L|112:216,1,110.000003356934
256,256,137120,1,8,0:0:0:0:
200,88,137294,1,0,0:0:0:0:
336,184,137468,2,0,P|368:232|360:288,1,110.000003356934
148,281,137817,2,0,P|144:228|176:184,1,110.000003356934,8|0,0:0|0:0,0:0:0:0:
328,360,138166,6,0,L|440:344,1,110.000003356934
256,256,138515,1,8,0:0:0:0:
184,360,138689,2,0,L|72:344,1,110.000003356934
256,168,139038,1,0,0:0:0:0:
376,280,139213,2,0,P|400:336|376:384,1,110.000003356934,8|0,0:0|0:0,0:0:0:0:
184,232,139561,6,0,L|64:248,1,110.000003356934
336,136,139910,1,8,0:0:0:0:
176,136,140085,1,0,0:0:0:0:
328,232,140259,2,0,L|448:216,1,110.000003356934
256,48,140608,2,0,P|280:91|256:144,1,110.000003356934,8|0,0:0|0:0,0:0:0:0:
112,88,140957,5,0,0:0:0:0:
208,264,141131,1,0,0:0:0:0:
328,192,141306,1,8,0:0:0:0:
168,152,141480,2,0,L|152:264,1,110.000003356934
359,260,141829,2,0,L|344:152,1,110.000003356934,0|8,0:0|0:0,0:0:0:0:
256,56,142178,1,0,0:0:0:0:
168,256,142352,6,0,P|120:288|64:280,1,110.000003356934
344,256,142701,2,0,P|392:288|448:280,1,110.000003356934,8|0,0:0|0:0,0:0:0:0:
320,160,143050,2,0,L|336:48,1,110.000003356934
176,51,143399,2,0,L|192:160,1,110.000003356934,8|0,0:0|0:0,0:0:0:0:
80,200,143747,5,0,0:0:0:0:
256,296,143922,1,0,0:0:0:0:
328,120,144096,2,0,L|440:104,1,110.000003356934,8|0,0:0|0:0,0:0:0:0:
256,232,144445,1,0,0:0:0:0:
256,264,144532,1,0,0:0:0:0:
256,296,144620,1,0,0:0:0:0:
184,120,144794,2,0,L|72:104,1,110.000003356934,8|0,0:0|0:0,0:0:0:0:
336,248,145143,6,0,P|368:304|352:352,1,110.000003356934
154,344,145492,2,0,P|145:292|176:248,1,110.000003356934,8|0,0:0|0:0,0:0:0:0:
352,152,145840,1,0,0:0:0:0:
160,152,146015,1,0,0:0:0:0:
328,64,146189,2,0,P|386:67|426:106,1,110.000003356934,8|0,0:0|0:0,0:0:0:0:
208,240,146538,6,0,L|104:248,1,100
304,240,146887,2,0,L|408:248,1,100
176,320,147236,1,0,0:0:0:0:
336,320,147410,1,0,0:0:0:0:
256,360,147585,1,0,0:0:0:0:
296,192,147759,1,0,0:0:0:0:
104,280,147933,6,0,L|120:176,1,100
264,16,148282,2,0,L|248:120,1,100,8|0,0:0|0:0,0:0:0:0:
368,184,148631,1,0,0:0:0:0:
192,288,148806,2,0,L|88:272,2,100,0|8|0,0:0|0:0|0:0,0:0:0:0:
256,128,149329,5,0,0:0:0:0:
320,288,149503,2,0,L|424:272,2,100,0|8|0,0:0|0:0|0:0,0:0:0:0:
168,176,150027,2,0,P|184:128|168:80,1,100
342,82,150375,2,0,P|328:129|344:176,1,100,8|0,0:0|0:0,0:0:0:0:
304,248,150637,1,8,0:0:0:0:
304,248,150724,6,0,L|408:264,1,100
256,352,151073,1,8,0:0:0:0:
208,144,151247,1,0,0:0:0:0:
80,296,151422,2,0,P|128:320|176:304,1,100
312,176,151771,2,0,L|304:72,1,100,8|0,0:0|0:0,0:0:0:0:
136,240,152120,5,0,0:0:0:0:
207,36,152294,2,0,L|200:136,1,100,0|8,0:0|0:0,0:0:0:0:
376,240,152643,1,0,0:0:0:0:
256,336,152817,2,0,L|144:320,1,100
0,232,153166,2,0,L|112:216,1,100,8|0,0:0|0:0,0:0:0:0:
256,112,153515,5,0,0:0:0:0:
144,32,153689,1,0,0:0:0:0:
192,186,153864,2,0,P|239:216|286:214,1,100,8|0,0:0|0:0,0:0:0:0:
368,32,154213,2,0,L|352:144,1,100
440,344,154561,2,0,L|456:232,1,100,8|0,0:0|0:0,0:0:0:0:
256,272,154910,6,0,P|305:269|348:292,1,100
168,192,155259,1,8,0:0:0:0:
344,192,155433,1,0,0:0:0:0:
256,352,155608,2,0,P|206:354|163:331,1,100
256,144,155957,1,8,0:0:0:0:
344,296,156131,1,0,0:0:0:0:
104,248,156306,6,0,L|120:144,1,100
336,56,156654,1,8,0:0:0:0:
176,56,156829,1,0,0:0:0:0:
255,191,157003,2,0,L|157:176,1,100
392,128,157352,2,0,L|496:144,1,100,8|0,0:0|0:0,0:0:0:0:
256,296,157701,5,0,0:0:0:0:
360,344,157875,2,0,P|376:296|360:248,1,100,0|8,0:0|0:0,0:0:0:0:
150,250,158224,2,0,P|136:297|152:344,1,100
336,168,158573,1,0,0:0:0:0:
176,168,158747,1,8,0:0:0:0:
256,296,158922,1,0,0:0:0:0:
256,88,159096,6,0,L|144:72,1,100
0,192,159445,2,0,L|98:206,1,100,8|0,0:0|0:0,0:0:0:0:
184,344,159794,1,0,0:0:0:0:
256,192,159968,1,0,0:0:0:0:
328,344,160143,1,8,0:0:0:0:
136,224,160317,1,0,0:0:0:0:
376,224,160492,6,0,L|392:120,1,100
192,40,160840,2,0,L|207:138,1,100,8|0,0:0|0:0,0:0:0:0:
152,208,161102,1,0,0:0:0:0:
152,208,161189,2,0,P|104:184|56:192,1,100
157,345,161538,2,0,L|261:329,1,100,8|0,0:0|0:0,0:0:0:0:
434,247,161887,6,0,L|336:232,1,100
78,247,162236,2,0,L|176:232,1,100,8|0,0:0|0:0,0:0:0:0:
344,128,162585,1,0,0:0:0:0:
168,128,162759,1,0,0:0:0:0:
306,52,162933,2,0,P|354:44|402:68,1,100,8|0,0:0|0:0,0:0:0:0:
192,216,163282,6,0,L|80:208,1,100
256,104,163631,1,8,0:0:0:0:
256,312,163806,1,0,0:0:0:0:
320,216,163980,2,0,L|432:208,1,100
480,136,164242,1,0,0:0:0:0:
480,136,164329,2,0,P|496:80|472:40,1,100,8|0,0:0|0:0,0:0:0:0:
280,136,164678,6,0,L|168:128,1,100
40,192,165027,1,8,0:0:0:0:
160,40,165201,1,0,0:0:0:0:
256,232,165375,2,0,L|360:240,1,100
136,336,165724,2,0,L|36:328,1,100,8|0,0:0|0:0,0:0:0:0:
344,208,166073,5,0,0:0:0:0:
168,208,166247,1,0,0:0:0:0:
320,296,166422,2,0,P|368:296|416:264,1,100,8|0,0:0|0:0,0:0:0:0:
472,208,166683,1,0,0:0:0:0:
472,208,166771,2,0,L|464:96,1,100
264,32,167120,2,0,L|256:131,1,100,8|0,0:0|0:0,0:0:0:0:
96,248,167468,6,0,P|144:232|192:248,1,100
344,328,167817,1,8,0:0:0:0:
168,328,167992,1,0,0:0:0:0:
312,192,168166,2,0,L|328:80,1,100
185,93,168515,2,0,L|200:192,1,100,8|0,0:0|0:0,0:0:0:0:
368,272,168864,5,0,0:0:0:0:
256,344,169038,2,0,L|160:328,1,89.9999972534181
64,352,169387,1,0,0:0:0:0:
104,240,169561,1,2,0:0:0:0:
96,216,169649,1,2,0:0:0:0:
88,192,169736,1,2,0:0:0:0:
80,168,169823,1,2,0:0:0:0:
72,144,169910,1,2,0:0:0:0:
80,120,169997,1,2,0:0:0:0:
88,96,170085,1,2,0:0:0:0:
96,72,170172,1,2,0:0:0:0:
104,48,170259,6,0,L|200:56,1,89.9999972534181
408,48,170608,2,0,L|312:56,1,89.9999972534181,8|0,0:0|0:0,0:0:0:0:
176,144,170957,1,0,0:0:0:0:
336,144,171131,1,0,0:0:0:0:
256,24,171306,2,0,L|256:128,1,89.9999972534181,8|0,0:0|0:0,0:0:0:0:
185,270,171654,6,0,L|192:360,1,89.9999972534181
176,144,172003,1,8,0:0:0:0:
320,280,172178,2,0,P|368:296|416:280,1,89.9999972534181
464,160,172527,2,0,L|472:56,2,89.9999972534181,0|8|0,0:0|0:0|0:0,0:0:0:0:
344,96,173050,5,0,0:0:0:0:
168,96,173224,1,0,0:0:0:0:
312,184,173399,2,0,P|368:192|408:168,1,89.9999972534181,8|0,0:0|0:0,0:0:0:0:
200,184,173747,2,0,P|144:192|104:168,1,89.9999972534181
312,312,174096,1,8,0:0:0:0:
256,104,174271,1,0,0:0:0:0:
128,272,174445,5,0,0:0:0:0:
336,232,174620,2,0,L|432:248,1,89.9999972534181,0|8,0:0|0:0,0:0:0:0:
512,112,174968,2,0,L|416:96,1,89.9999972534181
192,160,175317,1,0,0:0:0:0:
344,48,175492,1,8,0:0:0:0:
168,48,175666,1,0,0:0:0:0:
312,160,175840,6,0,P|361:169|406:148,1,89.9999972534181
376,272,176189,2,0,L|392:360,1,89.9999972534181,8|0,0:0|0:0,0:0:0:0:
120,360,176538,2,0,L|136:272,1,89.9999972534181
344,184,176887,1,8,0:0:0:0:
168,184,177061,1,0,0:0:0:0:
78,68,177236,6,0,P|120:40|168:40,1,89.9999972534181
256,216,177585,1,8,0:0:0:0:
384,112,177759,2,0,L|376:16,2,89.9999972534181
399,240,178282,1,8,0:0:0:0:
192,352,178457,1,0,0:0:0:0:
104,232,178631,6,0,L|120:136,1,89.9999972534181
256,48,178980,1,8,0:0:0:0:
256,224,179154,1,0,0:0:0:0:
393,143,179329,2,0,L|408:232,1,89.9999972534181
213,336,179678,2,0,P|256:348|301:336,1,89.9999972534181,8|0,0:0|0:0,0:0:0:0:
144,248,180027,6,0,L|40:232,1,89.9999972534181
368,248,180375,2,0,L|472:232,1,89.9999972534181,8|0,0:0|0:0,0:0:0:0:
256,144,180724,1,0,0:0:0:0:
248,112,180811,1,0,0:0:0:0:
240,80,180899,1,0,0:0:0:0:
416,32,181073,1,8,0:0:0:0:
408,64,181161,1,0,0:0:0:0:
400,96,181248,1,0,0:0:0:0:
392,128,181335,1,0,0:0:0:0:
384,160,181422,6,0,P|424:192|432:232,1,89.9999972534181
422,268,181683,1,0,0:0:0:0:
393,296,181771,1,8,0:0:0:0:
354,307,181858,1,0,0:0:0:0:
315,296,181945,1,0,0:0:0:0:
286,268,182032,1,0,0:0:0:0:
276,228,182120,5,0,0:0:0:0:
262,185,182207,1,0,0:0:0:0:
233,157,182294,1,0,0:0:0:0:
194,146,182381,1,0,0:0:0:0:
152,160,182468,2,0,L|144:304,1,134.999995880127,8|0,0:0|0:0,0:0:0:0:
144,336,182817,5,0,0:0:0:0:
104,325,182904,1,0,0:0:0:0:
76,296,182991,1,0,0:0:0:0:
65,257,183079,1,0,0:0:0:0:
76,218,183166,1,8,0:0:0:0:
87,179,183253,1,0,0:0:0:0:
76,140,183341,1,0,0:0:0:0:
48,112,183428,1,0,0:0:0:0:
9,101,183515,6,0,L|104:80,1,89.9999972534181
256,176,183864,2,0,L|161:197,1,89.9999972534181,8|0,0:0|0:0,0:0:0:0:
240,48,184213,6,0,L|335:27,1,89.9999972534181
366,17,184474,1,0,0:0:0:0:
405,28,184561,1,8,0:0:0:0:
434,56,184648,1,0,0:0:0:0:
444,95,184735,1,0,0:0:0:0:
434,135,184823,1,0,0:0:0:0:
405,163,184910,6,0,L|344:144,3,44.999998626709
325,137,185259,2,0,P|288:176|296:224,1,89.9999972534181,8|0,0:0|0:0,0:0:0:0:
464,312,185608,6,0,L|352:328,1,89.9999972534181,2|0,0:0|0:0,0:0:0:0:
332,301,185870,2,0,L|220:317,1,89.9999972534181,2|0,0:0|0:0,0:0:0:0:
198,292,186131,1,2,0:0:0:0:
56,336,186306,2,0,B|104:256|16:248|64:168,1,170.000003242493
320,96,187003,6,0,L|424:80,1,100
192,96,187352,2,0,L|88:80,1,100,8|0,0:0|0:0,0:0:0:0:
344,192,187701,1,0,0:0:0:0:
168,272,187875,1,0,0:0:0:0:
400,344,188050,2,0,P|424:296|400:248,1,100,8|0,0:0|0:0,0:0:0:0:
264,104,188399,6,0,P|240:152|264:200,1,100
424,152,188747,1,8,0:0:0:0:
312,332,188922,2,0,L|200:316,1,100
80,352,189271,1,0,0:0:0:0:
80,352,189358,1,0,0:0:0:0:
80,352,189445,1,8,0:0:0:0:
144,192,189620,1,0,0:0:0:0:
312,248,189794,6,0,L|424:232,1,100
200,248,190143,2,0,L|88:232,1,100,8|0,0:0|0:0,0:0:0:0:
352,104,190492,1,0,0:0:0:0:
256,312,190666,1,0,0:0:0:0:
160,168,190840,2,0,L|176:64,1,100,8|0,0:0|0:0,0:0:0:0:
336,69,191189,6,0,L|352:168,1,100
176,272,191538,1,8,0:0:0:0:
328,352,191713,1,0,0:0:0:0:
448,240,191887,2,0,P|464:192|448:144,1,100
376,96,192149,1,0,0:0:0:0:
376,96,192236,2,0,L|264:112,1,100,8|0,0:0|0:0,0:0:0:0:
80,184,192585,6,0,L|192:200,1,100
432,184,192933,2,0,L|320:200,1,100,8|0,0:0|0:0,0:0:0:0:
184,280,193282,2,0,P|160:328|168:376,1,100
345,372,193631,2,0,P|351:323|328:280,1,100,8|0,0:0|0:0,0:0:0:0:
208,112,193980,5,0,0:0:0:0:
384,64,194154,1,0,0:0:0:0:
296,208,194329,2,0,L|192:192,1,100,8|0,0:0|0:0,0:0:0:0:
80,32,194678,2,0,P|104:80|88:128,1,100
40,184,194939,1,0,0:0:0:0:
40,184,195027,2,0,L|56:296,1,100,8|0,0:0|0:0,0:0:0:0:
320,352,195375,6,0,L|424:328,1,100
192,352,195724,2,0,L|88:328,1,100,8|0,0:0|0:0,0:0:0:0:
352,240,196073,1,0,0:0:0:0:
160,240,196247,1,0,0:0:0:0:
256,88,196422,1,8,0:0:0:0:
256,288,196596,1,0,0:0:0:0:
160,128,196771,6,0,L|48:112,1,100
352,128,197120,2,0,L|464:112,1,100,8|0,0:0|0:0,0:0:0:0:
256,40,197468,1,0,0:0:0:0:
216,232,197643,1,0,0:0:0:0:
432,192,197817,2,0,P|456:240|448:288,1,100,8|0,0:0|0:0,0:0:0:0:
312,344,198166,5,0,0:0:0:0:
280,336,198253,1,0,0:0:0:0:
248,328,198340,1,0,0:0:0:0:
216,320,198428,1,0,0:0:0:0:
184,312,198515,1,8,0:0:0:0:
152,304,198602,1,0,0:0:0:0:
120,312,198689,1,0,0:0:0:0:
88,320,198777,1,0,0:0:0:0:
56,328,198864,6,0,L|72:224,1,100
78,196,199126,1,0,0:0:0:0:
116,186,199213,1,8,0:0:0:0:
145,158,199301,1,0,0:0:0:0:
155,119,199388,1,0,0:0:0:0:
145,80,199474,1,0,0:0:0:0:
116,52,199561,6,0,L|216:64,1,100
249,67,199823,1,0,0:0:0:0:
288,57,199911,1,8,0:0:0:0:
326,67,199998,1,0,0:0:0:0:
355,95,200085,1,0,0:0:0:0:
365,134,200172,1,0,0:0:0:0:
355,173,200259,6,0,L|255:161,1,100
368,336,200608,2,0,L|468:348,1,100,8|0,0:0|0:0,0:0:0:0:
496,192,200957,5,0,0:0:0:0:
355,245,201131,1,2,0:0:0:0:
312,257,201217,1,2,0:0:0:0:
280,289,201306,1,2,0:0:0:0:
268,332,201393,1,2,0:0:0:0:
280,376,201479,1,2,0:0:0:0:
160,320,201654,5,2,0:0:0:0:
150,278,201742,1,2,0:0:0:0:
140,239,201829,1,2,0:0:0:0:
130,197,201917,1,2,0:0:0:0:
120,155,202003,1,2,0:0:0:0:
96,61,202178,5,2,0:0:0:0:
135,51,202266,1,2,0:0:0:0:
173,61,202353,1,2,0:0:0:0:
202,89,202440,1,2,0:0:0:0:
212,128,202527,1,2,0:0:0:0:
328,192,202701,6,0,L|392:184,1,50,2|2,0:0|0:0,0:0:0:0:
261,134,202875,2,0,L|211:127,1,50,2|2,0:0|0:0,0:0:0:0:
320,80,203050,1,2,0:0:0:0:
462,165,203399,6,0,L|454:101,1,50,2|2,0:0|0:0,0:0:0:0:
406,59,203573,2,0,L|398:-5,1,50,2|2,0:0|0:0,0:0:0:0:
256,192,203747,12,0,205143,0:0:0:0:
384,192,205317,5,0,0:0:0:0:
360,200,205404,1,0,0:0:0:0:
336,208,205492,1,0,0:0:0:0:
312,216,205579,1,0,0:0:0:0:
288,224,205666,1,0,0:0:0:0:
264,216,205753,1,0,0:0:0:0:
240,208,205840,1,0,0:0:0:0:
216,200,205928,1,0,0:0:0:0:
192,208,206015,1,0,0:0:0:0:
168,216,206102,1,0,0:0:0:0:
144,208,206189,1,0,0:0:0:0:
120,200,206277,1,0,0:0:0:0:
96,192,206364,1,0,0:0:0:0:
72,200,206451,1,0,0:0:0:0:
48,208,206538,6,0,L|40:304,1,85.0000016212464
167,132,206887,2,0,L|160:48,1,85.0000016212464
352,48,207236,2,0,L|344:132,1,85.0000016212464
471,292,207585,2,0,L|464:208,1,85.0000016212464
256,344,207933,6,0,L|352:336,1,85.0000016212464
112,264,208282,2,0,L|16:256,1,85.0000016212464
171,336,208631,2,0,L|256:344,1,85.0000016212464
484,256,208980,2,0,L|400:264,1,85.0000016212464
336,160,209329,6,0,P|352:120|336:64,1,100
174,66,209678,2,0,P|159:113|176:160,1,100
416,248,210027,2,0,L|448:136,1,100
68,151,210375,2,0,L|96:248,1,100
256,320,210724,6,0,P|304:304|384:360,1,150,2|0,0:0|0:0,0:0:0:0:
392,384,211073,2,0,L|408:224,1,150,2|0,0:0|0:0,0:0:0:0:
408,208,211422,2,0,P|368:184|424:200,1,150,2|0,0:0|0:0,0:0:0:0:
456,168,211771,2,2,L|512:160,3,50
488,80,212120,6,0,L|368:64,1,112.500004291535
216,192,212468,2,0,L|336:176,1,112.500004291535,8|0,0:0|0:0,0:0:0:0:
144,104,212817,1,0,0:0:0:0:
288,40,212992,1,0,0:0:0:0:
208,280,213166,2,0,P|143:279|107:233,1,112.500004291535,8|0,0:0|0:0,0:0:0:0:
296,344,213515,6,0,L|416:328,1,112.500004291535
432,184,213864,1,8,0:0:0:0:
504,352,214038,1,0,0:0:0:0:
360,240,214213,2,0,P|336:176|352:136,1,112.500004291535
161,137,214561,2,0,P|176:190|152:240,1,112.500004291535,8|0,0:0|0:0,0:0:0:0:
320,64,214910,6,0,L|432:48,1,112.500004291535
192,64,215259,2,0,L|80:48,1,112.500004291535,8|0,0:0|0:0,0:0:0:0:
424,184,215608,1,0,0:0:0:0:
256,296,215782,1,0,0:0:0:0:
272,104,215957,2,0,P|224:152|168:144,1,112.500004291535,8|0,0:0|0:0,0:0:0:0:
104,248,216306,6,0,L|120:360,1,112.500004291535
392,360,216654,2,0,L|408:248,1,112.500004291535,8|0,0:0|0:0,0:0:0:0:
336,192,216916,1,0,0:0:0:0:
336,192,217003,2,0,P|280:152|240:160,1,112.500004291535
432,88,217352,1,8,0:0:0:0:
312,272,217527,1,0,0:0:0:0:
176,120,217701,6,0,L|64:104,1,112.500004291535
336,120,218050,2,0,L|448:104,1,112.500004291535,8|0,0:0|0:0,0:0:0:0:
152,224,218399,1,0,0:0:0:0:
360,224,218573,1,0,0:0:0:0:
216,384,218747,2,0,L|232:264,1,112.500004291535,8|0,0:0|0:0,0:0:0:0:
168,136,219096,6,0,P|200:80|184:32,1,112.500004291535
324,36,219445,2,0,P|313:90|344:136,1,112.500004291535,8|0,0:0|0:0,0:0:0:0:
424,112,219707,1,0,0:0:0:0:
424,112,219794,2,0,L|416:224,1,112.500004291535
304,256,220143,1,8,0:0:0:0:
496,344,220317,1,0,0:0:0:0:
340,183,220492,6,0,P|276:175|228:215,1,112.500004291535
112,344,220840,2,0,P|176:352|224:312,1,112.500004291535,8|0,0:0|0:0,0:0:0:0:
144,232,221189,1,0,0:0:0:0:
288,368,221364,1,0,0:0:0:0:
384,256,221538,2,0,L|376:144,1,112.500004291535,8|0,0:0|0:0,0:0:0:0:
320,56,221887,6,0,P|376:40|432:56,1,112.500004291535
192,56,222236,2,0,P|136:40|80:56,1,112.500004291535,8|0,0:0|0:0,0:0:0:0:
120,176,222585,2,0,L|104:296,1,112.500004291535
406,287,222933,2,0,L|392:176,1,112.500004291535,8|0,0:0|0:0,0:0:0:0:
256,344,223282,6,0,P|200:320|192:272,1,112.500004291535
256,112,223631,1,8,0:0:0:0:
320,272,223806,1,0,0:0:0:0:
160,144,223980,2,0,L|48:128,1,112.500004291535
352,144,224329,2,0,L|464:128,1,112.500004291535,8|0,0:0|0:0,0:0:0:0:
272,40,224678,6,0,P|224:80|216:136,1,112.500004291535
40,240,225027,2,0,L|152:256,1,112.500004291535,8|0,0:0|0:0,0:0:0:0:
208,312,225288,1,0,0:0:0:0:
208,312,225375,2,0,P|232:256|208:200,1,112.500004291535
264,368,225724,1,8,0:0:0:0:
312,192,225899,1,0,0:0:0:0:
448,304,226073,6,0,L|328:312,1,112.500004291535
199,184,226422,2,0,L|319:192,1,112.500004291535,8|0,0:0|0:0,0:0:0:0:
392,48,226771,2,0,P|424:96|416:160,1,112.500004291535
90,148,227120,2,0,P|88:93|120:48,1,112.500004291535,8|0,0:0|0:0,0:0:0:0:
192,72,227381,1,0,0:0:0:0:
192,72,227468,6,0,L|296:64,1,100
421,148,227817,2,0,L|321:155,1,100
91,148,228166,2,0,L|190:155,1,100
320,72,228515,2,0,L|220:64,1,100
368,232,228864,6,0,P|400:272|392:344,1,113.000000344849
113,331,229213,2,0,P|110:276|144:232,1,113.000000344849,8|0,0:0|0:0,0:0:0:0:
352,128,229561,1,0,0:0:0:0:
160,128,229736,1,0,0:0:0:0:
312,248,229910,2,0,L|328:360,1,113.000000344849,8|0,0:0|0:0,0:0:0:0:
88,192,230259,6,0,P|136:224|200:216,1,113.000000344849
296,48,230608,1,8,0:0:0:0:
416,192,230782,2,0,L|400:312,1,113.000000344849
110,304,231131,2,0,L|96:192,1,113.000000344849,0|8,0:0|0:0,0:0:0:0:
256,120,231480,1,0,0:0:0:0:
152,56,231654,6,0,P|96:48|48:80,1,113.000000344849
360,56,232003,2,0,P|416:48|464:80,1,113.000000344849,8|0,0:0|0:0,0:0:0:0:
304,200,232352,2,0,L|320:320,1,113.000000344849
424,359,232701,1,8,0:0:0:0:
488,232,232875,1,0,0:0:0:0:
192,312,233050,6,0,P|144:280|88:280,1,113.000000344849
318,312,233399,2,0,P|366:280|422:280,1,113.000000344849,8|0,0:0|0:0,0:0:0:0:
496,312,233660,1,0,0:0:0:0:
496,312,233747,2,0,L|488:192,1,113.000000344849
304,128,234096,2,0,L|312:16,1,113.000000344849,8|0,0:0|0:0,0:0:0:0:
416,192,234445,5,0,0:0:0:0:
200,256,234620,1,0,0:0:0:0:
176,80,234794,2,0,P|120:59|56:88,1,113.000000344849,8|0,0:0|0:0,0:0:0:0:
320,232,235143,2,0,L|304:360,1,113.000000344849
104,261,235492,2,0,L|118:148,1,113.000000344849,8|0,0:0|0:0,0:0:0:0:
336,64,235840,5,0,0:0:0:0:
176,64,236015,1,0,0:0:0:0:
352,184,236189,2,0,L|472:168,1,113.000000344849,8|0,0:0|0:0,0:0:0:0:
160,184,236538,2,0,L|40:168,1,113.000000344849
320,272,236887,2,0,P|344:320|320:384,1,113.000000344849,8|0,0:0|0:0,0:0:0:0:
183,374,237236,6,0,P|167:321|192:272,1,113.000000344849
368,176,237585,1,8,0:0:0:0:
144,176,237759,1,0,0:0:0:0:
336,96,237933,2,0,L|448:80,1,113.000000344849
400,264,238282,2,0,L|288:248,1,113.000000344849,8|0,0:0|0:0,0:0:0:0:
168,336,238631,5,0,0:0:0:0:
344,336,238806,1,0,0:0:0:0:
256,176,238980,1,8,0:0:0:0:
104,248,239154,2,0,L|88:128,1,113.000000344849
408,248,239503,2,0,L|424:128,2,113.000000344849,0|8|0,0:0|0:0|0:0,0:0:0:0:
465,59,240027,6,0,P|401:51|356:82,1,113.000000344849
47,59,240375,2,0,P|111:51|156:82,1,113.000000344849,8|0,0:0|0:0,0:0:0:0:
336,176,240724,2,0,L|328:296,1,113.000000344849
183,288,241073,2,0,L|176:176,1,113.000000344849,8|0,0:0|0:0,0:0:0:0:
344,80,241422,5,0,0:0:0:0:
256,240,241596,1,0,0:0:0:0:
104,135,241771,2,0,P|144:95|216:103,1,113.000000344849,8|0,0:0|0:0,0:0:0:0:
256,320,242120,1,0,0:0:0:0:
256,320,242207,1,0,0:0:0:0:
256,320,242294,1,0,0:0:0:0:
408,135,242468,2,0,P|368:95|296:103,1,113.000000344849,8|0,0:0|0:0,0:0:0:0:
160,232,242817,6,0,L|144:344,1,113.000000344849
368,344,243166,2,0,L|352:232,1,113.000000344849,8|0,0:0|0:0,0:0:0:0:
192,128,243515,2,0,P|136:120|80:160,1,113.000000344849
320,128,243864,2,0,P|376:120|432:160,1,113.000000344849,8|0,0:0|0:0,0:0:0:0:
160,224,244213,5,0,0:0:0:0:
352,224,244387,1,0,0:0:0:0:
256,376,244561,1,8,0:0:0:0:
256,168,244736,1,0,0:0:0:0:
160,320,244910,1,0,0:0:0:0:
352,320,245085,1,0,0:0:0:0:
312,104,245259,2,0,P|256:80|200:104,1,113.000000344849,8|0,0:0|0:0,0:0:0:0:
88,56,245608,6,0,L|80:120,3,56.5000001724243
76,143,245957,2,0,L|68:207,3,56.5000001724243,8|0|0|0,0:0|0:0|0:0|0:0,0:0:0:0:
67,232,246306,5,0,0:0:0:0:
89,258,246393,1,0,0:0:0:0:
123,264,246480,1,0,0:0:0:0:
152,247,246567,1,0,0:0:0:0:
179,233,246654,1,8,0:0:0:0:
208,216,246741,1,0,0:0:0:0:
242,222,246828,1,0,0:0:0:0:
264,248,246915,1,0,0:0:0:0:
264,282,247003,5,0,0:0:0:0:
286,308,247090,1,0,0:0:0:0:
319,313,247178,1,0,0:0:0:0:
349,297,247265,1,0,0:0:0:0:
360,265,247352,1,8,0:0:0:0:
349,233,247439,1,0,0:0:0:0:
327,207,247527,1,0,0:0:0:0:
327,173,247614,1,0,0:0:0:0:
349,147,247702,5,0,0:0:0:0:
382,141,247789,1,0,0:0:0:0:
412,158,247876,1,0,0:0:0:0:
423,190,247963,1,0,0:0:0:0:
451,216,248050,2,0,L|443:280,3,56.5000001724243,8|0|0|0,0:0|0:0|0:0|0:0,0:0:0:0:
371,352,248399,6,0,L|364:296,3,56.5000001724243
288,216,248747,2,0,L|280:280,3,56.5000001724243,8|0|0|0,0:0|0:0|0:0|0:0,0:0:0:0:
210,351,249096,6,0,L|202:294,3,56.5000001724243
199,265,249445,1,8,0:0:0:0:
171,255,249532,1,8,0:0:0:0:
147,247,249620,1,8,0:0:0:0:
123,239,249707,1,8,0:0:0:0:
99,231,249794,5,0,0:0:0:0:
160,288,250666,2,0,P|192:272|240:280,2,75.0000028610231
99,231,251189,6,0,L|115:127,1,100
397,132,251538,2,0,L|413:231,1,100,8|0,0:0|0:0,0:0:0:0:
184,272,251887,1,0,0:0:0:0:
320,360,252061,2,0,P|376:368|416:344,2,100,0|8|0,0:0|0:0|0:0,0:0:0:0:
344,232,252585,5,0,0:0:0:0:
192,360,252759,2,0,P|136:368|96:344,2,100,0|8|0,0:0|0:0|0:0,0:0:0:0:
256,208,253282,2,0,L|264:104,1,100
88,8,253631,2,0,L|80:107,1,100,8|0,0:0|0:0,0:0:0:0:
32,176,253893,1,8,0:0:0:0:
32,176,253980,6,0,P|72:216|120:216,1,100
248,96,254329,2,0,P|208:56|160:56,1,100,8|0,0:0|0:0,0:0:0:0:
256,248,254678,1,0,0:0:0:0:
344,136,254852,2,0,L|448:120,2,100,0|8|0,0:0|0:0|0:0,0:0:0:0:
184,192,255375,5,0,0:0:0:0:
336,280,255550,2,0,P|352:328|336:376,1,100,0|8,0:0|0:0,0:0:0:0:
174,373,255899,2,0,P|160:326|176:280,1,100
256,168,256247,1,0,0:0:0:0:
256,168,256335,1,0,0:0:0:0:
256,168,256422,1,8,0:0:0:0:
256,328,256596,1,0,0:0:0:0:
160,232,256771,6,0,L|152:128,1,100
359,132,257120,2,0,L|352:232,1,100,8|0,0:0|0:0,0:0:0:0:
192,309,257468,2,0,P|136:317|93:279,1,100
320,309,257817,2,0,P|376:317|419:279,1,100,8|0,0:0|0:0,0:0:0:0:
208,168,258166,5,0,0:0:0:0:
256,368,258340,1,0,0:0:0:0:
352,231,258515,2,0,L|464:215,1,100,8|0,0:0|0:0,0:0:0:0:
320,48,258864,2,0,P|305:100|329:142,1,100
186,138,259213,2,0,P|207:94|192:47,1,100,8|0,0:0|0:0,0:0:0:0:
112,8,259474,1,8,0:0:0:0:
112,8,259561,6,0,L|0:16,1,100
86,130,259910,2,0,L|198:138,1,100,8|0,0:0|0:0,0:0:0:0:
360,240,260259,1,0,0:0:0:0:
208,352,260433,1,0,0:0:0:0:
304,152,260608,2,0,L|312:40,1,100,8|0,0:0|0:0,0:0:0:0:
184,256,260957,6,0,P|128:232|88:248,1,100
328,256,261306,2,0,P|384:232|424:248,1,100,8|0,0:0|0:0,0:0:0:0:
352,352,261654,1,0,0:0:0:0:
256,192,261829,1,0,0:0:0:0:
256,192,261916,1,0,0:0:0:0:
256,192,262003,1,8,0:0:0:0:
160,352,262178,1,0,0:0:0:0:
344,240,262352,6,0,P|361:191|344:144,1,100
165,147,262701,2,0,P|151:193|168:240,1,100,8|0,0:0|0:0,0:0:0:0:
256,64,263050,1,0,0:0:0:0:
72,192,263224,2,0,L|64:88,2,100,0|8|0,0:0|0:0|0:0,0:0:0:0:
256,144,263747,5,0,0:0:0:0:
440,192,263922,2,0,L|447:92,2,100,0|8|0,0:0|0:0|0:0,0:0:0:0:
320,312,264445,2,0,P|368:336|416:328,1,100
192,312,264794,2,0,P|144:336|96:328,1,100,8|0,0:0|0:0,0:0:0:0:
48,264,265056,1,8,0:0:0:0:
48,264,265143,6,0,L|64:152,1,100
224,104,265492,1,8,0:0:0:0:
136,32,265666,1,0,0:0:0:0:
216,224,265840,2,0,P|268:240|312:224,1,100
376,328,266189,1,8,0:0:0:0:
136,328,266364,1,0,0:0:0:0:
328,208,266538,6,0,L|440:192,1,100
184,208,266887,2,0,L|72:192,1,100,8|0,0:0|0:0,0:0:0:0:
344,120,267236,2,0,P|368:72|352:24,1,100
155,29,267585,2,0,P|144:77|168:120,1,100,8|0,0:0|0:0,0:0:0:0:
56,216,267933,6,0,L|64:320,1,100
168,376,268282,1,8,0:0:0:0:
256,208,268457,1,0,0:0:0:0:
104,296,268631,2,0,P|148:270|200:277,1,100
408,296,268980,2,0,P|364:270|312:277,1,100,8|0,0:0|0:0,0:0:0:0:
256,368,269329,5,0,0:0:0:0:
328,176,269503,1,0,0:0:0:0:
456,304,269678,2,0,L|448:200,1,100,8|0,0:0|0:0,0:0:0:0:
320,76,270027,2,0,L|327:175,1,100
440,120,270375,1,8,0:0:0:0:
256,216,270550,1,0,0:0:0:0:
256,216,270637,1,8,0:0:0:0:
256,216,270724,6,0,L|152:200,1,100
0,336,271073,2,0,L|98:320,1,100,8|0,0:0|0:0,0:0:0:0:
256,368,271422,1,0,0:0:0:0:
512,336,271596,2,0,L|414:320,2,100,0|8|0,0:0|0:0|0:0,0:0:0:0:
392,192,272120,5,0,0:0:0:0:
256,256,272294,2,0,P|232:304|248:344,2,89.9999972534181
192,144,272817,1,2,0:0:0:0:
184,120,272904,1,2,0:0:0:0:
176,96,272992,1,2,0:0:0:0:
168,72,273079,1,2,0:0:0:0:
160,48,273166,2,0,L|115:40,3,44.999998626709,2|2|2|2,0:0|0:0|0:0|0:0,0:0:0:0:
48,88,273515,6,0,P|80:136|72:184,1,94.9999974632264
176,256,273864,2,0,L|72:272,1,94.9999974632264,8|0,0:0|0:0,0:0:0:0:
336,256,274213,2,0,L|440:272,1,94.9999974632264
464,87,274561,2,0,P|435:124|434:171,1,94.9999974632264,8|0,0:0|0:0,0:0:0:0:
344,40,274910,6,0,L|240:56,1,94.9999974632264
160,128,275259,1,8,0:0:0:0:
280,176,275433,1,0,0:0:0:0:
112,208,275608,2,0,P|70:160|69:118,1,94.9999974632264
168,40,275957,2,0,L|261:54,1,94.9999974632264,8|0,0:0|0:0,0:0:0:0:
360,168,276306,5,0,0:0:0:0:
456,104,276480,1,0,0:0:0:0:
280,128,276654,2,0,L|264:232,1,94.9999974632264,8|0,0:0|0:0,0:0:0:0:
424,304,277003,2,0,L|438:210,1,94.9999974632264
320,344,277352,1,8,0:0:0:0:
256,264,277527,1,0,0:0:0:0:
192,344,277701,5,0,0:0:0:0:
88,304,277875,2,0,L|73:210,2,94.9999974632264,0|8|0,0:0|0:0|0:0,0:0:0:0:
168,208,278399,2,0,P|192:160|176:112,1,94.9999974632264
329,121,278747,2,0,P|320:167|344:208,1,94.9999974632264,8|0,0:0|0:0,0:0:0:0:
208,296,279096,6,0,L|96:280,1,94.9999974632264
304,296,279445,2,0,L|416:280,1,94.9999974632264,8|0,0:0|0:0,0:0:0:0:
184,200,279794,1,0,0:0:0:0:
328,200,279968,1,0,0:0:0:0:
152,120,280143,2,0,P|168:72|144:32,1,94.9999974632264,8|0,0:0|0:0,0:0:0:0:
256,240,280492,6,0,L|360:232,1,94.9999974632264
464,272,280840,1,8,0:0:0:0:
408,96,281015,1,0,0:0:0:0:
399,217,281189,2,0,P|377:264|389:313,1,94.9999974632264
256,352,281538,2,0,L|152:336,1,94.9999974632264,8|0,0:0|0:0,0:0:0:0:
256,232,281887,6,0,L|360:248,1,94.9999974632264
160,256,282236,2,0,P|152:200|176:160,1,94.9999974632264,8|0,0:0|0:0,0:0:0:0:
344,128,282585,2,0,P|352:72|328:32,1,94.9999974632264
200,80,282933,1,8,0:0:0:0:
256,184,283108,1,0,0:0:0:0:
128,128,283282,6,0,L|24:112,1,94.9999974632264
272,32,283631,2,0,L|365:46,1,94.9999974632264,8|0,0:0|0:0,0:0:0:0:
464,112,283980,1,0,0:0:0:0:
464,112,284067,1,0,0:0:0:0:
464,112,284154,1,0,0:0:0:0:
368,216,284329,2,0,P|344:264|360:320,1,94.9999974632264
240,360,284678,6,0,L|144:344,1,89.9999972534181
8,256,285027,2,0,L|104:240,1,89.9999972534181
192,160,285375,1,0,0:0:0:0:
216,280,285550,1,0,0:0:0:0:
96,168,285724,2,0,L|88:64,1,89.9999972534181
256,32,286073,6,0,L|256:136,1,89.9999972534181
416,168,286422,2,0,L|424:64,1,89.9999972534181
296,208,286771,1,0,0:0:0:0:
472,264,286945,1,0,0:0:0:0:
326,343,287120,2,0,P|280:352|238:334,1,89.9999972534181
128,176,287468,6,0,P|174:167|216:185,1,89.9999972534181
256,288,287817,1,0,0:0:0:0:
360,240,287992,2,0,L|456:232,1,89.9999972534181
480,64,288340,2,0,P|464:112|488:160,2,89.9999972534181
280,24,288864,6,0,L|376:32,1,89.9999972534181
249,159,289213,2,0,L|160:152,1,89.9999972534181
344,104,289561,1,0,0:0:0:0:
200,16,289736,1,0,0:0:0:0:
128,88,289910,2,0,L|32:96,1,89.9999972534181
56,200,290259,6,0,L|48:296,1,85.0000016212464
144,344,290608,1,0,0:0:0:0:
256,280,290782,1,0,0:0:0:0:
136,168,290957,2,0,P|152:120|144:88,1,85.0000016212464
240,32,291306,2,0,L|336:48,1,85.0000016212464
416,200,291654,6,0,L|320:216,1,85.0000016212464
168,288,292003,2,0,L|264:304,1,85.0000016212464
331,369,292352,1,0,0:0:0:0:
256,221,292527,1,0,0:0:0:0:
96,336,292701,2,0,P|88:280|104:240,1,85.0000016212464
216,152,293050,6,0,P|224:96|208:56,1,85.0000016212464
168,224,293399,2,0,L|64:216,1,85.0000016212464
344,224,293747,2,0,L|428:217,1,85.0000016212464
312,104,294096,2,0,P|302:62|312:21,1,85.0000016212464
424,128,294445,5,0,0:0:0:0:
256,208,294620,1,0,0:0:0:0:
172,134,294794,2,0,L|68:126,1,85.0000016212464
248,72,295143,2,0,L|312:64,3,42.5000008106232
320,88,295492,2,0,L|384:80,3,42.5000008106232
392,104,295840,6,0,P|416:144|400:184,1,85.0000016212464
464,264,296189,1,0,0:0:0:0:
320,232,296364,2,0,L|136:256,1,170.000003242493
32,144,296887,2,0,L|143:159,1,85.0000016212464
145,333,297236,5,0,0:0:0:0:
152,24,297933,2,0,L|56:32,1,85.0000016212464
0,184,298282,2,0,L|96:192,1,85.0000016212464
184,136,298631,5,0,0:0:0:0:
256,240,298806,1,0,0:0:0:0:
328,136,298980,1,0,0:0:0:0:
176,264,299154,2,0,P|160:312|248:384,1,170.000003242493
312,328,299678,2,0,L|400:320,1,85.0000016212464
488,360,300027,5,0,0:0:0:0:
256,192,300201,12,0,302120,0:0:0:0:
