osu file format v14

[General]
AudioFilename: FLOWER REDALiCE Remix.mp3
AudioLeadIn: 0
PreviewTime: 53885
Countdown: 0
SampleSet: None
StackLeniency: 0.7
Mode: 1
LetterboxInBreaks: 0
WidescreenStoryboard: 1

[Editor]
DistanceSpacing: 0.9
BeatDivisor: 8
GridSize: 32
TimelineZoom: 2.8

[Metadata]
Title:FLOWER REDALiCE Remix
TitleUnicode:FLOWER REDALiCE Remix
Artist:REDALiCE
ArtistUnicode:REDALiCE
Creator:S a n d
Version:-[ ix IshidaTaikonari xi ]-
Source:
Tags:Sand -[ ix ishida xi ]-REDALiCE SOUND_VOLTEX
BeatmapID:1187849
BeatmapSetID:561882

[Difficulty]
HPDrainRate:6
CircleSize:5
OverallDifficulty:5
ApproachRate:5
SliderMultiplier:1.4
SliderTickRate:1

[Events]
//Background and Video events
0,0,"FlowerRedalice.png",0,100
//Break Periods
//Storyboard Layer 0 (Background)
//Storyboard Layer 1 (Fail)
//Storyboard Layer 2 (Pass)
//Storyboard Layer 3 (Foreground)
//Storyboard Sound Samples

[TimingPoints]
2052,333.333333333333,4,1,0,100,1,0
3385,-83.3333333333333,4,1,0,100,0,0
4718,-71.4285714285714,4,1,0,100,0,0
5385,-62.5,4,1,0,100,0,0
6051,-55.5555555555556,4,1,0,100,0,0
7051,-25,4,1,0,100,0,0
7135,-100,4,1,0,100,0,0
8718,-83.3333333333333,4,1,0,100,0,0
10135,-100,4,1,0,100,0,0
11385,-71.4285714285714,4,1,0,100,0,0
12801,-100,4,1,0,100,0,0
14051,-62.5,4,1,0,100,0,0
15468,-100,4,1,0,100,0,0
16718,-55.5555555555556,4,1,0,100,0,0
18218,-50,4,1,0,100,0,0
18301,-51.0204081632653,4,1,0,100,0,0
18385,-52.0833333333333,4,1,0,100,0,0
18468,-53.1914893617021,4,1,0,100,0,0
18551,-54.3478260869565,4,1,0,100,0,0
18635,-55.5555555555556,4,1,0,100,0,0
18718,-56.8181818181818,4,1,0,100,0,0
18801,-58.1395348837209,4,1,0,100,0,0
18885,-59.5238095238095,4,1,0,100,0,0
18968,-60.9756097560976,4,1,0,100,0,0
19051,-62.5,4,1,0,100,0,0
19135,-64.1025641025641,4,1,0,100,0,0
19218,-65.7894736842105,4,1,0,100,0,0
19301,-67.5675675675676,4,1,0,100,0,0
19385,-69.4444444444444,4,1,0,100,0,0
19468,-71.4285714285714,4,1,0,100,0,0
19551,-73.5294117647059,4,1,0,100,0,0
19635,-75.7575757575758,4,1,0,100,0,0
19718,-78.125,4,1,0,100,0,0
19801,-80.6451612903226,4,1,0,100,0,0
19885,-83.3333333333333,4,1,0,100,0,0
19968,-86.2068965517241,4,1,0,100,0,0
20051,-89.2857142857143,4,1,0,100,0,0
20135,-92.5925925925926,4,1,0,100,0,0
20218,-96.1538461538461,4,1,0,100,0,0
20301,-100,4,1,0,100,0,0
20385,-104.166666666667,4,1,0,100,0,0
20468,-108.695652173913,4,1,0,100,0,0
20551,-113.636363636364,4,1,0,100,0,0
20635,-119.047619047619,4,1,0,100,0,0
20718,-125,4,1,0,70,0,0
36718,-121.951219512195,4,1,0,100,0,0
38051,-119.047619047619,4,1,0,100,0,0
39385,-116.279069767442,4,1,0,100,0,0
40718,-112.359550561798,4,1,0,100,0,0
41051,-108.695652173913,4,1,0,100,0,0
41385,-106.382978723404,4,1,0,100,0,0
41718,-103.092783505155,4,1,0,100,0,0
42010,-103.092783505155,4,1,0,100,0,0
42051,-50,4,1,0,100,0,0
42093,342.857142857143,4,3,0,5,1,0
42135,352.941176470588,4,3,0,5,1,0
42176,363.636363636364,4,3,0,5,1,0
42218,375,4,3,0,5,1,0
42260,387.096774193548,4,3,0,5,1,0
42301,400,4,3,0,5,1,0
42343,413.793103448276,4,3,0,5,1,0
42385,428.571428571429,4,3,0,5,1,0
42426,444.444444444444,4,3,0,5,1,0
42468,461.538461538462,4,3,0,5,1,0
42510,480,4,3,0,5,1,0
42551,500,4,3,0,5,1,0
42593,521.739130434783,4,3,0,5,1,0
42635,545.454545454546,4,3,0,5,1,0
42676,571.428571428571,4,3,0,5,1,0
42718,600,4,3,0,5,1,0
42760,631.578947368421,4,3,0,5,1,0
42801,666.666666666667,4,3,0,5,1,0
42843,705.882352941176,4,3,0,5,1,0
42885,750,4,3,0,5,1,0
42926,800,4,3,0,5,1,0
42968,857.142857142857,4,3,0,5,1,0
43010,923.076923076923,4,3,0,5,1,0
43051,333.333333333333,4,1,0,100,1,0
43384,333.333333333333,4,1,0,100,1,0
43384,-50,4,1,0,100,0,0
44717,-25,4,1,0,100,0,0
44738,500,4,2,0,5,1,0
44759,333.333333333333,4,2,0,5,1,0
44780,250,4,2,0,5,1,0
44801,200,4,2,0,5,1,0
44821,500,4,2,0,5,1,0
44842,333.333333333333,4,2,0,5,1,0
44863,250,4,2,0,5,1,0
44884,200,4,2,0,5,1,0
44905,500,4,2,0,5,1,0
44926,333.333333333333,4,2,0,5,1,0
44946,250,4,2,0,5,1,0
44967,200,4,2,0,5,1,0
44988,500,4,2,0,5,1,0
45009,333.333333333333,4,2,0,5,1,0
45030,250,4,2,0,5,1,0
45051,200,4,2,0,5,1,0
45071,500,4,2,0,5,1,0
45092,333.333333333333,4,2,0,5,1,0
45113,250,4,2,0,5,1,0
45134,200,4,2,0,5,1,0
45155,500,4,2,0,5,1,0
45176,333.333333333333,4,2,0,5,1,0
45196,250,4,2,0,5,1,0
45217,200,4,2,0,5,1,0
45238,500,4,2,0,5,1,0
45259,333.333333333333,4,2,0,5,1,0
45280,250,4,2,0,5,1,0
45301,200,4,2,0,5,1,0
45321,500,4,2,0,5,1,0
45342,333.333333333333,4,2,0,5,1,0
45363,250,4,2,0,5,1,0
45384,200,4,2,0,5,1,0
45405,500,4,2,0,5,1,0
45426,333.333333333333,4,2,0,5,1,0
45446,250,4,2,0,5,1,0
45467,200,4,2,0,5,1,0
45488,500,4,2,0,5,1,0
45509,333.333333333333,4,2,0,5,1,0
45530,250,4,2,0,5,1,0
45551,200,4,2,0,5,1,0
45571,500,4,2,0,5,1,0
45592,333.333333333333,4,2,0,5,1,0
45613,250,4,2,0,5,1,0
45634,200,4,2,0,5,1,0
45655,500,4,2,0,5,1,0
45676,333.333333333333,4,2,0,5,1,0
45696,250,4,2,0,5,1,0
45717,333.333333333333,4,1,0,100,1,0
46050,333.333333333333,4,1,0,100,1,0
46050,-50,4,1,0,100,0,0
47092,-48.780487804878,4,1,0,100,0,0
47133,-47.6190476190476,4,1,0,100,0,0
47175,-46.5116279069767,4,1,0,100,0,0
47217,-45.4545454545455,4,1,0,100,0,0
47258,-44.4444444444445,4,1,0,100,0,0
47300,-43.4782608695652,4,1,0,100,0,0
47342,-42.5531914893617,4,1,0,100,0,0
47383,-25,4,1,0,100,0,0
47425,-100,4,1,0,100,0,0
48716,-50,4,1,0,100,0,0
50049,-25,4,1,0,100,0,0
50091,-100,4,1,0,100,0,0
50549,-25,4,1,0,100,0,0
50591,-100,4,1,0,100,0,0
51383,-25,4,1,0,100,0,0
51424,-100,4,1,0,100,0,0
51883,-25,4,1,0,100,0,0
51924,-100,4,1,0,100,0,0
52383,-25,4,1,0,100,0,0
52424,-100,4,1,0,100,0,0
52716,-25,4,1,0,100,0,0
52758,-100,4,1,0,100,0,0
53549,-33.3333333333333,4,1,0,100,0,0
54049,-66.6666666666667,4,1,0,100,0,1
64674,-66.6666666666667,4,3,0,5,0,1
64716,-125,4,3,0,5,0,1
64841,-125,4,1,0,80,0,1
64883,-50,4,1,0,100,0,1
65049,-33.3333333333333,4,1,0,100,0,1
65091,-66.6666666666667,4,1,0,100,0,1
75424,-66.6666666666667,4,3,0,5,0,0
75549,-33.3333333333333,4,3,0,5,0,0
75716,-35.0877192982456,4,3,0,5,0,0
75883,-37.037037037037,4,3,0,5,0,0
76049,-39.2156862745098,4,3,0,5,0,0
76216,-41.6666666666667,4,3,0,5,0,0
76383,-44.4444444444445,4,3,0,5,0,0
76549,-47.6190476190476,4,3,0,5,0,0
76716,-51.2820512820513,4,3,0,5,0,0
76883,-55.5555555555556,4,3,0,5,0,0
77049,-60.6060606060606,4,3,0,5,0,0
77216,-66.6666666666667,4,3,0,5,0,0
77383,-74.0740740740741,4,3,0,5,0,0
77549,-83.3333333333333,4,3,0,5,0,0
77716,-95.2380952380952,4,3,0,5,0,0
77883,-111.111111111111,4,3,0,5,0,0
78051,-100,4,1,0,50,0,0
79383,-50,4,1,0,100,0,0
80716,-100,4,1,0,50,0,0
82049,-50,4,1,0,100,0,0
83216,-100,4,1,0,50,0,0
84716,-50,4,1,0,100,0,0
86049,-100,4,1,0,50,0,0
87383,-50,4,1,0,100,0,0
88716,-50,4,1,0,100,0,0
88799,-125,4,1,0,60,0,0
94049,-100,4,1,0,70,0,0
95549,-90.9090909090909,4,1,0,100,0,0
95883,-83.3333333333333,4,1,0,100,0,0
96216,-76.9230769230769,4,1,0,100,0,0
96549,-71.4285714285714,4,1,0,100,0,0
96883,-66.6666666666667,4,1,0,100,0,0
97716,-50,4,1,0,100,0,0
98299,-54.054054054054,4,1,0,100,0,0
98383,-58.8235294117647,4,1,0,100,0,0
98466,-64.5161290322581,4,1,0,100,0,0
98549,-71.4285714285714,4,1,0,100,0,0
98633,-80,4,1,0,100,0,0
98716,-90.9090909090909,4,1,0,100,0,0
98799,-76.9230769230769,4,1,0,100,0,0
98883,-66.6666666666667,4,1,0,100,0,0
98966,-58.8235294117647,4,1,0,100,0,0
99049,-25,4,1,0,100,0,0
99383,-25,4,1,0,100,0,1
99466,-66.6666666666667,4,1,0,100,0,1
110049,-50,4,1,0,100,0,1
111383,-100,4,1,0,50,0,0
112716,-50,4,1,0,100,0,1
114049,-100,4,1,0,50,0,0
115383,-50,4,1,0,100,0,1
116716,-100,4,1,0,50,0,0
118049,-50,4,1,0,100,0,1
119383,-100,4,1,0,70,0,0
119549,-50,4,1,0,70,0,0
119633,-54.054054054054,4,1,0,70,0,0
119716,-58.8235294117647,4,1,0,70,0,0
119799,-64.5161290322581,4,1,0,70,0,0
119883,-71.4285714285714,4,1,0,70,0,0
119966,-80,4,1,0,70,0,0
120049,-90.9090909090909,4,1,0,70,0,0
120133,-105.263157894737,4,1,0,70,0,0
120216,-125,4,1,0,70,0,0
120299,-153.846153846154,4,1,0,70,0,0
120383,-200,4,1,0,70,0,0
120549,-285.714285714286,4,1,0,70,0,0

[HitObjects]
160,160,2051,5,12,0:0:0:0:
224,160,2218,1,0,0:0:0:0:
224,160,2301,1,8,0:0:0:0:
224,160,2551,1,12,0:0:0:0:
224,160,2718,1,0,0:0:0:0:
224,160,2801,1,8,0:0:0:0:
224,160,2885,1,0,0:0:0:0:
224,160,3051,1,8,0:0:0:0:
224,160,3218,1,0,0:0:0:0:
320,96,3385,1,12,0:0:0:0:
320,96,3551,1,0,0:0:0:0:
320,96,3635,1,8,0:0:0:0:
320,96,3885,1,12,0:0:0:0:
320,96,4051,1,0,0:0:0:0:
320,96,4135,1,8,0:0:0:0:
320,96,4218,1,0,0:0:0:0:
320,96,4385,1,8,0:0:0:0:
320,96,4551,1,0,0:0:0:0:
320,192,4718,1,12,0:0:0:0:
320,192,4885,1,0,0:0:0:0:
320,192,4968,1,8,0:0:0:0:
320,192,5135,1,0,0:0:0:0:
320,192,5218,1,8,0:0:0:0:
320,192,5385,1,12,0:0:0:0:
320,192,5551,1,0,0:0:0:0:
320,192,5635,1,8,0:0:0:0:
320,192,5801,1,0,0:0:0:0:
320,192,5885,1,8,0:0:0:0:
352,128,6051,1,12,0:0:0:0:
352,128,6218,1,0,0:0:0:0:
352,128,6301,1,12,0:0:0:0:
352,128,6468,1,0,0:0:0:0:
352,128,6551,1,12,0:0:0:0:
352,128,7051,1,8,0:0:0:0:
352,128,7385,1,8,0:0:0:0:
352,128,7551,1,0,0:0:0:0:
352,128,7635,1,8,0:0:0:0:
352,128,7718,1,0,0:0:0:0:
352,128,7885,1,8,0:0:0:0:
352,128,8051,1,0,0:0:0:0:
352,128,8135,1,8,0:0:0:0:
352,128,8218,1,0,0:0:0:0:
352,128,8385,1,8,0:0:0:0:
352,128,8551,1,0,0:0:0:0:
352,128,8718,1,8,0:0:0:0:
352,128,8885,1,0,0:0:0:0:
352,128,8968,1,8,0:0:0:0:
352,128,9051,1,0,0:0:0:0:
352,128,9218,1,8,0:0:0:0:
352,128,9385,1,0,0:0:0:0:
352,128,9468,1,8,0:0:0:0:
352,128,9551,1,0,0:0:0:0:
416,192,9635,1,0,0:0:0:0:
352,128,9718,1,8,0:0:0:0:
352,128,9885,1,0,0:0:0:0:
448,288,10051,1,8,0:0:0:0:
448,288,10218,1,0,0:0:0:0:
448,288,10301,1,8,0:0:0:0:
448,288,10385,1,0,0:0:0:0:
448,288,10551,1,8,0:0:0:0:
448,288,10718,1,0,0:0:0:0:
448,288,10801,1,8,0:0:0:0:
448,288,10885,1,0,0:0:0:0:
448,288,11051,1,8,0:0:0:0:
448,288,11218,1,0,0:0:0:0:
448,224,11385,1,12,0:0:0:0:
448,224,11551,1,0,0:0:0:0:
448,224,11635,1,0,0:0:0:0:
448,224,11718,1,12,0:0:0:0:
320,160,11885,1,0,0:0:0:0:
320,160,11968,1,0,0:0:0:0:
320,160,12051,1,12,0:0:0:0:
320,160,12218,1,12,0:0:0:0:
320,160,12385,1,0,0:0:0:0:
320,160,12468,1,0,0:0:0:0:
320,160,12551,1,0,0:0:0:0:
320,160,12635,1,0,0:0:0:0:
320,160,12718,1,12,0:0:0:0:
320,160,12885,1,0,0:0:0:0:
320,160,12968,1,8,0:0:0:0:
320,160,13135,1,0,0:0:0:0:
320,160,13218,1,8,0:0:0:0:
320,160,13385,1,0,0:0:0:0:
320,160,13468,1,8,0:0:0:0:
320,160,13551,1,0,0:0:0:0:
320,160,13635,1,0,0:0:0:0:
320,160,13718,1,8,0:0:0:0:
384,160,13885,1,0,0:0:0:0:
384,224,14051,1,0,0:0:0:0:
384,224,14218,1,0,0:0:0:0:
384,192,14274,1,0,0:0:0:0:
384,192,14329,1,0,0:0:0:0:
384,224,14385,1,0,0:0:0:0:
384,192,14551,1,0,0:0:0:0:
384,192,14635,1,0,0:0:0:0:
384,192,14718,1,12,0:0:0:0:
384,192,15051,1,12,0:0:0:0:
384,192,15385,1,12,0:0:0:0:
384,192,15551,1,0,0:0:0:0:
384,192,15635,1,8,0:0:0:0:
384,192,15718,1,0,0:0:0:0:
384,192,15885,1,8,0:0:0:0:
384,192,16051,1,0,0:0:0:0:
384,192,16135,1,8,0:0:0:0:
384,192,16218,1,0,0:0:0:0:
384,192,16301,1,0,0:0:0:0:
384,192,16385,1,8,0:0:0:0:
384,192,16551,1,0,0:0:0:0:
384,192,16718,1,12,0:0:0:0:
384,192,16885,1,0,0:0:0:0:
384,192,16968,1,0,0:0:0:0:
384,192,17051,1,12,0:0:0:0:
384,160,17218,1,0,0:0:0:0:
384,160,17301,1,0,0:0:0:0:
384,160,17385,1,12,0:0:0:0:
384,160,17551,1,12,0:0:0:0:
384,160,17718,1,0,0:0:0:0:
384,160,17801,1,0,0:0:0:0:
384,160,17885,1,0,0:0:0:0:
384,160,17968,1,0,0:0:0:0:
384,160,18051,1,12,0:0:0:0:
352,160,18218,1,8,0:0:0:0:
352,160,18301,1,0,0:0:0:0:
352,160,18385,1,8,0:0:0:0:
352,160,18468,1,8,0:0:0:0:
352,160,18551,1,0,0:0:0:0:
352,160,18635,1,0,0:0:0:0:
352,160,18718,1,8,0:0:0:0:
352,160,18801,1,8,0:0:0:0:
352,160,18885,1,0,0:0:0:0:
352,160,18968,1,0,0:0:0:0:
352,160,19051,1,8,0:0:0:0:
352,160,19135,1,8,0:0:0:0:
352,160,19218,1,0,0:0:0:0:
352,160,19301,1,0,0:0:0:0:
288,160,19385,1,8,0:0:0:0:
288,160,19468,1,0,0:0:0:0:
416,192,19551,1,0,0:0:0:0:
416,192,19635,1,0,0:0:0:0:
416,192,19718,1,8,0:0:0:0:
416,192,19801,1,0,0:0:0:0:
416,192,19885,1,0,0:0:0:0:
416,192,19968,1,0,0:0:0:0:
416,192,20051,1,0,0:0:0:0:
416,192,20135,1,8,0:0:0:0:
416,192,20218,1,0,0:0:0:0:
416,192,20301,1,0,0:0:0:0:
416,192,20385,1,0,0:0:0:0:
416,192,20468,1,0,0:0:0:0:
416,192,20551,1,0,0:0:0:0:
416,192,20635,1,8,0:0:0:0:
416,192,20718,1,4,0:0:0:0:
416,128,21051,1,0,0:0:0:0:
416,128,21218,1,0,0:0:0:0:
416,128,21385,1,8,0:0:0:0:
416,128,21718,1,0,0:0:0:0:
416,128,21885,1,0,0:0:0:0:
384,192,22218,1,8,0:0:0:0:
384,192,22385,1,0,0:0:0:0:
256,64,22551,1,0,0:0:0:0:
256,128,22718,1,8,0:0:0:0:
256,128,23051,1,0,0:0:0:0:
384,96,23551,1,0,0:0:0:0:
384,96,23718,1,0,0:0:0:0:
384,96,23885,1,0,0:0:0:0:
384,96,24051,1,8,0:0:0:0:
384,96,24385,1,0,0:0:0:0:
384,96,24551,1,0,0:0:0:0:
384,96,24718,1,8,0:0:0:0:
384,96,24885,1,0,0:0:0:0:
384,96,25051,1,0,0:0:0:0:
384,128,25385,1,8,0:0:0:0:
384,128,25468,1,8,0:0:0:0:
384,128,25551,1,8,0:0:0:0:
384,128,25635,1,8,0:0:0:0:
384,128,25718,1,8,0:0:0:0:
384,128,25885,1,8,0:0:0:0:
384,96,26051,1,0,0:0:0:0:
384,160,26385,1,0,0:0:0:0:
384,160,26551,1,0,0:0:0:0:
384,160,26718,1,8,0:0:0:0:
384,160,27051,1,0,0:0:0:0:
384,160,27218,1,0,0:0:0:0:
384,160,27551,1,8,0:0:0:0:
384,160,27718,1,0,0:0:0:0:
384,160,27885,1,0,0:0:0:0:
384,160,28051,1,8,0:0:0:0:
384,160,28385,1,0,0:0:0:0:
384,160,28551,1,0,0:0:0:0:
384,160,28885,1,8,0:0:0:0:
384,160,29051,1,0,0:0:0:0:
384,160,29218,1,0,0:0:0:0:
384,160,29385,1,8,0:0:0:0:
384,160,29635,1,0,0:0:0:0:
384,160,29885,1,8,0:0:0:0:
384,160,30051,1,4,0:0:0:0:
384,160,30218,1,8,0:0:0:0:
384,160,30385,1,8,0:0:0:0:
384,160,30551,1,0,0:0:0:0:
320,96,30635,1,0,0:0:0:0:
384,160,30718,1,12,0:0:0:0:
384,160,30885,1,0,0:0:0:0:
416,192,30940,1,0,0:0:0:0:
416,192,30996,1,0,0:0:0:0:
352,64,31051,1,8,0:0:0:0:
256,160,31107,1,0,0:0:0:0:
256,160,31163,1,0,0:0:0:0:
256,160,31218,1,8,0:0:0:0:
256,160,31274,1,0,0:0:0:0:
256,160,31329,1,0,0:0:0:0:
256,160,31385,1,0,0:0:0:0:
288,128,31718,1,0,0:0:0:0:
288,128,31885,1,0,0:0:0:0:
288,128,32051,1,8,0:0:0:0:
288,128,32385,1,0,0:0:0:0:
288,128,32551,1,0,0:0:0:0:
288,160,33051,1,0,0:0:0:0:
288,160,33217,1,0,0:0:0:0:
288,160,33384,1,8,0:0:0:0:
384,160,33885,1,0,0:0:0:0:
384,160,34051,1,0,0:0:0:0:
384,160,34385,1,0,0:0:0:0:
384,160,34551,1,0,0:0:0:0:
384,160,34718,1,8,0:0:0:0:
384,160,35051,1,0,0:0:0:0:
256,160,35218,1,0,0:0:0:0:
352,160,35718,1,0,0:0:0:0:
352,160,35885,1,0,0:0:0:0:
352,160,36051,1,8,0:0:0:0:
352,160,36551,1,0,0:0:0:0:
352,160,36718,1,0,0:0:0:0:
416,192,36968,1,8,0:0:0:0:
416,192,37218,1,0,0:0:0:0:
416,192,37385,1,8,0:0:0:0:
416,192,37718,1,0,0:0:0:0:
416,192,37885,1,8,0:0:0:0:
416,192,38051,1,0,0:0:0:0:
416,192,38301,1,0,0:0:0:0:
416,192,38551,1,0,0:0:0:0:
416,192,38718,1,8,0:0:0:0:
416,192,38801,1,0,0:0:0:0:
416,192,38885,1,0,0:0:0:0:
416,192,38968,1,0,0:0:0:0:
416,192,39051,1,8,0:0:0:0:
416,192,39218,1,0,0:0:0:0:
416,192,39385,1,0,0:0:0:0:
288,128,39551,1,8,0:0:0:0:
288,128,39718,1,0,0:0:0:0:
288,128,39885,1,0,0:0:0:0:
288,128,40051,1,8,0:0:0:0:
288,128,40218,1,0,0:0:0:0:
288,96,40385,1,0,0:0:0:0:
320,128,40551,1,8,0:0:0:0:
416,64,40663,1,0,0:0:0:0:
416,64,40718,1,8,0:0:0:0:
416,160,40801,1,8,0:0:0:0:
416,160,40885,1,8,0:0:0:0:
416,128,41051,1,0,0:0:0:0:
416,128,41135,1,8,0:0:0:0:
416,128,41218,1,0,0:0:0:0:
416,128,41385,1,8,0:0:0:0:
416,128,41468,1,8,0:0:0:0:
416,128,41551,1,8,0:0:0:0:
416,192,41718,1,0,0:0:0:0:
416,192,41801,1,0,0:0:0:0:
416,192,41885,1,0,0:0:0:0:
416,160,41968,1,0,0:0:0:0:
352,96,42010,1,0,0:0:0:0:
352,96,42051,1,12,0:0:0:0:
288,128,43051,1,4,0:0:0:0:
288,128,43218,1,4,0:0:0:0:
288,128,43385,1,8,0:0:0:0:
288,128,43551,1,8,0:0:0:0:
288,128,43635,1,0,0:0:0:0:
288,128,43801,1,0,0:0:0:0:
288,128,43968,1,8,0:0:0:0:
288,128,44051,1,0,0:0:0:0:
288,128,44135,1,8,0:0:0:0:
288,128,44218,1,0,0:0:0:0:
288,128,44301,1,8,0:0:0:0:
288,128,44385,1,8,0:0:0:0:
288,128,44468,1,0,0:0:0:0:
288,128,44551,1,0,0:0:0:0:
288,128,44635,1,8,0:0:0:0:
288,128,44718,1,4,0:0:0:0:
224,96,45718,1,4,0:0:0:0:
320,128,45885,1,12,0:0:0:0:
320,128,46051,1,8,0:0:0:0:
320,128,46135,1,0,0:0:0:0:
416,224,46218,1,0,0:0:0:0:
416,224,46301,1,8,0:0:0:0:
416,224,46385,1,0,0:0:0:0:
416,224,46468,1,0,0:0:0:0:
416,224,46551,1,8,0:0:0:0:
416,224,46635,1,0,0:0:0:0:
416,224,46718,1,8,0:0:0:0:
416,224,46801,1,0,0:0:0:0:
416,224,46885,1,0,0:0:0:0:
448,192,46968,1,8,0:0:0:0:
448,192,47051,1,0,0:0:0:0:
352,128,47093,1,0,0:0:0:0:
448,192,47135,1,0,0:0:0:0:
352,128,47176,1,0,0:0:0:0:
352,128,47218,1,0,0:0:0:0:
352,128,47260,1,0,0:0:0:0:
352,128,47301,1,0,0:0:0:0:
352,128,47343,1,0,0:0:0:0:
352,128,47385,1,4,0:0:0:0:
160,128,47635,1,0,0:0:0:0:
160,128,47885,1,0,0:0:0:0:
288,160,48218,1,0,0:0:0:0:
288,160,48385,1,8,0:0:0:0:
256,64,48551,1,0,0:0:0:0:
384,160,48718,1,8,0:0:0:0:
384,160,48885,1,8,0:0:0:0:
384,160,48968,1,0,0:0:0:0:
384,160,49051,1,8,0:0:0:0:
384,160,49135,1,0,0:0:0:0:
384,160,49218,1,0,0:0:0:0:
384,224,49260,1,0,0:0:0:0:
384,160,49301,1,8,0:0:0:0:
384,224,49385,1,0,0:0:0:0:
384,96,49468,1,8,0:0:0:0:
384,96,49551,1,0,0:0:0:0:
384,96,49635,1,8,0:0:0:0:
384,96,49718,1,8,0:0:0:0:
384,96,49801,1,0,0:0:0:0:
384,96,49885,1,0,0:0:0:0:
384,96,49968,1,8,0:0:0:0:
256,192,50051,1,12,0:0:0:0:
256,192,50218,1,0,0:0:0:0:
256,192,50385,1,0,0:0:0:0:
256,192,50551,1,12,0:0:0:0:
256,192,50718,1,0,0:0:0:0:
256,192,50885,1,0,0:0:0:0:
256,192,51051,1,8,0:0:0:0:
448,128,51135,1,0,0:0:0:0:
416,192,51218,1,0,0:0:0:0:
416,192,51301,1,0,0:0:0:0:
256,192,51385,1,12,0:0:0:0:
256,192,51551,1,0,0:0:0:0:
256,192,51635,1,8,0:0:0:0:
256,192,51718,1,0,0:0:0:0:
256,192,51885,1,12,0:0:0:0:
256,192,52051,1,0,0:0:0:0:
256,192,52135,1,8,0:0:0:0:
256,192,52218,1,0,0:0:0:0:
256,192,52385,1,12,0:0:0:0:
256,192,52551,1,8,0:0:0:0:
256,192,52718,1,4,0:0:0:0:
256,192,53551,1,8,0:0:0:0:
256,192,53635,1,8,0:0:0:0:
256,192,53718,1,0,0:0:0:0:
256,192,54051,1,12,0:0:0:0:
256,192,54218,1,8,0:0:0:0:
256,192,54301,1,8,0:0:0:0:
256,192,54468,1,8,0:0:0:0:
256,192,54551,1,0,0:0:0:0:
256,192,54718,1,0,0:0:0:0:
256,192,54801,1,8,0:0:0:0:
256,192,54885,1,0,0:0:0:0:
256,192,54968,1,0,0:0:0:0:
256,192,55051,1,0,0:0:0:0:
256,192,55218,1,8,0:0:0:0:
256,192,55385,1,8,0:0:0:0:
256,192,55551,1,8,0:0:0:0:
256,192,55635,1,0,0:0:0:0:
256,192,55801,1,0,0:0:0:0:
256,192,55968,1,8,0:0:0:0:
256,192,56135,1,0,0:0:0:0:
256,192,56218,1,0,0:0:0:0:
256,192,56301,1,8,0:0:0:0:
256,192,56385,1,8,0:0:0:0:
256,192,56468,1,0,0:0:0:0:
256,192,56551,1,0,0:0:0:0:
256,192,56635,1,8,0:0:0:0:
256,192,56718,1,8,0:0:0:0:
256,192,56885,1,8,0:0:0:0:
256,192,56968,1,8,0:0:0:0:
256,192,57135,1,8,0:0:0:0:
256,192,57218,1,0,0:0:0:0:
256,192,57385,1,0,0:0:0:0:
256,192,57468,1,8,0:0:0:0:
256,192,57551,1,0,0:0:0:0:
256,192,57635,1,0,0:0:0:0:
256,192,57718,1,8,0:0:0:0:
256,192,57885,1,0,0:0:0:0:
224,160,58051,1,8,0:0:0:0:
224,160,58218,1,0,0:0:0:0:
224,160,58301,1,8,0:0:0:0:
224,160,58468,1,0,0:0:0:0:
224,160,58551,1,8,0:0:0:0:
224,160,58718,1,8,0:0:0:0:
224,160,58801,1,0,0:0:0:0:
224,160,58885,1,0,0:0:0:0:
224,160,58968,1,8,0:0:0:0:
224,160,59135,1,8,0:0:0:0:
224,160,59218,1,8,0:0:0:0:
224,160,59301,1,0,0:0:0:0:
224,160,59385,1,8,0:0:0:0:
224,160,59551,1,8,0:0:0:0:
224,160,59635,1,8,0:0:0:0:
224,160,59801,1,8,0:0:0:0:
224,160,59885,1,0,0:0:0:0:
192,128,60051,1,0,0:0:0:0:
192,128,60135,1,8,0:0:0:0:
192,128,60218,1,0,0:0:0:0:
192,128,60301,1,0,0:0:0:0:
192,128,60385,1,0,0:0:0:0:
192,128,60551,1,8,0:0:0:0:
192,128,60718,1,8,0:0:0:0:
224,160,60885,1,8,0:0:0:0:
224,160,60968,1,0,0:0:0:0:
192,96,61135,1,8,0:0:0:0:
192,96,61218,1,8,0:0:0:0:
192,96,61301,1,0,0:0:0:0:
384,160,61385,1,0,0:0:0:0:
384,160,61468,1,8,0:0:0:0:
384,160,61551,1,0,0:0:0:0:
384,160,61635,1,8,0:0:0:0:
416,224,61718,1,8,0:0:0:0:
416,224,61801,1,8,0:0:0:0:
416,224,61885,1,0,0:0:0:0:
384,160,61968,1,8,0:0:0:0:
416,224,62051,1,8,0:0:0:0:
384,160,62218,1,8,0:0:0:0:
384,160,62301,1,8,0:0:0:0:
384,160,62468,1,8,0:0:0:0:
384,160,62551,1,8,0:0:0:0:
384,160,62635,1,0,0:0:0:0:
384,160,62718,1,0,0:0:0:0:
384,160,62801,1,8,0:0:0:0:
384,160,62885,1,0,0:0:0:0:
384,160,62968,1,0,0:0:0:0:
384,160,63051,1,8,0:0:0:0:
384,160,63218,1,0,0:0:0:0:
384,160,63385,1,12,0:0:0:0:
384,160,63551,1,0,0:0:0:0:
384,160,63635,1,8,0:0:0:0:
384,160,63801,1,0,0:0:0:0:
384,160,63885,1,8,0:0:0:0:
384,160,64051,1,12,0:0:0:0:
384,160,64135,1,0,0:0:0:0:
384,160,64218,1,0,0:0:0:0:
384,160,64301,1,8,0:0:0:0:
288,128,64385,1,8,0:0:0:0:
288,128,64468,1,0,0:0:0:0:
288,128,64551,1,0,0:0:0:0:
288,128,64635,1,8,0:0:0:0:
384,192,64885,1,8,0:0:0:0:
384,192,65051,1,12,0:0:0:0:
288,160,65218,1,0,0:0:0:0:
288,160,65385,1,0,0:0:0:0:
288,160,65468,1,8,0:0:0:0:
288,160,65551,1,0,0:0:0:0:
288,160,65635,1,0,0:0:0:0:
288,160,65718,1,0,0:0:0:0:
288,160,65885,1,8,0:0:0:0:
288,160,66051,1,8,0:0:0:0:
448,192,66218,1,8,0:0:0:0:
448,192,66301,1,0,0:0:0:0:
448,192,66468,1,8,0:0:0:0:
320,128,66551,1,8,0:0:0:0:
384,160,66635,1,0,0:0:0:0:
320,128,66718,1,0,0:0:0:0:
320,128,66801,1,8,0:0:0:0:
320,128,66885,1,0,0:0:0:0:
320,128,66968,1,8,0:0:0:0:
320,128,67051,1,8,0:0:0:0:
320,128,67135,1,0,0:0:0:0:
320,128,67218,1,0,0:0:0:0:
320,128,67301,1,8,0:0:0:0:
320,128,67385,1,8,0:0:0:0:
320,128,67551,1,8,0:0:0:0:
320,128,67635,1,8,0:0:0:0:
320,128,67801,1,8,0:0:0:0:
320,128,67885,1,8,0:0:0:0:
320,128,67968,1,0,0:0:0:0:
320,128,68051,1,0,0:0:0:0:
320,128,68135,1,8,0:0:0:0:
320,128,68218,1,0,0:0:0:0:
320,128,68301,1,0,0:0:0:0:
320,128,68385,1,8,0:0:0:0:
320,128,68551,1,0,0:0:0:0:
320,128,68718,1,12,0:0:0:0:
320,128,68885,1,0,0:0:0:0:
320,128,68968,1,8,0:0:0:0:
320,128,69135,1,0,0:0:0:0:
320,128,69218,1,8,0:0:0:0:
320,128,69385,1,12,0:0:0:0:
320,128,69468,1,0,0:0:0:0:
320,128,69551,1,0,0:0:0:0:
320,128,69635,1,8,0:0:0:0:
320,128,69718,1,8,0:0:0:0:
320,128,69885,1,0,0:0:0:0:
320,128,70051,1,12,0:0:0:0:
320,192,70218,1,8,0:0:0:0:
320,192,70301,1,8,0:0:0:0:
320,192,70468,1,8,0:0:0:0:
320,192,70551,1,0,0:0:0:0:
352,96,70718,1,0,0:0:0:0:
352,96,70801,1,8,0:0:0:0:
352,96,70885,1,0,0:0:0:0:
352,96,70968,1,0,0:0:0:0:
352,96,71051,1,0,0:0:0:0:
384,192,71218,1,8,0:0:0:0:
352,96,71385,1,8,0:0:0:0:
384,192,71551,1,8,0:0:0:0:
384,192,71635,1,0,0:0:0:0:
384,192,71801,1,8,0:0:0:0:
384,192,71885,1,8,0:0:0:0:
384,192,71968,1,0,0:0:0:0:
384,192,72051,1,0,0:0:0:0:
384,192,72135,1,8,0:0:0:0:
384,192,72218,1,0,0:0:0:0:
384,192,72301,1,8,0:0:0:0:
384,192,72385,1,8,0:0:0:0:
384,192,72468,1,0,0:0:0:0:
384,192,72551,1,0,0:0:0:0:
384,192,72635,1,8,0:0:0:0:
384,192,72718,1,8,0:0:0:0:
384,192,72885,1,8,0:0:0:0:
384,192,72968,1,8,0:0:0:0:
384,192,73135,1,8,0:0:0:0:
384,192,73218,1,0,0:0:0:0:
384,192,73385,1,0,0:0:0:0:
384,192,73468,1,8,0:0:0:0:
384,192,73551,1,0,0:0:0:0:
384,192,73635,1,0,0:0:0:0:
384,192,73718,1,8,0:0:0:0:
288,96,73885,1,0,0:0:0:0:
320,160,73968,1,0,0:0:0:0:
320,160,74051,1,12,0:0:0:0:
320,160,74218,1,0,0:0:0:0:
320,160,74301,1,12,0:0:0:0:
320,160,74468,1,0,0:0:0:0:
320,160,74551,1,12,0:0:0:0:
320,160,74718,1,12,0:0:0:0:
320,160,74801,1,0,0:0:0:0:
320,160,74885,1,0,0:0:0:0:
320,160,74968,1,8,0:0:0:0:
320,160,75051,1,8,0:0:0:0:
320,160,75135,1,0,0:0:0:0:
320,160,75218,1,0,0:0:0:0:
320,160,75301,1,0,0:0:0:0:
320,160,75383,1,4,0:0:0:0:
416,64,75549,2,0,L|288:128,1,105.000004005432
448,128,75716,2,0,L|352:160,1,99.7500009512901
384,160,75883,2,0,L|288:224,1,94.5000003604889
288,192,76049,2,0,L|160:256,1,89.249998808384
160,224,76216,2,0,L|64:288,1,83.9999974365235
96,224,76383,2,0,L|96:128,1,78.7500030040742
128,96,76549,2,0,L|224:96,1,73.4999977569581
224,128,76716,2,0,L|224:224|224:192,1,68.2500002603531
224,224,76883,2,0,L|128:224,1,62.9999980773926
160,224,77049,2,0,L|160:160,1,57.7500005507469
160,160,77216,2,0,L|224:160,1,52.5000020027161
224,160,77383,2,0,L|224:224,1,47.2500001802444
224,224,77549,2,0,L|160:224,1,41.9999987182618
160,224,77716,2,0,L|160:160,1,36.749998878479
160,160,77883,2,0,L|192:192,1,31.4999990386963
256,192,78051,1,4,0:0:0:0:
256,192,78218,1,8,0:0:0:0:
256,192,78301,1,8,0:0:0:0:
256,192,78468,1,0,0:0:0:0:
256,192,78551,1,8,0:0:0:0:
352,160,78718,1,0,0:0:0:0:
256,192,78801,1,8,0:0:0:0:
256,192,78885,1,0,0:0:0:0:
352,160,78968,1,0,0:0:0:0:
256,192,79051,1,8,0:0:0:0:
256,224,79218,1,8,0:0:0:0:
256,224,79385,1,4,0:0:0:0:
256,224,79551,1,4,0:0:0:0:
256,224,79718,1,4,0:0:0:0:
480,160,79885,1,0,0:0:0:0:
448,192,79926,1,0,0:0:0:0:
448,192,79968,1,0,0:0:0:0:
448,192,80010,1,0,0:0:0:0:
448,192,80051,1,12,0:0:0:0:
448,192,80385,1,12,0:0:0:0:
288,96,80718,1,4,0:0:0:0:
320,160,80885,1,8,0:0:0:0:
352,128,80968,1,8,0:0:0:0:
224,64,81135,1,0,0:0:0:0:
224,64,81218,1,8,0:0:0:0:
320,192,81385,1,8,0:0:0:0:
320,192,81468,1,8,0:0:0:0:
320,192,81551,1,0,0:0:0:0:
320,192,81635,1,8,0:0:0:0:
320,192,81718,1,8,0:0:0:0:
320,192,81885,1,0,0:0:0:0:
320,192,82051,1,12,0:0:0:0:
320,192,82385,1,12,0:0:0:0:
320,192,82718,1,12,0:0:0:0:
320,192,82885,1,12,0:0:0:0:
320,192,83218,1,0,0:0:0:0:
192,128,83385,1,4,0:0:0:0:
352,128,83551,1,8,0:0:0:0:
352,128,83635,1,8,0:0:0:0:
352,128,83801,1,0,0:0:0:0:
352,128,83885,1,8,0:0:0:0:
352,128,84051,1,0,0:0:0:0:
352,128,84135,1,8,0:0:0:0:
352,128,84218,1,0,0:0:0:0:
352,128,84301,1,0,0:0:0:0:
352,128,84385,1,8,0:0:0:0:
352,128,84551,1,8,0:0:0:0:
352,160,84718,1,4,0:0:0:0:
352,160,84885,1,4,0:0:0:0:
352,160,85051,1,4,0:0:0:0:
352,160,85218,1,0,0:0:0:0:
352,160,85301,1,0,0:0:0:0:
352,160,85385,1,12,0:0:0:0:
352,160,85718,1,12,0:0:0:0:
352,160,86051,1,4,0:0:0:0:
352,160,86218,1,8,0:0:0:0:
352,160,86301,1,0,0:0:0:0:
352,160,86385,1,0,0:0:0:0:
352,160,86551,1,8,0:0:0:0:
352,160,86718,1,8,0:0:0:0:
352,160,86801,1,8,0:0:0:0:
352,160,86885,1,0,0:0:0:0:
352,160,86968,1,8,0:0:0:0:
352,160,87051,1,8,0:0:0:0:
416,224,87218,1,0,0:0:0:0:
416,224,87385,1,8,0:0:0:0:
416,224,87718,1,8,0:0:0:0:
384,128,88051,1,8,0:0:0:0:
384,128,88218,1,8,0:0:0:0:
256,192,88718,1,12,0:0:0:0:
288,192,88968,1,8,0:0:0:0:
288,192,89218,1,8,0:0:0:0:
288,192,89468,1,8,0:0:0:0:
288,192,89718,1,8,0:0:0:0:
256,192,89885,1,8,0:0:0:0:
416,96,90049,1,8,0:0:0:0:
256,192,90218,1,8,0:0:0:0:
256,192,90301,1,8,0:0:0:0:
256,192,90468,1,8,0:0:0:0:
256,192,90635,1,8,0:0:0:0:
256,192,90801,1,8,0:0:0:0:
256,192,91051,1,8,0:0:0:0:
320,192,91216,1,8,0:0:0:0:
256,192,91385,1,8,0:0:0:0:
256,192,91635,1,8,0:0:0:0:
256,192,91885,1,8,0:0:0:0:
256,192,92135,1,8,0:0:0:0:
256,192,92385,1,8,0:0:0:0:
288,256,92551,1,8,0:0:0:0:
288,256,92718,1,8,0:0:0:0:
416,128,92968,1,8,0:0:0:0:
288,256,93218,1,8,0:0:0:0:
192,64,93385,1,8,0:0:0:0:
224,128,93635,1,8,0:0:0:0:
448,96,93885,1,8,0:0:0:0:
256,160,94051,1,12,0:0:0:0:
288,128,94218,1,8,0:0:0:0:
288,128,94301,1,8,0:0:0:0:
288,128,94468,1,8,0:0:0:0:
288,128,94551,1,8,0:0:0:0:
288,128,94635,1,0,0:0:0:0:
288,128,94718,1,8,0:0:0:0:
288,128,94885,1,8,0:0:0:0:
288,128,94968,1,8,0:0:0:0:
288,128,95135,1,8,0:0:0:0:
288,128,95218,1,0,0:0:0:0:
288,128,95301,1,0,0:0:0:0:
288,128,95385,1,8,0:0:0:0:
288,128,95551,1,8,0:0:0:0:
288,128,95635,1,0,0:0:0:0:
288,128,95718,1,8,0:0:0:0:
288,128,95885,1,8,0:0:0:0:
288,128,95968,1,0,0:0:0:0:
288,128,96051,1,8,0:0:0:0:
288,128,96218,1,8,0:0:0:0:
288,128,96301,1,0,0:0:0:0:
288,128,96385,1,8,0:0:0:0:
288,128,96551,1,8,0:0:0:0:
288,128,96635,1,0,0:0:0:0:
288,128,96718,1,8,0:0:0:0:
320,96,96885,1,8,0:0:0:0:
320,96,96968,1,0,0:0:0:0:
320,96,97051,1,0,0:0:0:0:
320,96,97135,1,8,0:0:0:0:
320,96,97218,1,8,0:0:0:0:
320,96,97301,1,0,0:0:0:0:
320,96,97385,1,0,0:0:0:0:
320,96,97468,1,8,0:0:0:0:
320,96,97551,1,0,0:0:0:0:
320,96,97635,1,8,0:0:0:0:
320,96,97718,1,8,0:0:0:0:
448,96,97760,1,0,0:0:0:0:
448,96,97801,1,0,0:0:0:0:
448,96,97843,1,0,0:0:0:0:
448,96,97885,1,0,0:0:0:0:
448,96,97926,1,0,0:0:0:0:
416,96,97968,1,0,0:0:0:0:
416,96,98010,1,0,0:0:0:0:
416,96,98051,1,12,0:0:0:0:
320,128,98218,1,8,0:0:0:0:
320,128,98301,1,8,0:0:0:0:
320,128,98385,1,0,0:0:0:0:
320,128,98468,1,0,0:0:0:0:
288,96,98551,1,8,0:0:0:0:
288,96,98635,1,8,0:0:0:0:
288,96,98718,1,0,0:0:0:0:
288,96,98801,1,0,0:0:0:0:
288,96,98885,1,0,0:0:0:0:
288,96,98968,1,0,0:0:0:0:
288,96,99051,1,8,0:0:0:0:
352,128,99385,1,12,0:0:0:0:
384,96,99551,1,8,0:0:0:0:
384,96,99635,1,8,0:0:0:0:
384,96,99718,1,0,0:0:0:0:
384,96,99801,1,8,0:0:0:0:
384,96,99885,1,8,0:0:0:0:
384,96,99968,1,0,0:0:0:0:
384,96,100051,1,0,0:0:0:0:
384,96,100135,1,8,0:0:0:0:
384,96,100218,1,0,0:0:0:0:
320,128,100301,1,0,0:0:0:0:
320,128,100385,1,8,0:0:0:0:
320,128,100468,1,0,0:0:0:0:
384,160,100551,1,0,0:0:0:0:
256,96,100635,1,8,0:0:0:0:
352,160,100718,1,8,0:0:0:0:
256,96,100885,1,8,0:0:0:0:
256,96,100968,1,0,0:0:0:0:
256,96,101051,1,8,0:0:0:0:
320,128,101135,1,0,0:0:0:0:
320,128,101218,1,0,0:0:0:0:
320,128,101301,1,8,0:0:0:0:
320,128,101385,1,0,0:0:0:0:
320,128,101468,1,8,0:0:0:0:
256,160,101551,1,0,0:0:0:0:
256,160,101635,1,8,0:0:0:0:
320,128,101718,1,8,0:0:0:0:
320,128,101801,1,0,0:0:0:0:
320,128,101885,1,0,0:0:0:0:
320,128,101968,1,8,0:0:0:0:
352,160,102051,1,8,0:0:0:0:
352,160,102135,1,0,0:0:0:0:
352,160,102218,1,8,0:0:0:0:
352,160,102301,1,8,0:0:0:0:
352,160,102385,1,0,0:0:0:0:
352,160,102468,1,8,0:0:0:0:
352,160,102551,1,0,0:0:0:0:
352,160,102635,1,0,0:0:0:0:
352,160,102718,1,0,0:0:0:0:
352,160,102801,1,8,0:0:0:0:
352,160,102885,1,0,0:0:0:0:
288,192,102940,1,0,0:0:0:0:
288,192,102996,1,0,0:0:0:0:
352,160,103051,1,8,0:0:0:0:
480,128,103218,1,0,0:0:0:0:
288,192,103385,1,12,0:0:0:0:
224,128,103551,1,0,0:0:0:0:
256,128,103635,1,8,0:0:0:0:
256,128,103801,1,0,0:0:0:0:
256,128,103885,1,8,0:0:0:0:
256,128,104051,1,12,0:0:0:0:
256,128,104135,1,0,0:0:0:0:
256,128,104218,1,0,0:0:0:0:
256,128,104301,1,8,0:0:0:0:
256,128,104385,1,8,0:0:0:0:
320,160,104551,1,0,0:0:0:0:
320,160,104718,1,12,0:0:0:0:
384,96,104885,1,8,0:0:0:0:
384,96,104969,1,8,0:0:0:0:
384,96,105052,1,0,0:0:0:0:
384,96,105135,1,8,0:0:0:0:
384,96,105219,1,8,0:0:0:0:
384,96,105302,1,0,0:0:0:0:
384,96,105385,1,0,0:0:0:0:
384,96,105469,1,8,0:0:0:0:
384,96,105552,1,0,0:0:0:0:
320,128,105635,1,0,0:0:0:0:
320,128,105719,1,8,0:0:0:0:
320,128,105802,1,0,0:0:0:0:
384,160,105885,1,0,0:0:0:0:
256,96,105969,1,8,0:0:0:0:
352,160,106052,1,8,0:0:0:0:
224,160,106218,1,8,0:0:0:0:
256,96,106302,1,0,0:0:0:0:
256,96,106385,1,8,0:0:0:0:
320,128,106469,1,0,0:0:0:0:
320,128,106552,1,0,0:0:0:0:
320,128,106635,1,8,0:0:0:0:
320,128,106719,1,0,0:0:0:0:
320,128,106802,1,8,0:0:0:0:
320,128,106885,1,0,0:0:0:0:
320,128,106969,1,8,0:0:0:0:
320,128,107052,1,8,0:0:0:0:
320,128,107135,1,0,0:0:0:0:
320,128,107219,1,0,0:0:0:0:
320,128,107302,1,8,0:0:0:0:
352,160,107385,1,8,0:0:0:0:
352,160,107469,1,0,0:0:0:0:
352,160,107552,1,8,0:0:0:0:
352,160,107635,1,8,0:0:0:0:
352,160,107719,1,0,0:0:0:0:
352,160,107802,1,8,0:0:0:0:
352,160,107885,1,0,0:0:0:0:
352,160,107969,1,0,0:0:0:0:
352,160,108052,1,0,0:0:0:0:
352,160,108135,1,8,0:0:0:0:
352,160,108219,1,0,0:0:0:0:
288,192,108274,1,0,0:0:0:0:
288,192,108330,1,0,0:0:0:0:
352,160,108385,1,8,0:0:0:0:
256,160,108468,1,0,0:0:0:0:
256,160,108551,1,0,0:0:0:0:
256,160,108635,1,0,0:0:0:0:
384,128,108718,1,12,0:0:0:0:
384,128,108968,1,12,0:0:0:0:
384,128,109218,1,12,0:0:0:0:
384,128,109551,1,0,0:0:0:0:
384,128,109635,1,0,0:0:0:0:
384,128,109718,1,8,0:0:0:0:
384,128,109885,1,0,0:0:0:0:
384,128,110051,1,12,0:0:0:0:
352,224,110218,1,0,0:0:0:0:
352,224,110301,1,12,0:0:0:0:
352,224,110551,1,12,0:0:0:0:
352,224,110718,1,0,0:0:0:0:
352,224,110801,1,12,0:0:0:0:
352,224,110885,1,0,0:0:0:0:
352,224,111051,1,12,0:0:0:0:
352,224,111218,1,12,0:0:0:0:
320,160,111385,1,0,0:0:0:0:
320,160,111551,1,8,0:0:0:0:
352,192,111718,1,0,0:0:0:0:
352,192,111801,1,8,0:0:0:0:
352,192,111885,1,0,0:0:0:0:
352,192,112051,1,8,0:0:0:0:
352,192,112135,1,8,0:0:0:0:
352,192,112301,1,0,0:0:0:0:
352,192,112551,1,8,0:0:0:0:
352,192,112718,1,12,0:0:0:0:
352,192,112885,1,0,0:0:0:0:
352,192,112968,1,12,0:0:0:0:
352,192,113218,1,12,0:0:0:0:
352,192,113385,1,0,0:0:0:0:
352,192,113468,1,12,0:0:0:0:
352,192,113551,1,0,0:0:0:0:
352,192,113718,1,12,0:0:0:0:
352,192,113885,1,12,0:0:0:0:
384,160,114051,1,0,0:0:0:0:
384,160,114135,1,8,0:0:0:0:
384,160,114218,1,8,0:0:0:0:
384,160,114301,1,0,0:0:0:0:
448,128,114343,1,0,0:0:0:0:
448,128,114385,1,8,0:0:0:0:
448,128,114551,1,0,0:0:0:0:
352,160,114593,1,0,0:0:0:0:
448,128,114635,1,0,0:0:0:0:
448,128,114718,1,8,0:0:0:0:
448,128,114801,1,8,0:0:0:0:
448,128,114885,1,0,0:0:0:0:
448,128,114968,1,0,0:0:0:0:
448,128,115051,1,8,0:0:0:0:
448,128,115218,1,0,0:0:0:0:
448,128,115260,1,0,0:0:0:0:
448,128,115301,1,0,0:0:0:0:
448,128,115343,1,0,0:0:0:0:
448,128,115385,1,12,0:0:0:0:
352,160,115551,1,0,0:0:0:0:
352,160,115635,1,12,0:0:0:0:
352,160,115885,1,12,0:0:0:0:
352,160,116051,1,0,0:0:0:0:
352,160,116135,1,12,0:0:0:0:
352,160,116218,1,0,0:0:0:0:
352,160,116385,1,12,0:0:0:0:
352,160,116551,1,12,0:0:0:0:
352,160,116718,1,0,0:0:0:0:
352,160,116885,1,8,0:0:0:0:
352,160,117051,1,0,0:0:0:0:
352,160,117135,1,0,0:0:0:0:
352,160,117218,1,0,0:0:0:0:
352,160,117301,1,0,0:0:0:0:
352,160,117385,1,8,0:0:0:0:
352,160,117718,1,8,0:0:0:0:
352,160,117885,1,0,0:0:0:0:
352,160,118051,1,12,0:0:0:0:
352,160,118301,1,12,0:0:0:0:
224,128,118551,1,12,0:0:0:0:
224,128,118801,1,12,0:0:0:0:
224,128,119051,1,12,0:0:0:0:
256,128,119218,1,12,0:0:0:0:
256,128,119385,1,0,0:0:0:0:
256,128,119551,1,8,0:0:0:0:
256,128,119635,1,8,0:0:0:0:
256,128,119718,1,8,0:0:0:0:
256,128,119801,1,8,0:0:0:0:
256,128,119885,1,0,0:0:0:0:
256,128,119968,1,0,0:0:0:0:
256,128,120051,1,8,0:0:0:0:
256,128,120135,1,8,0:0:0:0:
256,128,120218,1,0,0:0:0:0:
256,128,120301,1,0,0:0:0:0:
256,128,120385,1,8,0:0:0:0:
256,128,120551,1,0,0:0:0:0:
