osu file format v14

[General]
AudioFilename: SOUND VOLTEXFLOWER REDALiCE RemixNOV.mp3
AudioLeadIn: 2000
PreviewTime: 52129
Countdown: 0
SampleSet: Normal
StackLeniency: 0.2
Mode: 0
LetterboxInBreaks: 0
WidescreenStoryboard: 1

[Editor]
Bookmarks: 459,6126,19459,30126,40792,52792,76792,87459,92792,98126,108792,119459
DistanceSpacing: 1
BeatDivisor: 4
GridSize: 4
TimelineZoom: 1

[Metadata]
Title:FLOWER REDALiCE Remix
TitleUnicode:FLOWER REDALiCE Remix
Artist:REDALiCE
ArtistUnicode:REDALiCE
Creator:Jenny
Version:Intermediate
Source:SOUND VOLTEX BOOTH
Tags:phquase konami bemani sdvx Yoshitaka Nishimura Yoshikazu Nagai
BeatmapID:304433
BeatmapSetID:117566

[Difficulty]
HPDrainRate:4
CircleSize:4
OverallDifficulty:4
ApproachRate:6
SliderMultiplier:1.5
SliderTickRate:1

[Events]
//Background and Video events
0,0,"mbg+25.jpg",0,0
//Break Periods
//Storyboard Layer 0 (Background)
//Storyboard Layer 1 (Fail)
//Storyboard Layer 2 (Pass)
//Storyboard Layer 3 (Foreground)
//Storyboard Layer 4 (Overlay)
//Storyboard Sound Samples

[TimingPoints]
130,333.333333333333,4,1,0,65,1,0
213,-100,4,1,0,52,0,0
713,-100,4,1,0,40,0,0
1379,-100,4,1,0,65,0,0
1546,-100,4,1,0,52,0,0
2046,-100,4,1,0,40,0,0
2713,-100,4,1,0,65,0,0
2879,-100,4,1,0,52,0,0
3379,-100,4,1,0,65,0,0
3546,-100,4,1,0,52,0,0
4046,-100,4,1,0,50,0,0
4796,-200,4,2,0,5,0,0
5129,-200,4,2,0,20,0,0
5213,-200,4,2,0,5,0,0
5463,-100,4,1,0,60,0,0
5484,-100,4,2,0,5,0,0
5546,-100,4,2,0,60,0,0
6713,-133.333333333333,4,1,0,50,0,0
6879,-133.333333333333,4,1,0,35,0,0
6963,-133.333333333333,4,1,0,50,0,0
7213,-133.333333333333,4,1,0,35,0,0
7296,-133.333333333333,4,1,0,50,0,0
7546,-133.333333333333,4,2,0,5,0,0
7796,-133.333333333333,4,1,0,50,0,0
7879,-133.333333333333,4,2,0,5,0,0
8046,-100,4,2,0,5,0,0
8129,-100,4,1,0,60,0,0
8171,-100,4,2,0,5,0,0
8213,-100,4,2,0,60,0,0
9379,-133.333333333333,4,1,0,50,0,0
9546,-133.333333333333,4,2,0,5,0,0
9713,-133.333333333333,4,1,0,50,0,0
9879,-133.333333333333,4,2,0,5,0,0
10129,-133.333333333333,4,1,0,50,0,0
10379,-133.333333333333,4,1,0,35,0,0
10463,-133.333333333333,4,1,0,50,0,0
10713,-133.333333333333,4,1,0,35,0,0
10796,-100,4,1,0,60,0,0
10838,-100,4,2,0,5,0,0
10879,-100,4,2,0,60,0,0
12046,-100,4,2,0,5,0,0
12129,-100,4,2,0,50,0,0
12213,-100,4,2,0,5,0,0
12296,-100,4,2,0,50,0,0
12379,-100,4,2,0,5,0,0
12463,-100,4,2,0,50,0,0
12504,-100,4,2,0,5,0,0
12546,-100,4,2,0,5,0,0
12629,-100,4,2,0,50,0,0
12671,-100,4,2,0,5,0,0
12713,-100,4,2,0,5,0,0
12796,-133.333333333333,4,1,0,50,0,0
12838,-133.333333333333,4,2,0,5,0,0
13129,-133.333333333333,4,2,0,80,0,0
13171,-133.333333333333,4,2,0,5,0,0
13213,-133.333333333333,4,2,0,50,0,0
13338,-133.333333333333,4,2,0,40,0,0
13463,-100,4,1,0,60,0,0
13504,-100,4,2,0,5,0,0
13546,-100,4,2,0,60,0,0
14796,-100,4,1,0,60,0,0
14838,-100,4,2,0,5,0,0
14963,-100,4,1,0,60,0,0
15004,-100,4,2,0,5,0,0
15046,-100,4,2,0,60,0,0
15421,-100,4,2,0,5,0,0
15463,-100,4,1,0,50,0,0
15713,-100,4,1,0,35,0,0
15796,-100,4,1,0,50,0,0
16046,-100,4,1,0,35,0,0
16129,-100,4,1,0,17,0,0
16150,-100,4,2,0,5,0,0
16213,-100,4,2,0,5,0,0
18796,-200,4,1,0,40,0,0
18963,-200,4,2,0,50,0,0
22546,-200,4,2,0,60,0,0
24129,-200,4,2,0,50,0,0
28129,-200,4,1,0,70,0,0
28213,-200,4,2,0,5,0,0
28629,-200,4,1,0,70,0,0
29463,-200,4,1,0,60,0,0
29796,-200,4,2,0,50,0,0
29963,-200,4,1,0,60,0,0
30129,-200,4,2,0,50,0,0
30796,-200,4,1,0,60,0,0
31129,-200,4,2,0,50,0,0
31296,-200,4,1,0,60,0,0
31463,-200,4,2,0,50,0,0
31963,-200,4,1,0,40,0,0
32213,-200,4,2,0,50,0,0
32463,-200,4,2,0,50,0,0
32629,-200,4,1,0,40,0,0
32796,-200,4,2,0,50,0,0
33296,-200,4,2,0,70,0,0
33379,-200,4,1,0,60,0,0
33546,-200,4,2,0,70,0,0
33713,-200,4,1,0,60,0,0
33879,-200,4,2,0,70,0,0
34796,-200,4,1,0,60,0,0
35463,-200,4,2,0,70,0,0
35963,-200,4,1,0,60,0,0
36796,-200,4,2,0,70,0,0
37379,-133.333333333333,4,1,0,40,0,0
37713,-133.333333333333,4,1,0,50,0,0
37796,-133.333333333333,4,1,0,50,0,0
37963,-133.333333333333,4,1,0,50,0,0
38129,-133.333333333333,4,1,0,45,0,0
38379,-133.333333333333,4,1,0,55,0,0
38463,-133.333333333333,4,1,0,55,0,0
38629,-133.333333333333,4,1,0,55,0,0
38713,-100,4,1,0,60,0,0
38879,-100,4,1,0,60,0,0
39796,-100,4,1,0,35,0,0
40129,-100,4,1,0,75,0,0
41213,-100,4,1,0,5,0,0
41296,-100,4,2,0,75,0,0
41379,-100,4,2,0,5,0,0
41463,-100,4,2,0,75,0,0
41879,-100,4,2,0,37,0,0
41963,-100,4,2,0,75,0,0
42171,-100,4,2,0,37,0,0
42254,-100,4,2,0,75,0,0
42338,-100,4,2,0,37,0,0
42421,-100,4,2,0,75,0,0
42504,-100,4,2,0,37,0,0
42588,-100,4,2,0,75,0,0
42671,-100,4,2,0,37,0,0
42796,-100,4,1,0,75,0,0
43879,-100,4,2,0,5,0,0
43963,-100,4,2,0,75,0,0
44046,-100,4,2,0,5,0,0
44129,-100,4,2,0,75,0,0
44296,-100,4,2,0,37,0,0
44379,-100,4,2,0,75,0,0
44546,-100,4,2,0,37,0,0
44629,-100,4,2,0,75,0,0
44838,-100,4,2,0,37,0,0
44921,-100,4,2,0,75,0,0
45004,-100,4,2,0,37,0,0
45088,-100,4,2,0,75,0,0
45171,-100,4,2,0,37,0,0
45254,-100,4,2,0,75,0,0
45338,-100,4,2,0,37,0,0
45463,-100,4,1,0,75,0,0
46713,-100,4,2,0,75,0,0
48129,-100,4,1,0,75,0,0
48379,-100,4,1,0,50,0,0
48546,-100,4,1,0,75,0,0
48879,-100,4,1,0,50,0,0
49046,-100,4,1,0,75,0,0
49629,-100,4,1,0,60,0,0
49879,-100,4,1,0,75,0,0
50129,-100,4,1,0,60,0,0
50379,-100,4,1,0,75,0,0
50546,-100,4,1,0,60,0,0
50713,-100,4,1,0,75,0,0
51546,-100,4,2,0,75,0,0
51796,-200,4,1,0,60,0,0
51879,-200,4,2,0,5,0,0
52129,-100,4,1,0,80,0,1
52213,-100,4,1,0,67,0,1
56713,-100,4,2,0,27,0,1
56796,-100,4,1,0,67,0,1
57379,-100,4,2,0,27,0,1
57463,-100,4,1,0,67,0,1
61504,-100,4,2,0,27,0,1
61713,-100,4,1,0,67,0,1
61754,-100,4,2,0,27,0,1
61963,-100,4,1,0,67,0,1
62004,-100,4,2,0,27,0,1
62046,-100,4,2,0,75,0,1
62171,-100,4,2,0,37,0,1
62296,-100,4,2,0,75,0,1
62338,-100,4,2,0,37,0,1
62463,-100,4,2,0,75,0,1
62504,-100,4,2,0,37,0,1
62629,-100,4,2,0,75,0,1
62671,-100,4,2,0,37,0,1
62796,-100,4,1,0,67,0,1
63463,-100,4,1,0,40,0,1
64129,-100,4,1,0,67,0,1
64796,-100,4,1,0,40,0,1
65463,-100,4,1,0,67,0,1
66129,-100,4,1,0,40,0,1
66796,-100,4,1,0,67,0,1
66963,-100,4,2,0,30,0,1
67046,-100,4,1,0,67,0,1
67213,-100,4,2,0,30,0,1
67296,-100,4,1,0,67,0,1
67421,-100,4,2,0,30,0,1
67463,-100,4,1,0,67,0,1
68129,-100,4,2,0,75,0,1
68171,-100,4,2,0,37,0,1
68296,-100,4,2,0,75,0,1
68338,-100,4,2,0,37,0,1
68463,-100,4,2,0,75,0,1
68504,-100,4,2,0,37,0,1
68629,-100,4,2,0,75,0,1
68671,-100,4,2,0,37,0,1
68796,-100,4,1,0,67,0,1
69463,-100,4,2,0,75,0,1
69504,-100,4,2,0,37,0,1
69629,-100,4,2,0,75,0,1
69671,-100,4,2,0,37,0,1
69796,-100,4,2,0,75,0,1
69838,-100,4,2,0,37,0,1
69963,-100,4,2,0,75,0,1
70004,-100,4,2,0,37,0,1
70129,-100,4,1,0,67,0,1
70796,-100,4,1,0,45,0,1
71129,-100,4,1,0,67,0,1
71463,-100,4,1,0,75,0,1
72338,-100,4,2,0,42,0,1
72379,-100,4,1,0,85,0,1
72588,-100,4,2,0,42,0,1
72629,-100,4,1,0,85,0,1
72713,-100,4,1,0,85,0,1
72754,-100,4,2,0,42,0,1
72796,-100,4,1,0,67,0,1
72963,-100,4,2,0,30,0,1
73046,-100,4,1,0,67,0,1
73213,-100,4,2,0,30,0,1
73296,-100,4,1,0,67,0,1
73442,-133.333333333333,4,1,0,67,0,0
73463,-133.333333333333,4,1,0,67,0,1
73484,-133.333333333333,4,2,0,5,0,1
76129,-100,4,1,0,70,0,0
76213,-100,4,2,0,70,0,0
76796,-100,4,1,0,35,0,0
76879,-100,4,2,0,70,0,0
77504,-100,4,2,0,35,0,0
77629,-100,4,2,0,70,0,0
77671,-100,4,2,0,35,0,0
77796,-100,4,2,0,70,0,0
77838,-100,4,2,0,35,0,0
77963,-100,4,2,0,70,0,0
78004,-100,4,2,0,35,0,0
78046,-100,4,2,0,70,0,0
78379,-100,4,2,0,5,0,0
78463,-100,4,2,0,70,0,0
78713,-100,4,2,0,5,0,0
78796,-100,4,1,0,70,0,0
78879,-100,4,2,0,70,0,0
79463,-100,4,1,0,35,0,0
79546,-100,4,2,0,70,0,0
80379,-100,4,2,0,5,0,0
80463,-100,4,2,0,70,0,0
80713,-100,4,2,0,5,0,0
80796,-100,4,2,0,70,0,0
81213,-100,4,2,0,5,0,0
81296,-100,4,2,0,70,0,0
81463,-100,4,1,0,70,0,0
81546,-100,4,2,0,70,0,0
82129,-100,4,1,0,35,0,0
82213,-100,4,2,0,70,0,0
84129,-100,4,1,0,70,0,0
84213,-100,4,2,0,70,0,0
84796,-100,4,1,0,35,0,0
84879,-100,4,2,0,70,0,0
86629,-100,4,2,0,5,0,0
86796,-161.290322580645,4,2,0,25,0,0
86879,-161.290322580645,4,2,0,5,0,0
86889,-161.290322580645,4,2,0,5,0,0
88046,-161.290322580645,4,2,0,43,0,0
88213,-161.290322580645,4,2,0,5,0,0
89379,-161.290322580645,4,2,0,37,0,0
89546,-161.290322580645,4,2,0,5,0,0
90129,-161.290322580645,4,2,0,20,0,0
90213,-161.290322580645,4,2,0,5,0,0
90713,-161.290322580645,4,2,0,30,0,0
90879,-161.290322580645,4,2,0,5,0,0
91463,-161.290322580645,4,2,0,20,0,0
91546,-161.290322580645,4,2,0,5,0,0
91963,-161.290322580645,4,1,0,50,0,0
92129,-123.456790123457,4,1,0,50,0,0
92296,-123.456790123457,4,1,0,35,0,0
93713,-123.456790123457,4,1,0,40,0,0
94046,-123.456790123457,4,1,0,45,0,0
94379,-123.456790123457,4,1,0,50,0,0
94795,-100,4,2,0,50,0,0
96120,-80,4,2,0,50,0,0
96129,-80,4,1,0,50,0,0
96213,-80,4,2,0,50,0,0
96296,-80,4,2,0,47,0,0
96379,-80,4,2,0,45,0,0
96463,-80,4,2,0,42,0,0
96546,-80,4,2,0,40,0,0
96629,-80,4,2,0,37,0,0
96713,-80,4,2,0,35,0,0
96796,-80,4,2,0,30,0,0
96879,-80,4,2,0,27,0,0
96963,-80,4,2,0,25,0,0
97046,-200,4,2,0,22,0,0
97129,-200,4,3,0,50,0,0
97421,-200,4,2,0,5,0,0
97463,-100,4,1,0,80,0,1
97546,-100,4,1,0,67,0,1
98796,-100,4,1,0,80,0,1
98879,-100,4,1,0,67,0,1
100129,-100,4,1,0,80,0,1
100213,-100,4,1,0,67,0,1
101463,-100,4,1,0,80,0,1
101629,-100,4,1,0,30,0,1
101713,-100,4,1,0,67,0,1
101879,-100,4,1,0,30,0,1
101963,-100,4,1,0,67,0,1
102129,-100,4,1,0,85,0,1
102713,-100,4,1,0,85,0,1
102879,-100,4,1,0,67,0,1
104129,-100,4,1,0,85,0,1
104213,-100,4,1,0,67,0,1
105463,-100,4,1,0,85,0,1
105546,-100,4,1,0,75,0,1
106796,-100,4,1,0,67,0,1
106963,-100,4,2,0,5,0,1
107046,-100,4,1,0,67,0,1
107213,-100,4,2,0,5,0,1
107296,-100,4,1,0,67,0,1
107421,-100,4,2,0,5,0,1
107463,-100,4,1,0,67,0,1
108046,-100,4,1,0,67,0,0
108129,-100,4,1,0,80,0,1
108296,-100,4,1,0,5,0,1
108379,-100,4,1,0,80,0,1
108546,-100,4,2,0,5,0,1
108629,-100,4,1,0,80,0,1
108796,-100,4,2,0,5,0,1
108879,-100,4,1,0,80,0,1
109046,-100,4,2,0,5,0,1
109129,-100,4,1,0,80,0,1
109462,-100,4,2,0,5,0,0
110463,-100,4,2,0,80,0,0
110795,-100,4,1,0,80,0,1
110963,-100,4,2,0,5,0,1
111046,-100,4,1,0,80,0,1
111213,-100,4,2,0,5,0,1
111296,-100,4,1,0,80,0,1
111463,-100,4,2,0,5,0,1
111546,-100,4,1,0,80,0,1
111713,-100,4,2,0,5,0,1
111796,-100,4,1,0,80,0,1
112128,-100,4,2,0,5,0,0
113129,-100,4,2,0,80,0,0
113462,-100,4,1,0,80,0,1
113629,-100,4,2,0,5,0,1
113713,-100,4,1,0,80,0,1
113879,-100,4,2,0,5,0,1
113963,-100,4,1,0,80,0,1
114129,-100,4,2,0,5,0,1
114213,-100,4,1,0,80,0,1
114379,-100,4,2,0,5,0,1
114463,-100,4,1,0,80,0,1
114546,-100,4,2,0,5,0,1
114629,-100,4,1,0,80,0,1
114795,-100,4,2,0,5,0,0
115796,-100,4,2,0,80,0,0
116128,-100,4,1,0,80,0,1
116296,-100,4,2,0,5,0,1
116379,-100,4,1,0,80,0,1
116546,-100,4,2,0,5,0,1
116629,-100,4,1,0,80,0,1
116796,-100,4,2,0,5,0,1
116879,-100,4,1,0,80,0,1
117046,-100,4,2,0,5,0,1
117129,-100,4,1,0,80,0,1
117213,-100,4,2,0,5,0,1
117296,-100,4,1,0,80,0,1
117462,-100,4,2,0,20,0,0
117796,-100,4,2,0,40,0,0
118463,-100,4,1,0,60,0,0
118546,-100,4,2,0,40,0,0

[Colours]
Combo1 : 223,147,32
Combo2 : 36,208,36
Combo3 : 36,36,208
Combo4 : 208,36,36

[HitObjects]
106,115,130,6,0,P|161:123|208:154,3,112.5,4|4|4|0,0:0|0:3|0:3|0:0,0:0:0:0:
284,236,1129,2,0,L|313:164,1,75
386,153,1463,6,0,P|398:200|437:256,3,112.5,4|4|4|0,0:0|0:3|0:3|0:0,0:0:0:0:
483,353,2463,2,0,L|400:362,1,75
337,335,2796,6,0,P|295:326|218:356,2,112.5,4|4|4,0:0|0:3|0:3,0:0:0:0:
397,289,3463,2,0,P|357:264|282:255,2,112.5,4|4|4,0:0|0:3|0:3,0:0:0:0:
470,275,4129,6,0,P|478:229|476:177,1,75,4|4,0:0|0:3,0:0:0:0:
411,165,4463,2,0,P|403:128|402:90,1,75,4|4,0:0|0:3,0:0:0:0:
434,23,4796,2,0,B|373:2|349:37|274:15,1,150,12|4,0:3|1:2,0:0:0:0:
214,43,5629,6,0,P|241:106|234:203,1,150,2|2,0:0|0:0,0:0:0:0:
94,226,6296,2,0,P|67:163|74:66,1,150,2|2,0:0|0:0,0:0:0:0:
133,27,6796,6,0,L|212:20,2,56.2500021457673,0|4|0,0:0|0:3|0:0,0:0:0:0:
4,139,7463,1,0,0:0:0:0:
163,193,7796,2,0,B|207:186|236:200|288:191,1,112.500004291535,0|4,0:0|1:2,0:0:0:0:
338,152,8296,6,0,P|370:185|403:292,1,150,2|2,0:0|0:0,0:0:0:0:
287,377,8963,2,0,P|255:344|222:237,1,150,2|2,0:0|0:0,0:0:0:0:
244,166,9463,6,0,P|264:114|274:51,1,112.500004291535,4|4,0:3|0:3,0:0:0:0:
164,29,10129,2,0,L|100:38,1,56.2500021457673,4|4,0:3|0:3,0:0:0:0:
48,112,10463,2,0,L|103:119,2,56.2500021457673,4|4|4,0:3|0:3|1:2,0:0:0:0:
7,175,10963,6,0,P|17:247|59:315,1,150,2|2,0:0|0:0,0:0:0:0:
193,251,11629,2,0,P|183:179|141:111,1,150,2|2,0:0|0:0,0:0:0:0:
166,42,12129,6,0,L|241:38,3,75
307,70,12796,2,0,P|369:70|425:43,2,112.500004291535,4|4|4,0:3|0:3|1:2,0:0:0:0:
271,136,13629,6,0,P|270:220|310:293,1,150,2|2,0:0|0:0,0:0:0:0:
447,295,14296,2,0,P|448:211|408:138,1,150,2|2,0:0|0:0,0:0:0:0:
346,133,14796,6,0,L|260:136,1,75,4|4,0:2|0:2,0:0:0:0:
208,177,15129,2,0,B|146:204|120:160|48:193,1,150,4|4,0:3|0:3,0:0:0:0:
13,129,15629,1,4,0:3:0:0:
36,57,15796,1,4,0:3:0:0:
256,192,16129,12,4,18796,0:0:0:0:
176,248,19129,5,2,3:2:0:0:
176,248,19463,2,0,P|234:251|322:208,1,150,8|0,0:0|0:0,0:0:0:0:
286,66,20796,2,0,P|344:63|432:106,1,150,8|0,0:0|0:0,0:0:0:0:
483,239,22129,6,0,P|488:290|466:348,1,112.5,8|0,0:0|0:0,0:0:0:0:
432,360,22796,2,0,P|377:370|280:367,1,150,0|8,0:0|0:0,0:0:0:0:
224,321,23796,1,0,0:0:0:0:
193,252,24129,6,0,P|138:203|52:198,1,150,0|8,0:0|0:0,0:0:0:0:
47,121,25129,1,0,0:0:0:0:
109,79,25463,2,0,P|164:128|237:136,1,150,0|8,0:0|0:0,0:0:0:0:
309,113,26463,1,0,0:0:0:0:
365,161,26796,6,0,B|423:176|457:142|519:162,1,150,0|8,0:0|0:0,0:0:0:0:
439,29,28129,2,0,P|391:44|328:40,1,112.5,4|0,0:3|0:0,0:0:0:0:
294,26,28796,2,0,P|273:20|247:20,1,37.5,4|4,0:3|0:3,0:0:0:0:
229,44,29129,2,0,P|207:49|185:62,1,37.5,4|4,0:3|0:3,0:0:0:0:
186,93,29463,6,0,P|166:163|177:248,1,150,2|8,0:2|0:0,0:0:0:0:
75,352,30796,2,0,P|83:277|62:206,1,150,2|8,0:2|0:0,0:0:0:0:
13,149,31796,1,2,0:0:0:0:
40,79,32129,6,0,B|100:63|129:95|192:75,1,150,0|8,0:0|0:0,0:0:0:0:
332,33,33463,2,0,P|405:42|460:104,1,150,0|8,0:0|0:0,0:0:0:0:
456,170,34463,1,0,0:0:0:0:
423,237,34796,6,0,P|412:289|420:354,1,112.5,4|4,3:0|0:3,0:0:0:0:
447,371,35463,1,8,0:0:0:0:
269,368,36129,6,0,P|280:316|272:251,1,112.5,0|12,0:0|0:3,0:0:0:0:
247,230,36796,1,8,0:0:0:0:
50,281,37463,6,0,P|54:221|74:159,1,112.500004291535,4|0,2:0|0:0,0:0:0:0:
180,178,38129,2,0,P|176:118|156:56,1,112.500004291535,4|4,2:0|0:3,0:0:0:0:
304,23,38796,6,0,P|273:154|391:256,1,300,4|0,0:0|0:0,0:0:0:0:
457,233,39629,1,4,0:3:0:0:
457,233,39796,2,0,P|489:269|500:301,1,75,4|4,0:3|0:3,0:0:0:0:
483,367,40129,5,4,0:0:0:0:
483,367,41129,2,0,L|400:376,1,75,0|2,1:0|0:0,0:0:0:0:
339,344,41463,2,0,P|291:328|225:326,2,112.5,2|0|2,0:0|0:0|0:0,0:0:0:0:
399,300,42129,5,0,0:0:0:0:
415,121,42463,1,0,0:0:0:0:
338,249,42796,5,4,0:0:0:0:
338,249,43796,2,0,L|416:238,1,75,0|2,1:0|0:0,0:0:0:0:
478,202,44129,2,0,P|487:159|484:90,2,112.5,2|2|2,0:0|0:0|0:0,0:0:0:0:
412,163,44796,5,0,0:0:0:0:
234,137,45129,1,0,0:0:0:0:
377,92,45463,6,0,P|333:65|264:53,1,112.5,4|0,0:0|0:0,0:0:0:0:
165,83,45963,2,0,P|98:77|27:26,1,150
0,99,46463,6,0,L|10:173,1,75
78,204,46796,2,0,P|66:250|71:330,2,112.5,2|0|0,0:0|0:0|0:0,0:0:0:0:
150,181,47463,6,0,L|230:187,1,75
316,253,47796,2,0,L|242:259,1,75
203,323,48129,6,0,P|270:349|377:351,1,150,4|0,0:0|0:0,0:0:0:0:
420,338,48629,2,0,L|458:175,1,150,4|0,0:0|0:0,0:0:0:0:
481,120,49129,2,0,P|422:100|394:96,1,75
339,126,49463,5,0,0:0:0:0:
231,93,49713,1,0,0:0:0:0:
118,99,49963,2,0,P|66:84|14:45,2,112.5
168,154,50629,1,0,0:0:0:0:
156,229,50796,5,2,0:2:0:0:
156,229,51796,2,0,P|148:264|156:313,1,75,0|4,0:0|0:0,0:0:0:0:
246,360,52379,5,0,0:0:0:0:
332,288,52629,2,0,P|388:294|440:317,1,112.5,2|0,0:2|0:0,0:0:0:0:
509,228,53129,2,0,P|503:184|487:143,1,75,4|2,0:3|0:2,0:0:0:0:
420,133,53463,1,4,0:3:0:0:
334,206,53713,1,0,0:0:0:0:
248,134,53963,2,0,P|192:140|140:163,1,112.5,2|0,0:2|0:0,0:0:0:0:
28,167,54463,2,0,P|34:123|50:82,1,75,4|2,0:3|0:2,0:0:0:0:
96,40,54796,5,4,0:3:0:0:
207,26,55046,1,0,0:0:0:0:
276,114,55296,2,0,P|332:120|384:143,1,112.5,2|0,0:2|0:0,0:0:0:0:
490,178,55796,2,0,P|484:134|468:93,1,75,4|2,0:3|0:2,0:0:0:0:
414,59,56129,5,4,0:3:0:0:
305,29,56379,1,0,0:0:0:0:
278,138,56629,1,2,0:2:0:0:
343,96,56796,2,0,P|362:143|367:208,2,112.5,4|0|2,0:3|0:0|0:2,0:0:0:0:
282,55,57463,6,0,P|233:58|161:38,1,112.5,4|0,0:3|0:0,0:0:0:0:
69,90,57963,1,2,0:2:0:0:
69,90,58129,2,0,P|105:98|141:121,2,75,4|2|4,0:3|0:2|0:3,0:0:0:0:
21,232,58796,6,0,P|73:237|138:220,1,112.5,4|0,0:3|0:0,0:0:0:0:
233,269,59296,1,2,0:2:0:0:
233,269,59463,2,0,P|191:278|157:297,2,75,4|2|4,0:3|0:2|0:3,0:0:0:0:
382,254,60129,6,0,P|436:268|504:262,1,112.5,4|0,0:3|0:0,0:0:0:0:
431,361,60629,1,2,0:2:0:0:
431,361,60796,2,0,P|388:361|349:371,1,75,4|2,0:3|0:2,0:0:0:0:
250,308,61129,2,0,P|288:308|325:301,1,75,4|2,0:3|0:2,0:0:0:0:
382,254,61463,6,0,P|439:267|495:296,2,112.5,4|4|4,0:0|0:0|0:0,0:0:0:0:
325,301,62129,6,0,P|309:262|290:231,1,75
238,180,62463,2,0,P|254:141|273:110,1,75
227,51,62796,6,0,P|175:36|92:37,1,112.5
40,118,63296,1,2,0:2:0:0:
40,118,63463,2,0,L|48:209,1,75
109,234,63796,1,0,0:0:0:0:
32,362,64129,6,0,P|87:354|156:359,1,112.5
256,366,64629,1,2,0:2:0:0:
256,366,64796,2,0,L|252:287,1,75
309,242,65129,1,0,0:0:0:0:
242,107,65463,6,0,P|306:105|369:88,1,112.5
457,134,65963,1,2,0:2:0:0:
457,134,66129,2,0,L|450:217,1,75
489,273,66463,1,0,0:0:0:0:
361,352,66796,6,0,L|225:347,2,112.5,0|2|2,0:0|0:2|0:2,0:0:0:0:
377,277,67463,2,0,L|513:272,2,112.5,0|2|2,0:0|0:2|0:2,0:0:0:0:
321,226,68129,6,0,P|285:212|248:205,3,75
174,215,68796,2,0,P|124:209|49:136,1,150
151,31,69463,6,0,P|198:24|226:31,3,75
290,65,70129,2,0,P|347:74|443:38,1,150
495,182,70796,6,0,L|488:265,1,75
413,260,71129,2,0,L|420:343,1,75
348,360,71463,5,0,0:0:0:0:
214,291,71796,2,0,P|219:249|234:197,1,75
273,158,72129,6,0,P|306:134|489:88,1,225,4|2,0:0|0:2,0:0:0:0:
508,158,72796,2,0,P|475:182|292:228,1,225,0|4,0:0|0:0,0:0:0:0:
256,192,73463,12,0,76129,1:0:0:0:
277,273,76296,6,0,P|339:241|428:252,1,150,2|2,0:0|0:0,0:0:0:0:
460,103,76963,2,0,P|398:135|309:124,1,150,2|2,0:0|0:0,0:0:0:0:
251,98,77463,6,0,P|212:88|169:94,1,75
145,159,77796,2,0,P|105:165|67:187,1,75
71,256,78129,2,0,P|30:298|0:390,1,150,4|4,0:3|0:3,0:0:0:0:
149,364,78796,5,0,1:0:0:0:
199,308,78963,2,0,L|365:315,1,150,2|2,0:0|0:0,0:0:0:0:
451,204,79629,2,0,L|285:197,1,150,2|2,0:0|0:0,0:0:0:0:
246,146,80129,5,2,0:2:0:0:
99,113,80463,1,2,0:2:0:0:
144,257,80796,1,2,0:2:0:0:
199,308,80963,2,0,P|253:327|388:243,1,225,2|0,0:2|0:0,0:0:0:0:
410,175,81629,6,0,P|440:103|510:59,1,150,2|2,0:0|0:0,0:0:0:0:
352,26,82296,2,0,P|322:98|252:142,1,150,2|2,0:0|0:0,0:0:0:0:
189,144,82796,6,0,L|105:137,1,75,0|4,0:0|0:3,0:0:0:0:
23,69,83129,2,0,L|98:63,1,75,0|4,0:0|0:3,0:0:0:0:
154,13,83463,1,4,0:3:0:0:
291,72,83796,1,4,0:3:0:0:
230,208,84129,5,0,0:0:0:0:
256,278,84296,2,0,P|288:302|408:310,1,150,2|2,0:0|0:0,0:0:0:0:
458,178,84963,2,0,P|426:154|306:146,1,150,2|2,0:0|0:0,0:0:0:0:
252,175,85463,5,2,0:2:0:0:
132,84,85796,1,2,0:2:0:0:
14,177,86129,1,2,0:2:0:0:
26,251,86296,1,2,0:2:0:0:
133,209,86796,6,0,P|216:297|367:257,1,278.999988931275,4|0,0:0|0:0,0:0:0:0:
379,175,88129,2,0,P|296:87|145:127,1,278.999988931275
92,188,89463,6,0,P|93:327|211:353,1,278.999988931275
302,353,90796,2,0,P|426:317|420:188,1,278.999988931275
318,120,92129,6,0,P|272:113|224:140,2,91.1250022247315,4|0|0,0:0|0:0|0:0,0:0:0:0:
395,113,92796,2,0,P|441:107|480:69,2,91.1250022247315
363,184,93463,6,0,P|355:242|356:312,1,121.500002966309,4|0,0:0|0:0,0:0:0:0:
213,363,94129,2,0,P|213:302|205:242,1,121.500002966309,4|0,0:0|0:0,0:0:0:0:
89,145,94796,2,0,P|116:98|207:49,3,150,4|4|4|4,0:0|0:0|0:0|0:0,0:0:0:0:
347,59,96129,6,0,P|355:318|111:277,1,562.5,0|2,0:0|0:0,0:0:0:0:
38,202,97463,6,0,P|48:133|83:70,1,112.5,4|0,0:0|0:0,0:0:0:0:
161,35,97963,1,2,0:2:0:0:
230,62,98129,2,0,L|235:138,1,75,4|2,0:3|0:2,0:0:0:0:
308,151,98463,2,0,L|303:227,1,75,4|2,0:3|0:2,0:0:0:0:
354,280,98796,6,0,P|408:261|458:204,1,112.5,4|0,0:0|0:0,0:0:0:0:
477,114,99296,1,2,0:2:0:0:
428,56,99463,2,0,L|351:68,1,75,4|2,0:3|0:2,0:0:0:0:
315,132,99796,2,0,L|238:120,1,75,4|2,0:3|0:2,0:0:0:0:
167,106,100129,6,0,P|151:163|94:210,1,112.5,4|0,0:0|0:0,0:0:0:0:
30,275,100629,1,2,0:2:0:0:
67,340,100796,2,0,L|149:334,1,75,4|2,0:3|0:2,0:0:0:0:
162,262,101129,2,0,L|244:268,1,75,4|2,0:3|0:2,0:0:0:0:
291,319,101463,6,0,P|336:322|407:289,2,112.5,2|2|2,0:2|0:2|0:2,0:0:0:0:
236,267,102129,2,0,L|227:181,1,75
303,189,102463,2,0,L|312:102,1,75
369,66,102796,6,0,P|423:75|480:120,1,112.5,4|0,0:0|0:0,0:0:0:0:
488,218,103296,1,2,0:2:0:0:
438,274,103463,2,0,L|350:288,1,75,4|2,0:3|0:2,0:0:0:0:
359,360,103796,2,0,L|271:346,1,75,4|2,0:3|0:2,0:0:0:0:
211,331,104129,6,0,P|165:326|97:365,1,112.5,4|0,0:0|0:0,0:0:0:0:
17,284,104629,1,2,0:2:0:0:
62,223,104796,2,0,L|52:139,1,75,4|2,0:3|0:2,0:0:0:0:
127,136,105129,2,0,L|137:52,1,75,4|2,0:3|0:2,0:0:0:0:
201,24,105463,5,4,0:0:0:0:
201,24,105629,1,4,0:0:0:0:
201,24,105796,2,0,P|238:33|271:53,1,75
347,108,106129,5,4,0:0:0:0:
347,108,106296,1,4,0:0:0:0:
347,108,106463,2,0,P|310:117|277:137,1,75
238,199,106796,6,0,P|225:245|226:336,2,112.5,2|2|2,0:2|0:2|0:2,0:0:0:0:
168,169,107463,6,0,P|166:112|152:58,2,112.5,0|0|2,0:0|0:0|0:2,0:0:0:0:
131,234,108129,6,0,P|159:282|214:318,1,112.5
381,234,108629,2,0,P|353:282|298:318,1,112.5
256,192,109129,1,0,0:0:0:0:
256,192,109296,1,0,0:0:0:0:
256,192,109463,12,4,110463,1:2:0:0:
131,150,110796,6,0,P|159:102|214:66,1,112.5
381,150,111296,2,0,P|353:102|298:66,1,112.5
256,192,111796,1,0,0:0:0:0:
256,192,111963,1,0,0:0:0:0:
256,192,112129,12,4,113129,1:2:0:0:
397,248,113463,6,0,P|360:292|298:318,1,112.5
115,248,113963,2,0,P|152:292|214:318,1,112.5
256,192,114463,1,0,0:0:0:0:
256,192,114629,1,0,0:0:0:0:
256,192,114796,12,4,115796,1:2:0:0:
397,136,116129,6,0,P|360:92|298:66,1,112.5
115,136,116629,2,0,P|152:92|214:66,1,112.5
256,192,117129,1,0,0:0:0:0:
256,192,117296,1,0,0:0:0:0:
256,192,117463,12,0,118463,1:0:0:0:
