osu file format v14

[General]
AudioFilename: Acceleration.mp3
AudioLeadIn: 0
PreviewTime: 21702
Countdown: 0
SampleSet: Soft
StackLeniency: 0.7
Mode: 2
LetterboxInBreaks: 0
WidescreenStoryboard: 0

[Editor]
Bookmarks: 18191,19951,48872,49399,73054
DistanceSpacing: 1.4
BeatDivisor: 4
GridSize: 4
TimelineZoom: 2.200001

[Metadata]
Title:Acceleration
TitleUnicode:Acceleration
Artist:REDALiCE
ArtistUnicode:REDALiCE
Creator:JBHyperion
Version:Wild's Platter
Source:HALFPIPE TOKYO
Tags:Original Soundtrack OST Sega 永井良和 Yoshikazu Nagai DJ Magic Girl WildOne94 Withered Lotus Razor Sharp NurseHyperion OnosakiHito DakeDekaane
BeatmapID:855776
BeatmapSetID:392304

[Difficulty]
HPDrainRate:5
CircleSize:3.5
OverallDifficulty:8
ApproachRate:8
SliderMultiplier:1.4
SliderTickRate:2

[Events]
//Background and Video events
0,0,"AccelerationPulse1920x1080.png",0,0
//Break Periods
//Storyboard Layer 0 (Background)
//Storyboard Layer 1 (Fail)
//Storyboard Layer 2 (Pass)
//Storyboard Layer 3 (Foreground)
//Storyboard Sound Samples

[TimingPoints]
36,333.333333333333,4,2,77,80,1,0
119,-100,4,2,1,100,0,0
10702,-100,4,2,2,50,0,0
13369,-100,4,2,2,55,0,0
14702,-100,4,2,2,60,0,0
16035,-100,4,2,2,65,0,0
17369,-100,4,2,2,70,0,0
18702,-100,4,2,3,55,0,0
19369,-100,4,2,3,60,0,0
20035,-100,4,2,3,65,0,0
20369,-100,4,2,3,65,0,0
20702,-100,4,2,3,70,0,0
21035,-100,4,2,3,70,0,0
21369,-100,4,2,4,80,0,0
21702,-100,4,2,1,100,0,0
22702,-100,4,2,77,80,0,1
22785,-100,4,2,3,80,0,1
32035,-100,4,2,4,80,0,1
32535,-100,4,2,3,80,0,1
33285,-100,4,2,3,80,0,0
33369,-100,4,2,77,80,0,1
33452,-100,4,2,3,80,0,1
42702,-100,4,2,4,80,0,1
43535,-100,4,2,3,80,0,1
44035,-100,4,2,77,70,0,0
44119,-100,4,2,2,60,0,0
49369,-100,4,2,2,70,0,0
52035,-100,4,2,3,40,0,0
52369,-100,4,2,3,45,0,0
52702,-100,4,2,3,50,0,0
53035,-100,4,2,3,55,0,0
53369,-100,4,2,3,60,0,0
53702,-100,4,2,3,65,0,0
54035,-100,4,2,3,70,0,0
54369,-100,4,2,3,75,0,0
54702,-100,4,2,4,80,0,0
56369,-100,4,2,1,80,0,0
57035,-100,4,2,1,100,0,0
57369,-100,4,2,77,80,0,1
57452,-100,4,2,3,80,0,1
66702,-100,4,2,4,80,0,1
66869,-100,4,2,3,80,0,1
67035,-100,4,2,4,80,0,1
67202,-100,4,2,3,80,0,1
67952,-100,4,2,3,80,0,0
68035,-100,4,2,77,80,0,1
68119,-100,4,2,3,80,0,1
77369,-100,4,2,4,80,0,1
78702,-100,4,2,4,90,0,1
80035,-100,4,2,1,45,0,0
80369,-100,4,2,1,35,0,0
80702,-100,4,2,1,25,0,0
81035,-100,4,2,1,15,0,0
81369,-100,4,2,1,5,0,0

[Colours]
Combo1 : 255,150,50
Combo2 : 255,50,150
Combo3 : 30,30,255
Combo4 : 150,0,150

[HitObjects]
400,288,36,6,0,P|448:240|344:152,1,210,4|2,0:0|0:0,0:0:0:0:
116,192,1035,1,0,0:0:0:0:
40,252,1202,1,0,0:0:0:0:
116,192,1369,6,0,L|288:192,1,140,2|0,0:0|0:0,0:0:0:0:
440,260,2035,2,0,L|316:164,1,140,2|0,0:0|0:0,0:0:0:0:
232,172,2535,1,0,0:0:0:0:
376,176,2702,6,0,P|432:148|460:72,1,140,2|0,0:0|0:0,0:0:0:0:
364,72,3202,1,2,0:0:0:0:
68,104,3702,2,0,L|144:168,1,70,0|0,0:0|0:0,0:0:0:0:
212,184,4035,6,0,L|88:280,1,140,2|0,0:0|0:0,0:0:0:0:
200,276,4535,1,2,0:0:0:0:
396,276,4869,2,0,L|296:144,1,140,2|0,0:0|0:0,0:0:0:0:
168,164,5369,6,0,L|280:48,1,140,4|0,0:0|0:0,0:0:0:0:
364,64,5869,1,2,0:0:0:0:
72,64,6369,1,0,0:0:0:0:
140,128,6535,1,0,0:0:0:0:
236,136,6702,6,0,L|360:52,1,140,2|0,0:0|0:0,0:0:0:0:
244,44,7202,1,0,0:0:0:0:
112,112,7369,2,0,L|232:24,1,140,2|0,0:0|0:0,0:0:0:0:
24,28,8035,5,2,0:0:0:0:
420,40,8535,2,0,L|264:96,1,140,2|0,0:0|0:0,0:0:0:0:
372,136,9035,2,0,L|436:172,1,70,0|0,0:0|0:0,0:0:0:0:
288,136,9369,6,0,P|212:172|184:244,1,140,2|0,0:0|0:0,0:0:0:0:
284,224,9869,1,2,0:0:0:0:
88,232,10202,1,0,0:0:0:0:
8,176,10369,1,2,0:0:0:0:
88,124,10535,1,0,0:0:0:0:
340,112,10702,6,0,P|400:144|436:220,1,140,4|8,0:0|0:0,0:0:0:0:
140,200,11369,2,0,L|40:200,2,70,8|0|8,0:0|0:0|0:0,0:0:0:0:
240,200,11869,1,0,0:0:0:0:
356,204,12035,6,0,L|224:256,1,140,8|8,0:0|0:0,0:0:0:0:
420,304,12702,1,8,0:0:0:0:
488,232,12869,1,0,0:0:0:0:
488,136,13035,1,8,0:0:0:0:
416,72,13202,1,0,0:0:0:0:
144,96,13369,6,0,L|0:176,2,140,8|8|0,0:0|0:0|0:0,0:0:0:0:
340,100,14369,2,0,L|394:55,1,70,8|2,0:0|0:0,0:0:0:0:
296,48,14702,6,0,L|140:112,1,140,8|8,0:0|0:0,0:0:0:0:
224,180,15202,1,2,0:0:0:0:
312,224,15369,1,8,0:0:0:0:
408,232,15535,2,0,L|340:168,1,70,2|8,0:0|0:0,0:0:0:0:
164,136,16035,6,0,L|20:136,1,140,10|10,0:0|0:0,0:0:0:0:
288,136,16702,2,0,L|136:136,1,140,10|10,0:0|0:0,0:0:0:0:
248,136,17202,1,2,0:0:0:0:
388,136,17369,6,0,L|460:68,1,70,10|2,0:0|0:0,0:0:0:0:
196,236,17702,2,0,L|128:168,1,70,10|2,0:0|0:0,0:0:0:0:
244,184,18035,2,0,L|400:184,1,140,10|10,0:0|0:0,0:0:0:0:
108,148,18702,5,8,0:0:0:0:
24,200,18869,1,0,0:0:0:0:
36,296,19035,1,8,0:0:0:0:
128,324,19202,1,0,0:0:0:0:
320,312,19369,1,8,0:0:0:0:
416,308,19535,2,0,L|492:308,2,70,8|8|8,0:0|0:0|0:0,0:0:0:0:
256,192,20035,12,4,21369,0:0:0:0:
348,192,21702,5,0,0:0:0:0:
152,192,22035,1,0,0:0:0:0:
428,192,22369,1,8,0:0:0:0:
32,192,22702,6,0,L|108:220,1,70,4|0,0:0|0:0,0:0:0:0:
332,264,23035,2,0,L|456:168,1,140,8|2,0:0|0:0,0:0:0:0:
344,168,23535,1,0,0:0:0:0:
244,168,23702,1,8,0:0:0:0:
460,176,24035,6,0,L|324:112,1,140,2|8,0:0|0:0,0:0:0:0:
236,112,24535,1,2,0:0:0:0:
333,116,24702,1,0,0:0:0:0:
432,116,24869,2,0,L|532:116,2,70,0|8|0,0:0|0:0|0:0,0:0:0:0:
168,72,25369,6,0,L|28:72,1,140,2|8,0:0|0:0,0:0:0:0:
280,72,26035,2,0,L|116:76,1,140,2|8,0:0|0:0,0:0:0:0:
240,72,26535,1,0,0:0:0:0:
480,76,26702,6,0,L|352:168,1,140,2|8,0:0|0:0,0:0:0:0:
268,160,27202,1,8,0:0:0:0:
366,157,27369,2,0,L|438:217,1,70,2|0,0:0|0:0,0:0:0:0:
120,200,27702,2,0,L|48:260,1,70,8|0,0:0|0:0,0:0:0:0:
232,264,28035,6,0,L|376:264,1,140,2|8,0:0|0:0,0:0:0:0:
176,264,28702,1,2,0:0:0:0:
460,248,29035,2,0,L|384:196,1,70,8|0,0:0|0:0,0:0:0:0:
104,184,29369,6,0,L|20:184,2,70,2|0|8,0:0|0:0|0:0,0:0:0:0:
204,188,29869,1,2,0:0:0:0:
300,188,30035,2,0,L|384:188,2,70,2|0|8,0:0|0:0|0:0,0:0:0:0:
116,272,30702,5,2,0:0:0:0:
388,272,31035,1,8,0:0:0:0:
176,272,31369,2,0,L|256:272,1,70,8|0,0:0|0:0,0:0:0:0:
380,276,31702,2,0,L|464:276,1,70,8|2,0:0|0:0,0:0:0:0:
148,192,32035,6,0,P|88:208|128:252,1,140,4|4,0:0|0:0,0:0:0:0:
220,256,32535,1,8,0:0:0:0:
416,256,32869,2,0,L|488:256,2,70,4|4|0,0:0|0:0|0:0,0:0:0:0:
176,256,33369,6,0,L|8:256,1,140,4|8,0:0|0:0,0:0:0:0:
276,256,34035,2,0,L|116:256,1,140,2|8,0:0|0:0,0:0:0:0:
388,192,34702,6,0,P|438:234|384:252,1,140,2|8,0:0|0:0,0:0:0:0:
300,280,35202,1,2,0:0:0:0:
200,280,35369,1,0,0:0:0:0:
104,280,35535,2,0,L|34:280,2,70,2|8|2,0:0|0:0|0:0,0:0:0:0:
344,280,36035,6,0,L|484:220,1,140,2|8,0:0|0:0,0:0:0:0:
412,148,36535,1,0,0:0:0:0:
312,152,36702,1,2,0:0:0:0:
216,164,36869,1,2,0:0:0:0:
120,192,37035,1,8,0:0:0:0:
352,240,37369,6,0,L|420:180,1,70,2|0,0:0|0:0,0:0:0:0:
248,184,37702,2,0,L|104:184,2,140,8|0|8,0:0|0:0|0:0,0:0:0:0:
460,192,38702,5,2,0:0:0:0:
372,240,38869,1,0,0:0:0:0:
280,276,39035,2,0,L|132:204,1,140,8|2,0:0|0:0,0:0:0:0:
376,188,39702,1,8,0:0:0:0:
60,208,40035,6,0,L|184:120,1,140,2|8,0:0|0:0,0:0:0:0:
268,156,40535,1,2,0:0:0:0:
200,224,40702,1,0,0:0:0:0:
100,224,40869,2,0,L|176:264,1,70,2|8,0:0|0:0,0:0:0:0:
408,120,41369,5,8,0:0:0:0:
492,168,41535,1,8,0:0:0:0:
464,260,41702,1,8,0:0:0:0:
372,288,41869,1,8,0:0:0:0:
104,120,42035,5,4,0:0:0:0:
20,168,42201,1,4,0:0:0:0:
48,260,42368,1,4,0:0:0:0:
140,288,42535,1,4,0:0:0:0:
396,284,42702,6,0,L|492:284,2,70,4|4|4,0:0|0:0|0:0,0:0:0:0:
252,284,43202,1,4,0:0:0:0:
36,276,43535,1,2,0:0:0:0:
136,280,43702,2,0,L|40:280,1,70,8|2,0:0|0:0,0:0:0:0:
304,280,44035,6,0,L|448:280,2,140,4|8|8,0:0|0:0|0:0,0:0:0:0:
468,280,45035,1,8,0:0:0:0:
196,100,45369,6,0,P|120:120|72:172,1,140,8|8,0:0|0:0,0:0:0:0:
172,180,45869,1,0,0:0:0:0:
344,180,46035,2,0,P|408:168|484:100,1,140,8|8,0:0|0:0,0:0:0:0:
168,100,46702,6,0,L|88:100,1,70,8|0,0:0|0:0,0:0:0:0:
256,100,47035,2,0,L|352:100,1,70,8|2,0:0|0:0,0:0:0:0:
148,104,47369,2,0,L|28:204,1,140,0|8,0:0|0:0,0:0:0:0:
280,208,48035,6,0,P|352:188|400:124,1,140,8|8,0:0|0:0,0:0:0:0:
296,132,48535,1,2,0:0:0:0:
128,60,48702,2,0,L|32:60,2,70,8|2|8,0:0|0:0|0:0,0:0:0:0:
348,60,49369,5,8,0:0:0:0:
432,112,49535,1,2,0:0:0:0:
476,200,49702,1,8,0:0:0:0:
412,276,49869,1,0,0:0:0:0:
236,284,50035,2,0,L|92:216,1,140,0|8,0:0|0:0,0:0:0:0:
408,224,50702,6,0,L|268:160,1,140,8|8,0:0|0:0,0:0:0:0:
184,164,51202,1,2,0:0:0:0:
332,164,51369,2,0,L|464:80,1,140,8|8,0:0|0:0,0:0:0:0:
176,72,52035,5,8,0:0:0:0:
80,100,52202,1,8,0:0:0:0:
20,180,52369,1,8,0:0:0:0:
80,256,52535,1,8,0:0:0:0:
244,300,52702,1,8,0:0:0:0:
320,240,52869,1,0,0:0:0:0:
224,224,53035,2,0,L|156:164,1,70,0|8,0:0|0:0,0:0:0:0:
256,192,53369,12,2,54369,0:0:0:0:
272,260,54702,5,4,0:0:0:0:
456,260,54952,1,4,0:0:0:0:
240,256,55202,2,0,L|144:256,1,70,4|4,0:0|0:0,0:0:0:0:
380,260,55619,1,4,0:0:0:0:
228,260,55869,1,4,0:0:0:0:
132,260,56035,6,0,L|264:340,1,140,4|0,0:0|0:0,0:0:0:0:
68,260,56702,1,0,0:0:0:0:
376,148,57035,2,0,L|448:204,1,70,8|0,0:0|0:0,0:0:0:0:
188,216,57369,6,0,L|116:276,1,70,4|0,0:0|0:0,0:0:0:0:
232,264,57702,2,0,P|304:240|340:160,1,140,8|2,0:0|0:0,0:0:0:0:
56,168,58369,1,8,0:0:0:0:
480,160,58702,6,0,L|340:236,1,140,2|8,0:0|0:0,0:0:0:0:
260,228,59202,1,0,0:0:0:0:
160,224,59369,2,0,L|76:224,2,70,2|0|8,0:0|0:0|0:0,0:0:0:0:
408,264,60035,6,0,L|476:212,1,70,2|0,0:0|0:0,0:0:0:0:
280,184,60369,2,0,L|128:184,1,140,8|2,0:0|0:0,0:0:0:0:
360,184,61035,1,8,0:0:0:0:
56,188,61369,6,0,L|196:96,1,140,2|8,0:0|0:0,0:0:0:0:
284,168,61869,1,8,0:0:0:0:
356,232,62035,1,2,0:0:0:0:
284,296,62202,1,0,0:0:0:0:
152,312,62369,2,0,L|84:256,1,70,8|0,0:0|0:0,0:0:0:0:
336,216,62702,6,0,L|480:216,2,140,2|8|2,0:0|0:0|0:0,0:0:0:0:
140,220,63702,1,8,0:0:0:0:
356,216,64035,6,0,L|440:184,1,70,2|0,0:0|0:0,0:0:0:0:
140,148,64369,2,0,L|40:144,2,70,8|2|2,0:0|0:0|0:0,0:0:0:0:
296,144,64869,1,0,0:0:0:0:
392,144,65035,2,0,L|464:204,1,70,8|0,0:0|0:0,0:0:0:0:
184,240,65369,6,0,L|56:144,1,140,2|8,0:0|0:0,0:0:0:0:
328,172,66035,2,0,L|216:72,1,140,8|8,0:0|0:0,0:0:0:0:
328,72,66535,1,2,0:0:0:0:
156,64,66702,5,4,0:0:0:0:
60,72,66869,1,0,0:0:0:0:
24,104,66952,1,0,0:0:0:0:
16,152,67035,1,4,0:0:0:0:
40,196,67119,1,0,0:0:0:0:
80,220,67202,1,8,0:0:0:0:
388,296,67535,2,0,L|468:296,2,70,4|4|0,0:0|0:0|0:0,0:0:0:0:
160,296,68035,6,0,L|76:248,1,70,4|0,0:0|0:0,0:0:0:0:
264,232,68369,2,0,L|408:232,2,140,8|0|8,0:0|0:0|0:0,0:0:0:0:
24,200,69369,5,2,0:0:0:0:
104,256,69535,1,0,0:0:0:0:
184,316,69702,1,8,0:0:0:0:
284,320,69869,2,0,L|348:260,1,70,2|0,0:0|0:0,0:0:0:0:
216,252,70202,2,0,L|146:252,2,70,2|8|2,0:0|0:0|0:0,0:0:0:0:
384,260,70702,6,0,L|512:172,1,140,2|8,0:0|0:0,0:0:0:0:
400,168,71202,1,0,0:0:0:0:
300,164,71369,2,0,L|428:76,1,140,2|8,0:0|0:0,0:0:0:0:
156,72,72035,5,2,0:0:0:0:
440,72,72369,2,0,L|360:108,1,70,8|2,0:0|0:0,0:0:0:0:
232,112,72702,2,0,L|360:32,1,140,0|8,0:0|0:0,0:0:0:0:
448,36,73202,1,2,0:0:0:0:
164,28,73369,6,0,L|24:28,2,140,2|8|2,0:0|0:0|0:0,0:0:0:0:
360,28,74369,2,0,L|288:84,1,70,8|0,0:0|0:0,0:0:0:0:
192,120,74702,6,0,L|320:208,1,140,2|8,0:0|0:0,0:0:0:0:
432,216,75202,2,0,L|368:272,1,70,2|0,0:0|0:0,0:0:0:0:
132,308,75535,2,0,L|40:308,2,70,2|8|2,0:0|0:0|0:0,0:0:0:0:
388,316,76035,6,0,P|452:296|488:216,1,140,10|10,0:0|0:0,0:0:0:0:
388,220,76535,1,2,0:0:0:0:
144,208,76702,2,0,P|76:180|48:104,1,140,10|0,0:0|0:0,0:0:0:0:
144,108,77202,1,8,0:0:0:0:
436,96,77369,5,4,0:0:0:0:
224,96,77702,1,0,0:0:0:0:
224,196,77869,1,4,0:0:0:0:
436,188,78202,1,4,0:0:0:0:
152,204,78369,6,0,P|84:232|44:300,1,140,4|4,0:0|0:0,0:0:0:0:
312,304,79035,1,4,0:0:0:0:
312,204,79202,1,4,0:0:0:0:
56,216,79535,5,4,0:0:0:0:
352,228,79702,2,0,L|440:184,1,70,4|2,0:0|0:0,0:0:0:0:
256,192,80035,12,0,81369,0:0:0:0:
