osu file format v14

[General]
AudioFilename: Acceleration.mp3
AudioLeadIn: 0
PreviewTime: 21702
Countdown: 0
SampleSet: Soft
StackLeniency: 0.7
Mode: 2
LetterboxInBreaks: 0
WidescreenStoryboard: 1

[Editor]
DistanceSpacing: 1
BeatDivisor: 4
GridSize: 4
TimelineZoom: 1.1

[Metadata]
Title:Acceleration
TitleUnicode:Acceleration
Artist:REDALiCE
ArtistUnicode:REDALiCE
Creator:JBHyperion
Version:Razor's Tesla
Source:HALFPIPE TOKYO
Tags:Original Soundtrack OST Sega 永井良和 Yoshikazu Nagai DJ Magic Girl WildOne94 Withered Lotus Razor Sharp NurseHyperion OnosakiHito DakeDekaane
BeatmapID:857717
BeatmapSetID:392304

[Difficulty]
HPDrainRate:7
CircleSize:4.2
OverallDifficulty:9.7
ApproachRate:9.7
SliderMultiplier:2
SliderTickRate:2

[Events]
//Background and Video events
0,0,"AccelerationPulse1920x1080.png",0,0
//Break Periods
//Storyboard Layer 0 (Background)
//Storyboard Layer 1 (Fail)
//Storyboard Layer 2 (Pass)
//Storyboard Layer 3 (Foreground)
//Storyboard Sound Samples

[TimingPoints]
36,333.333333333333,4,2,77,100,1,0
119,-100,4,2,1,80,0,0
10702,-100,4,2,2,50,0,0
13369,-100,4,2,2,55,0,0
14702,-100,4,2,2,60,0,0
16035,-100,4,2,2,65,0,0
17369,-100,4,2,2,70,0,0
18702,-100,4,2,3,55,0,0
19369,-100,4,2,3,60,0,0
20035,-100,4,2,3,65,0,0
20702,-100,4,2,3,70,0,0
21369,-100,4,2,4,80,0,0
21702,-80,4,2,1,60,0,0
22369,-50,4,2,1,100,0,0
22702,-100,4,2,77,80,0,1
22785,-100,4,2,3,80,0,1
24869,-80,4,2,3,80,0,1
25202,-100,4,2,3,80,0,1
32035,-80,4,2,4,80,0,1
32202,-80,4,2,3,80,0,1
32369,-100,4,2,4,80,0,1
32535,-100,4,2,3,80,0,1
33285,-100,4,2,3,80,0,0
33369,-100,4,2,77,80,0,1
33452,-100,4,2,3,80,0,1
35535,-80,4,2,3,80,0,1
35869,-100,4,2,3,80,0,1
42702,-100,4,2,4,80,0,1
43535,-100,4,2,3,80,0,1
44035,-100,4,2,77,70,0,0
44119,-100,4,2,2,60,0,0
49369,-100,4,2,2,70,0,0
52035,-100,4,2,3,40,0,0
52369,-100,4,2,3,45,0,0
52702,-100,4,2,3,50,0,0
53035,-100,4,2,3,55,0,0
53369,-66.6666666666667,4,2,3,60,0,0
53702,-66.6666666666667,4,2,3,65,0,0
54035,-100,4,2,3,70,0,0
54369,-100,4,2,3,75,0,0
54535,-100,4,2,4,70,0,0
54702,-80,4,2,4,80,0,0
56369,-80,4,2,1,60,0,0
57035,-50,4,2,1,100,0,0
57369,-100,4,2,77,80,0,1
57452,-100,4,2,3,80,0,1
59535,-80,4,2,3,80,0,1
59869,-100,4,2,3,80,0,1
66702,-80,4,2,4,80,0,1
66869,-80,4,2,3,80,0,1
67035,-100,4,2,4,80,0,1
67202,-100,4,2,3,80,0,1
67952,-100,4,2,3,80,0,0
68035,-100,4,2,77,80,0,1
68119,-100,4,2,3,80,0,1
70202,-80,4,2,3,80,0,1
70535,-100,4,2,3,80,0,1
77369,-100,4,2,4,80,0,1
77535,-100,4,2,3,80,0,1
77702,-100,4,2,4,80,0,1
78535,-100,4,2,3,80,0,1
78702,-100,4,2,4,90,0,1
78869,-100,4,2,3,90,0,1
79035,-100,4,2,4,90,0,1
79869,-100,4,2,3,80,0,1
80035,-100,4,2,1,45,0,0
80369,-100,4,2,1,35,0,0
80702,-100,4,2,1,25,0,0
81035,-100,4,2,1,15,0,0
81369,-100,4,2,1,5,0,0

[Colours]
Combo1 : 255,150,50
Combo2 : 255,50,150
Combo3 : 30,30,255
Combo4 : 150,0,150

[HitObjects]
208,80,36,6,0,P|144:96|96:240,1,200,4|0,0:0|0:0,0:0:0:0:
240,208,535,2,0,P|304:224|352:368,1,200,2|0,0:0|0:0,0:0:0:0:
304,336,952,1,0,0:0:0:0:
208,336,1035,2,0,L|192:288,1,50,0|0,0:0|0:0,0:0:0:0:
272,288,1202,2,0,L|288:224,1,50,0|0,0:0|0:0,0:0:0:0:
144,240,1369,6,0,P|96:224|176:144,1,200,2|0,0:0|0:0,0:0:0:0:
208,80,1785,1,0,0:0:0:0:
128,80,1869,2,0,L|88:111,1,50,0|0,0:0|0:0,0:0:0:0:
240,128,2035,6,0,L|400:272,1,200,2|0,0:0|0:0,0:0:0:0:
336,320,2452,1,0,0:0:0:0:
272,320,2535,2,0,L|208:320,1,50,0|0,0:0|0:0,0:0:0:0:
464,272,2702,6,0,P|464:208|336:112,1,200,2|0,0:0|0:0,0:0:0:0:
224,128,3202,2,0,P|224:192|352:288,1,200,2|0,0:0|0:0,0:0:0:0:
352,240,3619,1,0,0:0:0:0:
272,240,3702,2,0,L|289:192,1,50,0|0,0:0|0:0,0:0:0:0:
368,192,3869,2,0,L|352:144,1,50,0|0,0:0|0:0,0:0:0:0:
176,112,4035,6,0,L|96:32,2,100,2|0|2,0:0|0:0|0:0,0:0:0:0:
399,176,4535,2,0,L|319:96,2,100,0|2|0,0:0|0:0|0:0,0:0:0:0:
255,192,5035,2,0,L|191:192,1,50,2|0,0:0|0:0,0:0:0:0:
111,192,5202,2,0,L|79:272,1,50,0|0,0:0|0:0,0:0:0:0:
256,272,5369,6,0,P|304:256|240:160,1,200,4|0,0:0|0:0,0:0:0:0:
384,176,5869,2,0,P|336:160|400:64,1,200,2|0,0:0|0:0,0:0:0:0:
320,64,6285,1,0,0:0:0:0:
224,64,6369,2,0,L|288:64,1,50,0|0,0:0|0:0,0:0:0:0:
368,96,6535,2,0,L|304:96,1,50,0|0,0:0|0:0,0:0:0:0:
144,96,6702,6,0,P|64:128|128:160,1,200,2|0,0:0|0:0,0:0:0:0:
192,160,7119,1,0,0:0:0:0:
256,160,7202,2,0,L|336:160,1,50,0|0,0:0|0:0,0:0:0:0:
112,224,7369,6,0,P|32:256|96:288,1,200,2|0,0:0|0:0,0:0:0:0:
160,288,7786,1,0,0:0:0:0:
224,288,7869,2,0,L|304:288,1,50,0|0,0:0|0:0,0:0:0:0:
80,224,8035,6,0,P|64:176|176:96,1,200,2|0,0:0|0:0,0:0:0:0:
320,96,8535,2,0,P|406:133|403:227,1,200,2|0,0:0|0:0,0:0:0:0:
384,288,8952,1,0,0:0:0:0:
304,288,9035,2,0,L|323:348,1,50,0|0,0:0|0:0,0:0:0:0:
400,336,9202,2,0,L|464:336,1,50,0|0,0:0|0:0,0:0:0:0:
256,320,9369,6,0,L|128:320,2,100,2|0|0,0:0|0:0|0:0,0:0:0:0:
32,256,9869,2,0,L|160:256,2,100,0|2|0,0:0|0:0|0:0,0:0:0:0:
304,192,10369,2,0,L|160:192,1,100,2|0,0:0|0:0,0:0:0:0:
464,176,10702,6,0,L|480:112,2,50,4|0|0,0:0|0:0|0:0,0:0:0:0:
320,160,11035,2,0,L|336:96,2,50,8|0|0,0:0|0:0|0:0,0:0:0:0:
192,160,11369,2,0,L|176:96,2,50,8|0|0,0:0|0:0|0:0,0:0:0:0:
48,176,11702,2,0,L|32:112,2,50,8|0|0,0:0|0:0|0:0,0:0:0:0:
288,192,12035,6,0,L|304:144,1,50,8|0,0:0|0:0,0:0:0:0:
224,144,12202,1,0,0:0:0:0:
352,96,12369,2,0,L|208:96,1,100,8|0,0:0|0:0,0:0:0:0:
368,96,12702,2,0,L|384:144,1,50,8|0,0:0|0:0,0:0:0:0:
304,144,12869,1,0,0:0:0:0:
432,144,13035,2,0,L|320:144,1,100,8|0,0:0|0:0,0:0:0:0:
192,80,13369,6,0,L|112:80,1,50,8|0,0:0|0:0,0:0:0:0:
192,96,13535,1,2,0:0:0:0:
237,109,13618,1,0,0:0:0:0:
246,155,13701,1,0,0:0:0:0:
209,185,13785,1,0,0:0:0:0:
48,192,13869,6,0,L|32:256,1,50,2|0,0:0|0:0,0:0:0:0:
112,240,14035,2,0,L|128:304,1,50,8|0,0:0|0:0,0:0:0:0:
208,288,14202,2,0,L|256:336,1,50,2|0,0:0|0:0,0:0:0:0:
448,336,14369,6,0,L|432:288,1,50,8|0,0:0|0:0,0:0:0:0:
368,272,14535,2,0,L|352:224,1,50,2|0,0:0|0:0,0:0:0:0:
144,192,14702,5,8,0:0:0:0:
95,192,14785,1,0,0:0:0:0:
62,156,14868,1,2,0:0:0:0:
68,108,14952,1,0,0:0:0:0:
107,80,15035,1,8,0:0:0:0:
155,91,15118,1,0,0:0:0:0:
240,96,15202,5,2,0:0:0:0:
288,95,15285,1,0,0:0:0:0:
321,131,15368,1,8,0:0:0:0:
315,179,15452,1,0,0:0:0:0:
276,207,15535,1,2,0:0:0:0:
228,196,15618,1,0,0:0:0:0:
304,240,15702,5,8,0:0:0:0:
352,256,15785,1,0,0:0:0:0:
360,304,15868,1,2,0:0:0:0:
316,332,15952,1,0,0:0:0:0:
80,320,16035,6,0,L|48:256,1,50,10|0,0:0|0:0,0:0:0:0:
112,272,16202,2,0,L|80:208,1,50,2|0,0:0|0:0,0:0:0:0:
144,224,16369,2,0,L|112:160,1,50,10|0,0:0|0:0,0:0:0:0:
176,176,16535,2,0,L|144:112,1,50,2|0,0:0|0:0,0:0:0:0:
208,128,16702,6,0,L|185:172,1,50,10|0,0:0|0:0,0:0:0:0:
240,176,16869,2,0,L|217:220,1,50,2|0,0:0|0:0,0:0:0:0:
272,224,17036,2,0,L|249:268,1,50,10|0,0:0|0:0,0:0:0:0:
304,272,17202,2,0,L|281:316,1,50,2|0,0:0|0:0,0:0:0:0:
448,320,17369,6,0,L|464:256,1,50,10|0,0:0|0:0,0:0:0:0:
384,272,17536,2,0,L|368:208,1,50,2|0,0:0|0:0,0:0:0:0:
288,224,17703,2,0,L|304:160,1,50,10|0,0:0|0:0,0:0:0:0:
224,176,17870,2,0,L|208:112,1,50,2|0,0:0|0:0,0:0:0:0:
64,64,18036,6,0,L|48:128,1,50,10|0,0:0|0:0,0:0:0:0:
128,112,18203,2,0,L|144:176,1,50,2|0,0:0|0:0,0:0:0:0:
224,160,18370,2,0,L|208:224,1,50,10|0,0:0|0:0,0:0:0:0:
288,208,18535,2,0,L|304:272,1,50,2|0,0:0|0:0,0:0:0:0:
144,224,18702,6,0,L|128:288,1,50,8|8,0:0|0:0,0:0:0:0:
192,272,18869,2,0,L|208:336,1,50,8|8,0:0|0:0,0:0:0:0:
128,192,19035,2,0,L|112:256,1,50,8|8,0:0|0:0,0:0:0:0:
208,128,19202,2,0,L|224:192,1,50,8|8,0:0|0:0,0:0:0:0:
96,128,19369,6,0,L|64:192,1,50,8|8,0:0|0:0,0:0:0:0:
256,192,19535,2,0,L|336:192,1,50,8|8,0:0|0:0,0:0:0:0:
256,144,19702,2,0,L|192:144,1,50,8|8,0:0|0:0,0:0:0:0:
416,128,19869,2,0,L|448:192,1,50,8|8,0:0|0:0,0:0:0:0:
192,176,20035,6,0,L|112:176,1,50,8|8,0:0|0:0,0:0:0:0:
320,176,20202,2,0,L|400:176,1,50,8|8,0:0|0:0,0:0:0:0:
142,208,20369,2,0,L|192:208,1,50,8|8,0:0|0:0,0:0:0:0:
352,208,20535,2,0,L|432:208,1,50,8|8,0:0|0:0,0:0:0:0:
160,256,20702,6,0,L|96:256,1,50,8|8,0:0|0:0,0:0:0:0:
112,320,20869,2,0,L|176:320,1,50,8|8,0:0|0:0,0:0:0:0:
352,256,21035,2,0,L|416:256,1,50,8|8,0:0|0:0,0:0:0:0:
400,320,21202,2,0,L|336:320,1,50,8|0,0:0|0:0,0:0:0:0:
112,320,21369,1,4,0:0:0:0:
288,192,21702,6,0,L|157:252,1,125,2|0,0:0|0:0,0:0:0:0:
20,192,22035,2,0,L|144:120,1,125,2|0,0:0|0:0,0:0:0:0:
432,288,22369,2,0,P|480:176|304:192,1,300,8|0,0:0|0:0,0:0:0:0:
144,112,22702,6,0,L|112:256,1,100,4|0,0:0|0:0,0:0:0:0:
368,112,23035,2,0,L|400:256,1,100,8|0,0:0|0:0,0:0:0:0:
90,209,23369,2,0,L|112:112,1,100,2|0,0:0|0:0,0:0:0:0:
336,112,23702,2,0,L|368:256,1,100,8|0,0:0|0:0,0:0:0:0:
128,112,24035,6,0,L|96:256,1,100,2|0,0:0|0:0,0:0:0:0:
432,128,24369,2,0,L|320:128,1,100,8|2,0:0|0:0,0:0:0:0:
464,192,24702,1,0,0:0:0:0:
80,192,24869,2,0,L|208:192,2,125,0|8|0,0:0|0:0|0:0,0:0:0:0:
480,176,25369,6,0,L|368:176,1,100,2|0,0:0|0:0,0:0:0:0:
144,160,25702,2,0,L|288:160,1,100,8|0,0:0|0:0,0:0:0:0:
368,160,26035,2,0,L|488:160,1,100,2|0,0:0|0:0,0:0:0:0:
132,176,26369,2,0,L|32:176,1,100,8|0,0:0|0:0,0:0:0:0:
256,192,26702,6,0,L|176:272,2,100,2|0|8,0:0|0:0|0:0,0:0:0:0:
16,192,27202,2,0,L|48:88,1,100,8|2,0:0|0:0,0:0:0:0:
272,152,27535,1,0,0:0:0:0:
496,156,27702,2,0,L|388:156,1,100,8|0,0:0|0:0,0:0:0:0:
64,160,28035,6,0,L|32:288,1,100,2|0,0:0|0:0,0:0:0:0:
304,160,28369,2,0,L|272:32,1,100,8|0,0:0|0:0,0:0:0:0:
160,272,28702,2,0,L|192:400,1,100,2|0,0:0|0:0,0:0:0:0:
416,64,29035,2,0,L|448:192,1,100,8|0,0:0|0:0,0:0:0:0:
144,176,29369,6,0,L|16:176,1,100,2|0,0:0|0:0,0:0:0:0:
192,224,29702,2,0,L|80:224,2,100,8|2|2,0:0|0:0|0:0,0:0:0:0:
336,224,30202,1,0,0:0:0:0:
256,96,30369,1,8,0:0:0:0:
400,96,30535,1,0,0:0:0:0:
128,176,30702,6,0,L|16:176,1,100,2|0,0:0|0:0,0:0:0:0:
384,176,31035,2,0,L|496:176,1,100,8|0,0:0|0:0,0:0:0:0:
28,208,31369,2,0,L|128:208,1,100,8|0,0:0|0:0,0:0:0:0:
484,208,31702,2,0,L|384:208,1,100,8|2,0:0|0:0,0:0:0:0:
160,112,32035,6,0,L|112:256,1,125,4|0,0:0|0:0,0:0:0:0:
160,288,32285,1,0,0:0:0:0:
368,296,32369,1,4,0:0:0:0:
416,292,32452,1,0,0:0:0:0:
132,248,32535,1,8,0:0:0:0:
129,199,32618,1,8,0:0:0:0:
158,160,32702,5,8,0:0:0:0:
206,150,32785,1,8,0:0:0:0:
384,144,32869,2,0,L|448:128,1,50,4|4,0:0|0:0,0:0:0:0:
240,96,33035,2,0,L|176:96,1,50,4|4,0:0|0:0,0:0:0:0:
192,160,33202,2,0,L|256:160,1,50,4|4,0:0|0:0,0:0:0:0:
480,192,33369,6,0,L|448:80,1,100,4|0,0:0|0:0,0:0:0:0:
32,96,33702,2,0,L|64:208,1,100,8|2,0:0|0:0,0:0:0:0:
368,192,34035,2,0,L|240:192,1,100,2|0,0:0|0:0,0:0:0:0:
144,192,34369,2,0,L|288:192,1,100,8|0,0:0|0:0,0:0:0:0:
112,160,34702,6,0,L|48:160,2,50,2|0|0,0:0|0:0|0:0,0:0:0:0:
256,160,34952,1,0,0:0:0:0:
320,160,35035,2,0,P|352:112|320:96,1,100,8|2,0:0|0:0,0:0:0:0:
208,96,35369,2,0,L|192:144,1,50,0|0,0:0|0:0,0:0:0:0:
272,144,35535,1,2,0:0:0:0:
112,144,35619,1,0,0:0:0:0:
48,176,35702,2,0,P|32:240|80:288,1,125,8|2,0:0|0:0,0:0:0:0:
384,192,36035,6,0,L|512:192,3,100,2|0|8|0,0:0|0:0|0:0|0:0,0:0:0:0:
256,192,36702,2,0,L|384:192,3,100,2|2|8|0,0:0|0:0|0:0|0:0,0:0:0:0:
32,192,37369,6,0,L|160:192,1,100,2|0,0:0|0:0,0:0:0:0:
32,144,37702,2,0,L|144:144,1,100,8|2,0:0|0:0,0:0:0:0:
480,144,38035,2,0,L|368:144,1,100,0|2,0:0|0:0,0:0:0:0:
132,192,38369,2,0,L|32:192,1,100,8|2,0:0|0:0,0:0:0:0:
400,256,38702,6,0,L|469:167,1,100,2|0,0:0|0:0,0:0:0:0:
112,256,39035,2,0,L|187:171,1,100,8|0,0:0|0:0,0:0:0:0:
461,177,39369,2,0,L|437:66,1,100,2|2,0:0|0:0,0:0:0:0:
178,181,39702,2,0,L|162:69,1,100,8|0,0:0|0:0,0:0:0:0:
446,275,40035,6,0,L|462:163,1,100,2|0,0:0|0:0,0:0:0:0:
96,144,40369,2,0,L|208:144,2,100,8|2|0,0:0|0:0|0:0,0:0:0:0:
416,112,40869,1,2,0:0:0:0:
357,124,40952,1,0,0:0:0:0:
327,177,41035,1,8,0:0:0:0:
347,234,41119,1,0,0:0:0:0:
403,257,41202,1,2,0:0:0:0:
280,192,41369,5,4,0:0:0:0:
192,192,41535,1,4,0:0:0:0:
272,240,41702,1,4,0:0:0:0:
144,240,41869,1,4,0:0:0:0:
264,288,42035,1,8,0:0:0:0:
96,288,42202,1,8,0:0:0:0:
256,336,42369,1,8,0:0:0:0:
32,336,42535,1,8,0:0:0:0:
192,192,42702,5,4,0:0:0:0:
320,192,42868,1,4,0:0:0:0:
72,148,43035,1,4,0:0:0:0:
368,144,43202,1,4,0:0:0:0:
128,96,43535,2,0,L|112:128,2,25,2|2|2,0:0|0:0|0:0,0:0:0:0:
368,64,43702,1,8,0:0:0:0:
376,112,43869,1,2,0:0:0:0:
48,192,44035,6,0,L|16:240,3,50,4|0|0|0,0:0|0:0|0:0|0:0,0:0:0:0:
80,256,44369,2,0,L|48:304,3,50,8|0|0|0,0:0|0:0|0:0|0:0,0:0:0:0:
112,304,44702,6,0,L|176:304,1,50,8|0,0:0|0:0,0:0:0:0:
160,240,44869,2,0,L|96:240,1,50,0|0,0:0|0:0,0:0:0:0:
160,208,45035,2,0,L|192:160,1,50,8|0,0:0|0:0,0:0:0:0:
256,160,45202,2,0,L|288:112,1,50,0|0,0:0|0:0,0:0:0:0:
192,112,45369,6,0,L|128:112,1,50,8|0,0:0|0:0,0:0:0:0:
144,176,45535,2,0,L|208:176,1,50,0|0,0:0|0:0,0:0:0:0:
288,176,45702,2,0,L|304:240,1,50,8|0,0:0|0:0,0:0:0:0:
224,224,45869,2,0,L|208:288,1,50,0|0,0:0|0:0,0:0:0:0:
304,272,46035,6,0,L|368:272,1,50,8|0,0:0|0:0,0:0:0:0:
352,208,46201,2,0,L|288:208,1,50,0|0,0:0|0:0,0:0:0:0:
208,208,46368,2,0,L|192:144,1,50,8|0,0:0|0:0,0:0:0:0:
272,160,46535,2,0,L|288:96,1,50,0|0,0:0|0:0,0:0:0:0:
192,112,46702,6,0,L|160:176,3,50,8|0|2|0,0:0|0:0|0:0|0:0,0:0:0:0:
240,160,47035,2,0,L|272:224,3,50,8|0|2|2,0:0|0:0|0:0|0:0,0:0:0:0:
336,208,47369,6,0,L|368:272,3,50,8|0|2|0,0:0|0:0|0:0|0:0,0:0:0:0:
432,256,47702,2,0,L|400:320,3,50,8|0|2|0,0:0|0:0|0:0|0:0,0:0:0:0:
336,304,48035,6,0,L|272:304,1,50,8|0,0:0|0:0,0:0:0:0:
368,256,48202,2,0,L|432:256,1,50,2|0,0:0|0:0,0:0:0:0:
320,256,48369,2,0,L|256:256,1,50,8|2,0:0|0:0,0:0:0:0:
352,208,48536,2,0,L|416:208,1,50,2|2,0:0|0:0,0:0:0:0:
304,176,48702,6,0,L|240:176,1,50,8|0,0:0|0:0,0:0:0:0:
160,176,48869,2,0,L|224:176,1,50,2|0,0:0|0:0,0:0:0:0:
288,128,49035,2,0,L|224:128,1,50,8|0,0:0|0:0,0:0:0:0:
144,128,49202,2,0,L|208:128,1,50,2|0,0:0|0:0,0:0:0:0:
272,128,49369,6,0,L|352:128,1,50,8|0,0:0|0:0,0:0:0:0:
400,128,49535,2,0,L|432:160,2,33.3333333333333,2|0|0,0:0|0:0|0:0,0:0:0:0:
352,128,49702,1,8,0:0:0:0:
305,143,49785,1,0,0:0:0:0:
276,182,49868,1,0,0:0:0:0:
275,231,49952,1,0,0:0:0:0:
304,272,50035,5,8,0:0:0:0:
350,287,50119,1,0,0:0:0:0:
416,288,50202,2,0,L|432:240,1,50,2|2,0:0|0:0,0:0:0:0:
352,240,50369,2,0,L|288:240,1,50,8|0,0:0|0:0,0:0:0:0:
160,224,50535,2,0,L|96:224,1,50,2|2,0:0|0:0,0:0:0:0:
320,176,50702,6,0,L|336:128,1,50,8|0,0:0|0:0,0:0:0:0:
256,128,50869,2,0,L|208:128,2,33.3333333333333,2|0|0,0:0|0:0|0:0,0:0:0:0:
288,128,51035,2,0,L|304:80,1,50,8|0,0:0|0:0,0:0:0:0:
224,80,51202,2,0,L|176:80,2,33.3333333333333,2|0|0,0:0|0:0|0:0,0:0:0:0:
272,80,51369,5,8,0:0:0:0:
320,88,51452,1,0,0:0:0:0:
360,117,51535,1,2,0:0:0:0:
381,162,51619,1,0,0:0:0:0:
240,160,51702,2,0,L|224:208,1,50,8|0,0:0|0:0,0:0:0:0:
368,240,51869,2,0,L|384:288,1,50,2|0,0:0|0:0,0:0:0:0:
160,304,52035,6,0,L|80:304,1,50,8|8,0:0|0:0,0:0:0:0:
256,272,52202,2,0,L|320:272,1,50,8|8,0:0|0:0,0:0:0:0:
256,240,52369,2,0,L|192:240,1,50,8|8,0:0|0:0,0:0:0:0:
352,304,52535,2,0,L|432:304,1,50,8|8,0:0|0:0,0:0:0:0:
144,192,52702,6,0,L|64:192,1,50,8|8,0:0|0:0,0:0:0:0:
368,192,52869,2,0,L|448:192,1,50,8|8,0:0|0:0,0:0:0:0:
144,128,53035,2,0,L|64:128,1,50,8|8,0:0|0:0,0:0:0:0:
368,128,53202,2,0,L|448:128,1,50,8|8,0:0|0:0,0:0:0:0:
48,176,53369,6,0,L|32:256,1,75.0000028610231,8|8,0:0|0:0,0:0:0:0:
224,240,53535,2,0,L|304:240,1,75.0000028610231,8|8,0:0|0:0,0:0:0:0:
464,208,53702,2,0,L|480:96,1,75.0000028610231,8|8,0:0|0:0,0:0:0:0:
288,144,53868,2,0,L|208:144,1,75.0000028610231,8|8,0:0|0:0,0:0:0:0:
48,176,54035,6,0,L|32:240,1,50,8|8,0:0|0:0,0:0:0:0:
336,192,54202,2,0,L|352:256,1,50,8|8,0:0|0:0,0:0:0:0:
176,192,54369,2,0,L|160:256,1,50,8|8,0:0|0:0,0:0:0:0:
464,176,54535,2,0,L|400:184,1,50,4|0,0:0|0:0,0:0:0:0:
108,204,54702,6,0,P|32:144|32:32,2,187.5,4|4|4,0:0|0:0|0:0,0:0:0:0:
404,180,55369,2,0,P|480:240|480:352,2,187.5,4|4|4,0:0|0:0|0:0,0:0:0:0:
96,288,56035,5,4,0:0:0:0:
292,192,56369,6,0,L|161:252,1,125,2|0,0:0|0:0,0:0:0:0:
24,192,56702,2,0,L|148:120,1,125,2|0,0:0|0:0,0:0:0:0:
416,288,57035,2,0,P|464:208|320:208,1,300,8|0,0:0|0:0,0:0:0:0:
144,272,57369,6,0,L|112:128,1,100,4|0,0:0|0:0,0:0:0:0:
368,272,57702,2,0,L|400:128,1,100,8|0,0:0|0:0,0:0:0:0:
252,188,58036,2,0,L|132:192,1,100,2|0,0:0|0:0,0:0:0:0:
485,62,58369,2,0,L|372:60,1,100,8|0,0:0|0:0,0:0:0:0:
128,272,58702,6,0,L|96:128,1,100,2|0,0:0|0:0,0:0:0:0:
432,256,59036,2,0,L|320:256,1,100,8|0,0:0|0:0,0:0:0:0:
464,192,59369,1,2,0:0:0:0:
80,192,59535,2,0,L|208:192,2,125,0|8|0,0:0|0:0|0:0,0:0:0:0:
480,208,60036,6,0,L|368:208,1,100,2|0,0:0|0:0,0:0:0:0:
144,224,60369,2,0,L|24:224,1,100,8|0,0:0|0:0,0:0:0:0:
368,224,60702,2,0,L|240:224,1,100,2|0,0:0|0:0,0:0:0:0:
32,208,61036,2,0,L|144:208,1,100,8|0,0:0|0:0,0:0:0:0:
412,208,61369,6,0,L|380:108,1,100,2|0,0:0|0:0,0:0:0:0:
480,112,61702,1,8,0:0:0:0:
16,192,61869,2,0,L|128:192,1,100,8|2,0:0|0:0,0:0:0:0:
352,192,62202,2,0,L|224:192,2,100,0|8|0,0:0|0:0|0:0,0:0:0:0:
64,224,62702,6,0,L|32:96,1,100,2|0,0:0|0:0,0:0:0:0:
448,192,63036,2,0,L|480:64,1,100,8|0,0:0|0:0,0:0:0:0:
152,144,63369,2,0,L|120:272,1,100,2|0,0:0|0:0,0:0:0:0:
352,224,63702,2,0,L|384:96,1,100,8|0,0:0|0:0,0:0:0:0:
144,208,64036,6,0,L|16:208,1,100,2|0,0:0|0:0,0:0:0:0:
320,160,64369,2,0,L|432:160,2,100,8|2|2,0:0|0:0|0:0,0:0:0:0:
176,160,64869,1,0,0:0:0:0:
256,288,65036,1,8,0:0:0:0:
496,288,65202,1,0,0:0:0:0:
128,208,65369,6,0,L|16:208,1,100,2|0,0:0|0:0,0:0:0:0:
384,208,65702,2,0,L|496:208,1,100,8|0,0:0|0:0,0:0:0:0:
28,176,66036,2,0,L|128:176,1,100,8|0,0:0|0:0,0:0:0:0:
484,176,66369,2,0,L|384:176,1,100,8|2,0:0|0:0,0:0:0:0:
160,272,66702,6,0,L|112:128,1,125,4|0,0:0|0:0,0:0:0:0:
160,96,66952,1,0,0:0:0:0:
304,88,67036,1,4,0:0:0:0:
352,92,67119,1,0,0:0:0:0:
160,160,67202,1,8,0:0:0:0:
128,200,67285,1,8,0:0:0:0:
108,248,67369,5,8,0:0:0:0:
112,296,67452,1,8,0:0:0:0:
384,240,67536,2,0,L|448:256,1,50,4|4,0:0|0:0,0:0:0:0:
280,284,67702,2,0,L|216:284,1,50,4|4,0:0|0:0,0:0:0:0:
32,232,67869,2,0,L|96:232,1,50,4|4,0:0|0:0,0:0:0:0:
480,192,68036,6,0,L|448:304,1,100,4|0,0:0|0:0,0:0:0:0:
32,256,68369,6,0,L|144:256,1,100,8|2,0:0|0:0,0:0:0:0:
480,192,68702,2,0,L|352:192,1,100,2|0,0:0|0:0,0:0:0:0:
256,192,69036,2,0,L|400:192,1,100,8|0,0:0|0:0,0:0:0:0:
48,180,69369,5,2,0:0:0:0:
65,225,69452,1,0,0:0:0:0:
107,250,69535,1,0,0:0:0:0:
256,224,69619,1,0,0:0:0:0:
320,224,69702,2,0,P|352:272|320:288,1,100,8|2,0:0|0:0,0:0:0:0:
208,288,70036,2,0,L|192:240,1,50,0|0,0:0|0:0,0:0:0:0:
272,240,70202,1,2,0:0:0:0:
112,240,70286,1,0,0:0:0:0:
48,208,70369,2,0,P|32:144|80:96,1,125,8|2,0:0|0:0,0:0:0:0:
384,192,70702,6,0,L|512:192,3,100,2|0|8|0,0:0|0:0|0:0|0:0,0:0:0:0:
132,192,71369,2,0,L|4:192,3,100,2|2|8|0,0:0|0:0|0:0|0:0,0:0:0:0:
480,192,72036,6,0,L|352:192,1,100,2|0,0:0|0:0,0:0:0:0:
32,240,72369,2,0,L|144:240,1,100,8|2,0:0|0:0,0:0:0:0:
380,240,72702,2,0,L|480:240,1,100,0|2,0:0|0:0,0:0:0:0:
132,192,73036,2,0,L|32:192,1,100,8|2,0:0|0:0,0:0:0:0:
400,128,73369,6,0,L|416:240,1,100,2|0,0:0|0:0,0:0:0:0:
32,176,73702,2,0,L|160:176,1,100,8|0,0:0|0:0,0:0:0:0:
480,176,74035,2,0,L|352:176,1,100,2|2,0:0|0:0,0:0:0:0:
112,128,74369,2,0,L|96:240,1,100,8|0,0:0|0:0,0:0:0:0:
480,192,74702,6,0,L|368:192,1,100,2|0,0:0|0:0,0:0:0:0:
96,240,75036,2,0,L|208:240,2,100,8|2|0,0:0|0:0|0:0,0:0:0:0:
416,272,75536,1,2,0:0:0:0:
357,260,75619,1,0,0:0:0:0:
327,207,75702,1,8,0:0:0:0:
347,150,75786,1,0,0:0:0:0:
403,127,75869,1,2,0:0:0:0:
280,192,76036,5,8,0:0:0:0:
192,192,76202,1,2,0:0:0:0:
272,144,76369,1,8,0:0:0:0:
144,144,76536,1,2,0:0:0:0:
264,96,76702,1,8,0:0:0:0:
96,96,76869,1,2,0:0:0:0:
256,48,77036,1,8,0:0:0:0:
32,48,77202,1,8,0:0:0:0:
156,192,77369,5,4,0:0:0:0:
388,192,77535,1,2,0:0:0:0:
88,192,77702,1,4,0:0:0:0:
328,240,77869,1,4,0:0:0:0:
128,288,78202,2,0,L|112:256,2,25,4|0|0,0:0|0:0|0:0,0:0:0:0:
368,320,78369,1,4,0:0:0:0:
384,272,78535,2,0,L|400:240,2,25,2|2|2,0:0|0:0|0:0,0:0:0:0:
144,208,78702,5,4,0:0:0:0:
80,112,78869,1,2,0:0:0:0:
368,80,79035,1,4,0:0:0:0:
128,160,79202,1,4,0:0:0:0:
96,192,79535,2,0,L|80:224,2,25,4|0|0,0:0|0:0|0:0,0:0:0:0:
336,160,79702,1,4,0:0:0:0:
96,240,79869,1,2,0:0:0:0:
372,264,80035,1,4,0:0:0:0:
256,192,80202,12,0,81369,0:0:0:0:
