osu file format v14

[General]
AudioFilename: Acceleration.mp3
AudioLeadIn: 0
PreviewTime: 21702
Countdown: 0
SampleSet: Normal
StackLeniency: 0.7
Mode: 1
LetterboxInBreaks: 0
WidescreenStoryboard: 1

[Editor]
Bookmarks: 36,10702,22702,44035,57369,68035,80035
DistanceSpacing: 1.4
BeatDivisor: 4
GridSize: 32
TimelineZoom: 1.700001

[Metadata]
Title:Acceleration
TitleUnicode:Acceleration
Artist:REDALiCE
ArtistUnicode:REDALiCE
Creator:JBHyperion
Version:Ono's Muzukashii
Source:HALFPIPE TOKYO
Tags:Original Soundtrack OST Sega 永井良和 Yoshikazu Nagai DJ Magic Girl WildOne94 Withered Lotus Razor Sharp NurseHyperion OnosakiHito DakeDekaane
BeatmapID:1000927
BeatmapSetID:392304

[Difficulty]
HPDrainRate:5
CircleSize:4
OverallDifficulty:5
ApproachRate:5
SliderMultiplier:1.4
SliderTickRate:1

[Events]
//Background and Video events
0,0,"Taiko_BG_1024x768.png",0,8
//Break Periods
//Storyboard Layer 0 (Background)
//Storyboard Layer 1 (Fail)
//Storyboard Layer 2 (Pass)
//Storyboard Layer 3 (Foreground)
//Storyboard Sound Samples

[TimingPoints]
36,333.333333333333,4,1,0,70,1,0
10702,-100,4,1,0,80,0,0
22702,-100,4,1,0,90,0,0
33369,-100,4,1,0,100,0,1
44035,-100,4,1,0,100,0,0
44202,-100,4,1,0,60,0,0
54702,-100,4,1,0,80,0,0
57202,-100,4,1,0,90,0,0
68035,-100,4,1,0,100,0,1
80035,-100,4,1,0,100,0,0

[HitObjects]
256,192,36,5,4,0:0:0:0:
256,192,1369,1,8,0:0:0:0:
256,192,1869,1,8,0:0:0:0:
256,192,2202,1,8,0:0:0:0:
256,192,2702,1,8,0:0:0:0:
256,192,3702,1,8,0:0:0:0:
256,192,4035,1,8,0:0:0:0:
256,192,4535,1,8,0:0:0:0:
256,192,4869,1,8,0:0:0:0:
256,192,5035,1,8,0:0:0:0:
256,192,5369,1,8,0:0:0:0:
256,192,6702,1,8,0:0:0:0:
256,192,7202,1,8,0:0:0:0:
256,192,7535,1,8,0:0:0:0:
256,192,8035,1,8,0:0:0:0:
256,192,9035,1,8,0:0:0:0:
256,192,9369,1,8,0:0:0:0:
256,192,9702,1,8,0:0:0:0:
256,192,9869,1,8,0:0:0:0:
256,192,10202,1,8,0:0:0:0:
256,192,10369,1,8,0:0:0:0:
256,192,10702,5,4,0:0:0:0:
256,192,11035,5,8,0:0:0:0:
256,192,11369,1,8,0:0:0:0:
256,192,11702,1,8,0:0:0:0:
256,192,12035,5,0,0:0:0:0:
256,192,12369,5,8,0:0:0:0:
256,192,12535,5,0,0:0:0:0:
256,192,12869,5,8,0:0:0:0:
256,192,13369,5,0,0:0:0:0:
256,192,13702,5,8,0:0:0:0:
256,192,14035,1,8,0:0:0:0:
256,192,14369,1,8,0:0:0:0:
256,192,14702,5,0,0:0:0:0:
256,192,15035,5,8,0:0:0:0:
256,192,15202,5,0,0:0:0:0:
256,192,15535,5,8,0:0:0:0:
256,192,15702,1,8,0:0:0:0:
256,192,16035,5,0,0:0:0:0:
256,192,16369,5,8,0:0:0:0:
256,192,16702,1,8,0:0:0:0:
256,192,17035,1,8,0:0:0:0:
256,192,17369,5,0,0:0:0:0:
256,192,17702,5,8,0:0:0:0:
256,192,17869,5,0,0:0:0:0:
256,192,18202,5,8,0:0:0:0:
256,192,18702,5,0,0:0:0:0:
256,192,18869,5,8,0:0:0:0:
256,192,18952,1,8,0:0:0:0:
256,192,19035,1,8,0:0:0:0:
256,192,19202,1,8,0:0:0:0:
256,192,19369,1,8,0:0:0:0:
256,192,19702,5,0,0:0:0:0:
256,192,19869,5,8,0:0:0:0:
256,192,20035,5,0,0:0:0:0:
256,192,20202,5,8,0:0:0:0:
256,192,20285,1,8,0:0:0:0:
256,192,20369,1,8,0:0:0:0:
256,192,20535,5,0,0:0:0:0:
256,192,20702,5,8,0:0:0:0:
256,192,20869,5,0,0:0:0:0:
256,192,21035,1,0,0:0:0:0:
256,192,21369,1,4,0:0:0:0:
256,192,22369,5,12,0:0:0:0:
256,192,22702,5,0,0:0:0:0:
256,192,22869,5,8,0:0:0:0:
256,192,23035,5,0,0:0:0:0:
256,192,23202,5,8,0:0:0:0:
256,192,23369,5,0,0:0:0:0:
256,192,23535,5,8,0:0:0:0:
256,192,23702,5,0,0:0:0:0:
256,192,24035,5,8,0:0:0:0:
256,192,24369,5,0,0:0:0:0:
256,192,24535,1,0,0:0:0:0:
256,192,24869,5,12,0:0:0:0:
256,192,25369,1,0,0:0:0:0:
256,192,25535,5,8,0:0:0:0:
256,192,25702,5,0,0:0:0:0:
256,192,25869,5,8,0:0:0:0:
256,192,26035,5,0,0:0:0:0:
256,192,26202,5,8,0:0:0:0:
256,192,26369,5,0,0:0:0:0:
256,192,26702,5,8,0:0:0:0:
256,192,27035,5,0,0:0:0:0:
256,192,27202,1,0,0:0:0:0:
256,192,27535,5,8,0:0:0:0:
256,192,27702,1,8,0:0:0:0:
256,192,28035,5,0,0:0:0:0:
256,192,28202,5,8,0:0:0:0:
256,192,28369,5,0,0:0:0:0:
256,192,28535,5,8,0:0:0:0:
256,192,28702,5,0,0:0:0:0:
256,192,28869,5,8,0:0:0:0:
256,192,29035,5,0,0:0:0:0:
256,192,29369,5,8,0:0:0:0:
256,192,29702,5,0,0:0:0:0:
256,192,29869,1,0,0:0:0:0:
256,192,30202,5,12,0:0:0:0:
256,192,30702,5,0,0:0:0:0:
256,192,30869,5,8,0:0:0:0:
256,192,31035,5,0,0:0:0:0:
256,192,31202,5,8,0:0:0:0:
256,192,31369,5,0,0:0:0:0:
256,192,31535,5,8,0:0:0:0:
256,192,31702,5,0,0:0:0:0:
256,192,31869,1,0,0:0:0:0:
256,192,32035,5,12,0:0:0:0:
256,192,32369,1,12,0:0:0:0:
256,192,32535,1,12,0:0:0:0:
256,192,32869,1,12,0:0:0:0:
256,192,33035,1,12,0:0:0:0:
256,192,33369,5,0,0:0:0:0:
256,192,33702,5,8,0:0:0:0:
256,192,33869,5,0,0:0:0:0:
256,192,33952,1,0,0:0:0:0:
256,192,34035,1,0,0:0:0:0:
256,192,34202,1,0,0:0:0:0:
256,192,34369,5,8,0:0:0:0:
256,192,34702,5,0,0:0:0:0:
256,192,34785,1,0,0:0:0:0:
256,192,34869,1,0,0:0:0:0:
256,192,35035,5,8,0:0:0:0:
256,192,35202,5,0,0:0:0:0:
256,192,35285,1,0,0:0:0:0:
256,192,35369,1,0,0:0:0:0:
256,192,35535,5,12,0:0:0:0:
256,192,36035,5,0,0:0:0:0:
256,192,36369,5,8,0:0:0:0:
256,192,36535,5,0,0:0:0:0:
256,192,36619,1,0,0:0:0:0:
256,192,36702,1,0,0:0:0:0:
256,192,36869,1,0,0:0:0:0:
256,192,37035,5,8,0:0:0:0:
256,192,37369,5,0,0:0:0:0:
256,192,37452,1,0,0:0:0:0:
256,192,37535,1,0,0:0:0:0:
256,192,37702,5,8,0:0:0:0:
256,192,37869,5,0,0:0:0:0:
256,192,37952,1,0,0:0:0:0:
256,192,38035,1,0,0:0:0:0:
256,192,38203,5,8,0:0:0:0:
256,192,38369,1,8,0:0:0:0:
256,192,38702,5,0,0:0:0:0:
256,192,39035,5,8,0:0:0:0:
256,192,39202,5,0,0:0:0:0:
256,192,39285,1,0,0:0:0:0:
256,192,39368,1,0,0:0:0:0:
256,192,39535,1,0,0:0:0:0:
256,192,39702,5,8,0:0:0:0:
256,192,40035,5,0,0:0:0:0:
256,192,40118,1,0,0:0:0:0:
256,192,40202,1,0,0:0:0:0:
256,192,40368,5,8,0:0:0:0:
256,192,40535,5,0,0:0:0:0:
256,192,40618,1,0,0:0:0:0:
256,192,40702,1,0,0:0:0:0:
256,192,40868,5,12,0:0:0:0:
256,192,41368,5,0,0:0:0:0:
256,192,41702,5,8,0:0:0:0:
256,192,41868,5,0,0:0:0:0:
256,192,41952,1,0,0:0:0:0:
256,192,42035,1,0,0:0:0:0:
256,192,42202,1,0,0:0:0:0:
256,192,42368,5,8,0:0:0:0:
256,192,42535,1,8,0:0:0:0:
256,192,42702,5,4,0:0:0:0:
256,192,42869,1,4,0:0:0:0:
256,192,43035,1,4,0:0:0:0:
256,192,43202,1,4,0:0:0:0:
256,192,43535,5,12,0:0:0:0:
256,192,43702,1,12,0:0:0:0:
256,192,44035,5,4,0:0:0:0:
256,192,46869,5,8,0:0:0:0:
256,192,46952,1,8,0:0:0:0:
256,192,47035,1,8,0:0:0:0:
256,192,47369,1,8,0:0:0:0:
256,192,47619,1,8,0:0:0:0:
256,192,47869,1,8,0:0:0:0:
256,192,48035,1,8,0:0:0:0:
256,192,48369,1,8,0:0:0:0:
256,192,48702,1,8,0:0:0:0:
256,192,48952,1,8,0:0:0:0:
256,192,49202,1,8,0:0:0:0:
256,192,49535,1,8,0:0:0:0:
256,192,49619,1,8,0:0:0:0:
256,192,49702,1,8,0:0:0:0:
256,192,50035,1,8,0:0:0:0:
256,192,50285,1,8,0:0:0:0:
256,192,50535,1,8,0:0:0:0:
256,192,50702,1,8,0:0:0:0:
256,192,51035,1,8,0:0:0:0:
256,192,51369,1,8,0:0:0:0:
256,192,51619,1,8,0:0:0:0:
256,192,51869,1,8,0:0:0:0:
256,192,52202,1,8,0:0:0:0:
256,192,52285,1,8,0:0:0:0:
256,192,52369,1,8,0:0:0:0:
256,192,52702,1,8,0:0:0:0:
256,192,52952,1,8,0:0:0:0:
256,192,53202,1,8,0:0:0:0:
256,192,53369,1,8,0:0:0:0:
256,192,53702,1,8,0:0:0:0:
256,192,54035,1,8,0:0:0:0:
256,192,54285,1,8,0:0:0:0:
256,192,54535,1,8,0:0:0:0:
256,192,54702,5,0,0:0:0:0:
256,192,54952,1,0,0:0:0:0:
256,192,55202,1,0,0:0:0:0:
256,192,55369,1,0,0:0:0:0:
256,192,55619,1,0,0:0:0:0:
256,192,55869,1,0,0:0:0:0:
256,192,56035,1,0,0:0:0:0:
256,192,57035,5,12,0:0:0:0:
256,192,57369,5,0,0:0:0:0:
256,192,57536,5,8,0:0:0:0:
256,192,57702,5,0,0:0:0:0:
256,192,57869,5,8,0:0:0:0:
256,192,58036,5,0,0:0:0:0:
256,192,58202,5,8,0:0:0:0:
256,192,58369,5,0,0:0:0:0:
256,192,58702,5,8,0:0:0:0:
256,192,59036,5,0,0:0:0:0:
256,192,59202,1,0,0:0:0:0:
256,192,59536,5,12,0:0:0:0:
256,192,60036,5,0,0:0:0:0:
256,192,60202,5,8,0:0:0:0:
256,192,60369,5,0,0:0:0:0:
256,192,60536,5,8,0:0:0:0:
256,192,60702,5,0,0:0:0:0:
256,192,60869,5,8,0:0:0:0:
256,192,61036,5,0,0:0:0:0:
256,192,61369,1,0,0:0:0:0:
256,192,61702,5,8,0:0:0:0:
256,192,61869,5,0,0:0:0:0:
256,192,62202,5,8,0:0:0:0:
256,192,62369,1,8,0:0:0:0:
256,192,62702,5,0,0:0:0:0:
256,192,62869,5,8,0:0:0:0:
256,192,63036,5,0,0:0:0:0:
256,192,63202,5,8,0:0:0:0:
256,192,63369,5,0,0:0:0:0:
256,192,63536,5,8,0:0:0:0:
256,192,63702,5,0,0:0:0:0:
256,192,64036,1,0,0:0:0:0:
256,192,64369,5,8,0:0:0:0:
256,192,64536,5,0,0:0:0:0:
256,192,64869,5,12,0:0:0:0:
256,192,65369,5,0,0:0:0:0:
256,192,65536,5,8,0:0:0:0:
256,192,65702,5,0,0:0:0:0:
256,192,65869,5,8,0:0:0:0:
256,192,66036,5,0,0:0:0:0:
256,192,66202,5,8,0:0:0:0:
256,192,66369,5,0,0:0:0:0:
256,192,66536,1,0,0:0:0:0:
256,192,66702,5,12,0:0:0:0:
256,192,67036,1,12,0:0:0:0:
256,192,67202,1,12,0:0:0:0:
256,192,67536,1,12,0:0:0:0:
256,192,67702,1,12,0:0:0:0:
256,192,68035,5,0,0:0:0:0:
256,192,68202,1,0,0:0:0:0:
256,192,68369,5,8,0:0:0:0:
256,192,68535,5,0,0:0:0:0:
256,192,68619,1,0,0:0:0:0:
256,192,68702,1,0,0:0:0:0:
256,192,68785,1,0,0:0:0:0:
256,192,68869,1,0,0:0:0:0:
256,192,69035,5,8,0:0:0:0:
256,192,69202,5,0,0:0:0:0:
256,192,69369,1,0,0:0:0:0:
256,192,69452,1,0,0:0:0:0:
256,192,69535,1,0,0:0:0:0:
256,192,69702,5,8,0:0:0:0:
256,192,69869,5,0,0:0:0:0:
256,192,70202,5,12,0:0:0:0:
256,192,70702,5,0,0:0:0:0:
256,192,70869,1,0,0:0:0:0:
256,192,71035,5,8,0:0:0:0:
256,192,71202,5,0,0:0:0:0:
256,192,71285,1,0,0:0:0:0:
256,192,71369,1,0,0:0:0:0:
256,192,71452,1,0,0:0:0:0:
256,192,71535,1,0,0:0:0:0:
256,192,71702,5,8,0:0:0:0:
256,192,71869,1,8,0:0:0:0:
256,192,72035,5,0,0:0:0:0:
256,192,72119,1,0,0:0:0:0:
256,192,72202,1,0,0:0:0:0:
256,192,72369,5,8,0:0:0:0:
256,192,72535,5,0,0:0:0:0:
256,192,72869,5,8,0:0:0:0:
256,192,73035,1,8,0:0:0:0:
256,192,73369,5,0,0:0:0:0:
256,192,73536,1,0,0:0:0:0:
256,192,73703,5,8,0:0:0:0:
256,192,73869,5,0,0:0:0:0:
256,192,73953,1,0,0:0:0:0:
256,192,74036,1,0,0:0:0:0:
256,192,74119,1,0,0:0:0:0:
256,192,74203,1,0,0:0:0:0:
256,192,74369,5,8,0:0:0:0:
256,192,74536,5,0,0:0:0:0:
256,192,74703,1,0,0:0:0:0:
256,192,74786,1,0,0:0:0:0:
256,192,74869,1,0,0:0:0:0:
256,192,75036,5,8,0:0:0:0:
256,192,75203,5,0,0:0:0:0:
256,192,75536,5,12,0:0:0:0:
256,192,76036,5,0,0:0:0:0:
256,192,76203,1,0,0:0:0:0:
256,192,76369,5,8,0:0:0:0:
256,192,76536,5,0,0:0:0:0:
256,192,76619,1,0,0:0:0:0:
256,192,76703,1,0,0:0:0:0:
256,192,76786,1,0,0:0:0:0:
256,192,76869,1,0,0:0:0:0:
256,192,77036,5,8,0:0:0:0:
256,192,77203,1,8,0:0:0:0:
256,192,77369,5,4,0:0:0:0:
256,192,77702,5,12,0:0:0:0:
256,192,77869,5,4,0:0:0:0:
256,192,78202,5,12,0:0:0:0:
256,192,78369,1,12,0:0:0:0:
256,192,78702,5,4,0:0:0:0:
256,192,79035,5,12,0:0:0:0:
256,192,79202,5,4,0:0:0:0:
256,192,79535,5,12,0:0:0:0:
256,192,79702,1,12,0:0:0:0:
256,192,80035,5,4,0:0:0:0:
