osu file format v14

[General]
AudioFilename: Acceleration.mp3
AudioLeadIn: 0
PreviewTime: 21702
Countdown: 0
SampleSet: Soft
StackLeniency: 0.7
Mode: 2
LetterboxInBreaks: 0
WidescreenStoryboard: 0

[Editor]
DistanceSpacing: 1.2
BeatDivisor: 4
GridSize: 8
TimelineZoom: 2.7

[Metadata]
Title:Acceleration
TitleUnicode:Acceleration
Artist:REDALiCE
ArtistUnicode:REDALiCE
Creator:JBHyperion
Version:Magic Girl's Salad
Source:HALFPIPE TOKYO
Tags:Original Soundtrack OST Sega 永井良和 Yoshikazu Nagai DJ Magic Girl WildOne94 Withered Lotus Razor Sharp NurseHyperion OnosakiHito DakeDekaane
BeatmapID:854261
BeatmapSetID:392304

[Difficulty]
HPDrainRate:4
CircleSize:3
OverallDifficulty:7
ApproachRate:7
SliderMultiplier:1.2
SliderTickRate:2

[Events]
//Background and Video events
0,0,"AccelerationPulse1920x1080.png",0,0
//Break Periods
//Storyboard Layer 0 (Background)
//Storyboard Layer 1 (Fail)
//Storyboard Layer 2 (Pass)
//Storyboard Layer 3 (Foreground)
//Storyboard Sound Samples

[TimingPoints]
36,333.333333333333,4,2,77,80,1,0
119,-100,4,2,1,100,0,0
10702,-100,4,2,2,50,0,0
13369,-100,4,2,2,55,0,0
14702,-100,4,2,2,60,0,0
16035,-100,4,2,2,65,0,0
17369,-100,4,2,2,70,0,0
18702,-100,4,2,3,55,0,0
19369,-100,4,2,3,60,0,0
20035,-100,4,2,3,65,0,0
20702,-100,4,2,3,70,0,0
21369,-100,4,2,4,80,0,0
22369,-100,4,2,1,100,0,0
22702,-100,4,2,77,80,0,1
22785,-100,4,2,3,80,0,1
25035,-100,4,2,10,80,0,1
25202,-100,4,2,3,80,0,1
30369,-100,4,2,10,80,0,1
30535,-100,4,2,3,80,0,1
32035,-100,4,2,4,80,0,1
32202,-100,4,2,3,80,0,1
33285,-100,4,2,3,80,0,0
33369,-100,4,2,77,80,0,1
33452,-100,4,2,3,80,0,1
35702,-100,4,2,10,80,0,1
35869,-100,4,2,3,80,0,1
41035,-100,4,2,10,80,0,1
41202,-100,4,2,3,80,0,1
42702,-100,4,2,4,80,0,1
43535,-100,4,2,3,80,0,1
44035,-100,4,2,77,70,0,0
44119,-100,4,2,2,60,0,0
49369,-100,4,2,2,70,0,0
52035,-100,4,2,3,40,0,0
52369,-100,4,2,3,45,0,0
52702,-100,4,2,3,50,0,0
53035,-100,4,2,3,55,0,0
53369,-100,4,2,3,60,0,0
53702,-100,4,2,3,65,0,0
54035,-100,4,2,3,70,0,0
54369,-100,4,2,3,75,0,0
54702,-100,4,2,4,80,0,0
57035,-100,4,2,1,80,0,0
57369,-100,4,2,77,80,0,1
57452,-100,4,2,3,80,0,1
59702,-100,4,2,10,80,0,1
59869,-100,4,2,3,80,0,1
65035,-100,4,2,10,80,0,1
65202,-100,4,2,3,80,0,1
66702,-100,4,2,4,80,0,1
66869,-100,4,2,3,80,0,1
67035,-100,4,2,4,80,0,1
67202,-100,4,2,3,80,0,1
67952,-100,4,2,3,80,0,0
68035,-100,4,2,77,80,0,1
68119,-100,4,2,3,80,0,1
70369,-100,4,2,10,80,0,1
70535,-100,4,2,3,80,0,1
75702,-100,4,2,10,80,0,1
75869,-100,4,2,3,80,0,1
77369,-100,4,2,4,80,0,1
78702,-100,4,2,4,90,0,1
80035,-100,4,2,1,45,0,0
80369,-100,4,2,1,35,0,0
80702,-100,4,2,1,25,0,0
81035,-100,4,2,1,15,0,0
81369,-100,4,2,1,5,0,0

[Colours]
Combo1 : 255,150,50
Combo2 : 255,50,150
Combo3 : 30,30,255
Combo4 : 150,0,150

[HitObjects]
160,240,36,6,0,L|72:136,1,120,4|0,0:0|0:0,0:0:0:0:
288,240,702,2,0,L|365:148,1,120
168,152,1369,2,0,P|136:80|168:32,1,120,2|0,0:0|0:0,0:0:0:0:
248,40,1869,1,0,0:0:0:0:
336,152,2035,2,0,P|368:80|336:32,1,120,2|0,0:0|0:0,0:0:0:0:
192,32,2702,6,0,P|140:77|128:136,1,120,2|0,0:0|0:0,0:0:0:0:
240,144,3202,2,0,P|312:216|280:304,1,180,2|0,0:0|0:0,0:0:0:0:
152,256,4035,1,2,0:0:0:0:
296,256,4369,2,0,L|368:232,1,60,2|0,0:0|0:0,0:0:0:0:
184,256,4869,2,0,L|112:232,1,60,2|0,0:0|0:0,0:0:0:0:
248,160,5369,6,0,P|280:104|240:48,1,120,4|0,0:0|0:0,0:0:0:0:
136,176,5869,2,0,P|96:80|144:24,1,180,2|0,0:0|0:0,0:0:0:0:
272,24,6702,2,0,L|392:24,1,120,2|0,0:0|0:0,0:0:0:0:
472,24,7202,1,0,0:0:0:0:
376,24,7369,2,0,L|240:24,1,120,2|0,0:0|0:0,0:0:0:0:
112,96,8035,6,0,P|94:150|128:216,1,120,2|0,0:0|0:0,0:0:0:0:
240,96,8535,2,0,P|257:150|192:248,1,180,2|0,0:0|0:0,0:0:0:0:
128,256,9202,1,0,0:0:0:0:
64,200,9369,1,2,0:0:0:0:
216,152,9702,2,0,L|272:104,1,60,2|0,0:0|0:0,0:0:0:0:
104,96,10202,2,0,L|24:96,1,60,2|0,0:0|0:0,0:0:0:0:
288,40,10702,6,0,L|376:144,1,120,4|8,0:0|0:0,0:0:0:0:
192,168,11369,2,0,L|104:64,1,120,8|8,0:0|0:0,0:0:0:0:
280,88,12035,1,8,0:0:0:0:
432,88,12369,1,8,0:0:0:0:
280,88,12702,1,8,0:0:0:0:
112,88,13036,1,8,0:0:0:0:
352,184,13368,5,8,0:0:0:0:
403,127,13535,1,2,0:0:0:0:
399,52,13702,1,8,0:0:0:0:
342,1,13869,1,2,0:0:0:0:
248,64,14036,5,8,0:0:0:0:
196,121,14202,1,2,0:0:0:0:
200,196,14369,1,8,0:0:0:0:
257,247,14535,1,2,0:0:0:0:
328,160,14702,6,0,L|376:216,3,60,8|2|8|2,0:0|0:0|0:0|0:0,0:0:0:0:
248,216,15369,6,0,L|200:272,3,60,8|2|8|2,0:0|0:0|0:0|0:0,0:0:0:0:
392,272,16035,5,10,0:0:0:0:
464,232,16202,1,2,0:0:0:0:
440,160,16368,1,10,0:0:0:0:
360,152,16535,1,2,0:0:0:0:
280,144,16702,5,10,0:0:0:0:
192,112,16869,1,2,0:0:0:0:
232,24,17035,1,10,0:0:0:0:
320,56,17202,1,2,0:0:0:0:
400,248,17369,6,0,L|440:304,3,60,10|2|10|2,0:0|0:0|0:0|0:0,0:0:0:0:
320,312,18035,6,0,L|280:368,3,60,10|2|10|2,0:0|0:0|0:0|0:0,0:0:0:0:
256,192,18702,12,4,21369,0:0:0:0:
392,240,22369,5,8,0:0:0:0:
144,240,22702,2,0,L|224:144,1,120,4|8,0:0|0:0,0:0:0:0:
400,240,23369,2,0,L|312:136,1,120,2|8,0:0|0:0,0:0:0:0:
152,136,24035,1,2,0:0:0:0:
320,136,24369,2,0,L|376:104,1,60,8|2,0:0|0:0,0:0:0:0:
48,72,24869,2,0,P|40:152|112:216,1,180,2|2,0:0|0:0,0:0:0:0:
368,216,25702,5,8,0:0:0:0:
160,216,26035,1,2,0:0:0:0:
328,296,26369,1,8,0:0:0:0:
152,296,26702,1,2,0:0:0:0:
280,216,27035,6,0,L|336:176,1,60,8|2,0:0|0:0,0:0:0:0:
184,80,27535,1,2,0:0:0:0:
104,144,27702,1,8,0:0:0:0:
360,168,28035,6,0,L|488:232,3,120,2|8|2|8,0:0|0:0|0:0|0:0,0:0:0:0:
256,240,29369,1,2,0:0:0:0:
80,240,29702,2,0,L|40:176,1,60,8|2,0:0|0:0,0:0:0:0:
232,160,30202,6,0,P|256:96|176:40,1,180,2|2,0:0|0:0,0:0:0:0:
16,40,31035,1,8,0:0:0:0:
176,40,31369,1,8,0:0:0:0:
328,40,31702,6,0,L|368:104,1,60,8|2,0:0|0:0,0:0:0:0:
200,40,32035,2,0,P|160:72|144:144,1,120,0|8,0:0|0:0,0:0:0:0:
232,144,32535,2,0,P|232:203|198:250,1,120,0|8,0:0|0:0,0:0:0:0:
88,248,33035,1,0,0:0:0:0:
320,128,33369,5,4,0:0:0:0:
136,128,33702,1,8,0:0:0:0:
264,208,34035,1,2,0:0:0:0:
72,200,34369,1,8,0:0:0:0:
280,128,34702,6,0,P|304:80|272:8,1,120,2|8,0:0|0:0,0:0:0:0:
184,16,35202,1,2,0:0:0:0:
368,176,35535,2,0,P|400:82|352:8,1,180,2|2,0:0|0:0,0:0:0:0:
216,40,36369,5,8,0:0:0:0:
400,40,36702,1,2,0:0:0:0:
256,120,37035,1,8,0:0:0:0:
448,112,37369,1,2,0:0:0:0:
248,216,37702,6,0,L|184:176,1,60,8|2,0:0|0:0,0:0:0:0:
360,216,38202,1,2,0:0:0:0:
432,264,38369,2,0,P|432:320|368:352,1,120,8|2,0:0|0:0,0:0:0:0:
232,240,39035,5,8,0:0:0:0:
64,240,39368,1,2,0:0:0:0:
208,320,39701,1,8,0:0:0:0:
40,320,40035,1,2,0:0:0:0:
224,256,40369,6,0,L|280:208,1,60,8|2,0:0|0:0,0:0:0:0:
104,208,40869,2,0,P|56:160|80:96,1,120,2|8,0:0|0:0,0:0:0:0:
112,48,41369,1,0,0:0:0:0:
192,40,41535,1,8,0:0:0:0:
264,80,41702,1,8,0:0:0:0:
248,160,41869,1,8,0:0:0:0:
168,152,42035,5,4,0:0:0:0:
104,192,42202,1,4,0:0:0:0:
128,264,42369,1,4,0:0:0:0:
208,272,42535,1,4,0:0:0:0:
296,272,42702,6,0,L|368:272,3,60,4|4|4|4,0:0|0:0|0:0|0:0,0:0:0:0:
160,192,43535,2,0,L|96:152,1,60,2|8,0:0|0:0,0:0:0:0:
352,192,44035,6,8,L|424:80,1,120,4|8,0:0|0:0,0:0:0:0:
216,192,44702,2,8,L|144:80,1,120,8|8,0:0|0:0,0:0:0:0:
328,192,45369,2,8,L|472:192,1,120,8|8,0:0|0:0,0:0:0:0:
264,144,46035,2,8,L|120:144,1,120
320,48,46702,5,8,0:0:0:0:
144,48,47035,1,8,0:0:0:0:
256,152,47369,1,8,0:0:0:0:
80,152,47702,1,8,0:0:0:0:
256,152,48035,5,8,0:0:0:0:
432,152,48368,1,8,0:0:0:0:
320,256,48702,1,8,0:0:0:0:
496,256,49035,1,8,0:0:0:0:
288,248,49369,5,8,0:0:0:0:
237,191,49536,1,2,0:0:0:0:
241,116,49703,1,8,0:0:0:0:
298,65,49870,1,2,0:0:0:0:
392,128,50035,5,8,0:0:0:0:
444,185,50202,1,2,0:0:0:0:
440,260,50369,1,8,0:0:0:0:
383,311,50535,1,2,0:0:0:0:
272,320,50702,5,2,0:0:0:0:
200,280,50869,1,2,0:0:0:0:
224,208,51035,1,2,0:0:0:0:
304,200,51202,1,2,0:0:0:0:
384,192,51369,5,2,0:0:0:0:
456,152,51536,1,2,0:0:0:0:
432,80,51702,1,2,0:0:0:0:
352,72,51869,1,2,0:0:0:0:
256,192,52035,12,2,54369,0:0:0:0:
384,192,54702,5,4,0:0:0:0:
264,192,54952,1,4,0:0:0:0:
128,192,55202,1,4,0:0:0:0:
224,192,55369,5,4,0:0:0:0:
352,104,55619,1,4,0:0:0:0:
224,104,55869,1,4,0:0:0:0:
376,104,56035,5,4,0:0:0:0:
216,96,57035,5,8,0:0:0:0:
400,96,57369,1,4,0:0:0:0:
192,96,57702,1,8,0:0:0:0:
352,184,58035,1,2,0:0:0:0:
160,192,58369,1,8,0:0:0:0:
352,272,58702,1,2,0:0:0:0:
224,272,59035,6,0,L|160:224,1,60,8|0,0:0|0:0,0:0:0:0:
336,224,59535,2,0,P|400:152|368:56,1,180,2|2,0:0|0:0,0:0:0:0:
217,76,60369,5,8,0:0:0:0:
416,72,60702,1,2,0:0:0:0:
265,164,61035,1,8,0:0:0:0:
472,152,61369,1,2,0:0:0:0:
272,264,61702,6,0,L|200:216,1,60,8|2,0:0|0:0,0:0:0:0:
368,160,62202,1,0,0:0:0:0:
448,200,62369,2,0,P|472:264|448:320,1,120,8|2,0:0|0:0,0:0:0:0:
296,200,63035,5,8,0:0:0:0:
97,196,63368,1,2,0:0:0:0:
248,288,63701,1,8,0:0:0:0:
72,280,64035,1,2,0:0:0:0:
272,344,64369,6,0,L|344:296,1,60,8|2,0:0|0:0,0:0:0:0:
184,288,64869,2,0,P|128:224|160:128,1,180,2|2,0:0|0:0,0:0:0:0:
320,136,65702,5,8,0:0:0:0:
149,138,66035,1,8,0:0:0:0:
300,230,66369,1,8,0:0:0:0:
216,232,66535,1,2,0:0:0:0:
96,232,66702,6,0,P|64:176|88:112,1,120,4|4,0:0|0:0,0:0:0:0:
184,64,67202,1,8,0:0:0:0:
432,48,67535,2,0,L|376:72,1,60,4|4,0:0|0:0,0:0:0:0:
200,72,68035,5,4,0:0:0:0:
432,64,68369,1,8,0:0:0:0:
256,160,68702,1,2,0:0:0:0:
432,152,69035,1,8,0:0:0:0:
200,224,69369,6,0,P|161:266|192:336,1,120,2|8,0:0|0:0,0:0:0:0:
264,344,69869,1,2,0:0:0:0:
448,168,70202,2,0,P|488:216|448:320,1,180,2|2,0:0|0:0,0:0:0:0:
232,256,71035,5,8,0:0:0:0:
96,256,71369,1,2,0:0:0:0:
288,344,71702,1,8,0:0:0:0:
48,344,72035,1,2,0:0:0:0:
240,264,72369,6,0,L|288:200,1,60,8|2,0:0|0:0,0:0:0:0:
88,176,72869,2,0,L|40:112,1,60,2|8,0:0|0:0,0:0:0:0:
272,80,73369,6,0,L|384:152,1,120,2|8,0:0|0:0,0:0:0:0:
192,80,74035,2,0,L|80:152,1,120,2|8,0:0|0:0,0:0:0:0:
272,208,74702,2,0,L|384:136,1,120,2|8,0:0|0:0,0:0:0:0:
464,88,75202,1,2,0:0:0:0:
280,88,75535,2,0,P|248:120|288:248,1,180,2|10,0:0|0:0,0:0:0:0:
376,232,76202,5,2,0:0:0:0:
422,267,76368,1,10,0:0:0:0:
429,325,76535,1,2,0:0:0:0:
304,232,76702,5,10,0:0:0:0:
257,196,76868,1,2,0:0:0:0:
248,136,77035,1,8,0:0:0:0:
168,96,77202,6,0,L|104:152,1,60,8|4,0:0|0:0,0:0:0:0:
384,88,77702,2,0,L|384:152,1,60,4|4,0:0|0:0,0:0:0:0:
192,296,78202,2,0,L|120:248,1,60,4|4,0:0|0:0,0:0:0:0:
384,240,78702,6,4,P|424:184|408:128,1,120
288,96,79202,1,4,0:0:0:0:
61,154,79535,2,0,L|104:112,1,60,4|4,0:0|0:0,0:0:0:0:
256,192,80035,12,0,81369,0:0:0:0:
