osu file format v14

[General]
AudioFilename: Acceleration.mp3
AudioLeadIn: 0
PreviewTime: 21702
Countdown: 0
SampleSet: Soft
StackLeniency: 0.7
Mode: 2
LetterboxInBreaks: 0
WidescreenStoryboard: 0

[Editor]
DistanceSpacing: 1.4
BeatDivisor: 4
GridSize: 4
TimelineZoom: 2.1

[Metadata]
Title:Acceleration
TitleUnicode:Acceleration
Artist:REDALiCE
ArtistUnicode:REDALiCE
Creator:JBHyperion
Version:Lotus' Rain
Source:HALFPIPE TOKYO
Tags:Original Soundtrack OST Sega 永井良和 Yoshikazu Nagai DJ Magic Girl WildOne94 Withered Lotus Razor Sharp NurseHyperion OnosakiHito DakeDekaane
BeatmapID:857667
BeatmapSetID:392304

[Difficulty]
HPDrainRate:6
CircleSize:4
OverallDifficulty:9
ApproachRate:9
SliderMultiplier:1.6
SliderTickRate:2

[Events]
//Background and Video events
0,0,"AccelerationPulse1920x1080.png",0,0
//Break Periods
//Storyboard Layer 0 (Background)
//Storyboard Layer 1 (Fail)
//Storyboard Layer 2 (Pass)
//Storyboard Layer 3 (Foreground)
//Storyboard Sound Samples

[TimingPoints]
36,333.333333333333,4,2,77,80,1,0
119,-100,4,2,1,100,0,0
10702,-100,4,2,2,50,0,0
13369,-100,4,2,2,55,0,0
14702,-100,4,2,2,60,0,0
16035,-100,4,2,2,65,0,0
17369,-100,4,2,2,70,0,0
18702,-100,4,2,3,55,0,0
19369,-100,4,2,3,60,0,0
20035,-100,4,2,3,65,0,0
20702,-100,4,2,3,70,0,0
21369,-100,4,2,4,80,0,0
21702,-100,4,2,1,60,0,0
22369,-100,4,2,1,100,0,0
22702,-100,4,2,77,80,0,1
22785,-100,4,2,3,80,0,1
25035,-100,4,2,10,80,0,1
25202,-100,4,2,3,80,0,1
30369,-100,4,2,10,80,0,1
30535,-100,4,2,3,80,0,1
32369,-100,4,2,4,80,0,1
32452,-100,4,2,3,80,0,1
33285,-100,4,2,3,80,0,0
33369,-100,4,2,77,80,0,1
33452,-100,4,2,3,80,0,1
35702,-100,4,2,10,80,0,1
35869,-100,4,2,3,80,0,1
41035,-100,4,2,10,80,0,1
41202,-100,4,2,3,80,0,1
42702,-100,4,2,4,80,0,1
43535,-100,4,2,3,80,0,1
44035,-100,4,2,77,70,0,0
44119,-100,4,2,2,60,0,0
49369,-100,4,2,2,70,0,0
52035,-100,4,2,3,40,0,0
52369,-100,4,2,3,45,0,0
52702,-100,4,2,3,50,0,0
53035,-100,4,2,3,55,0,0
53369,-100,4,2,3,60,0,0
53702,-100,4,2,3,65,0,0
54035,-100,4,2,3,70,0,0
54369,-100,4,2,3,75,0,0
54535,-100,4,2,4,70,0,0
54702,-100,4,2,4,80,0,0
56369,-100,4,2,4,80,0,0
57035,-100,4,2,1,100,0,0
57369,-100,4,2,77,80,0,1
57452,-100,4,2,3,80,0,1
59702,-100,4,2,10,80,0,1
59869,-100,4,2,3,80,0,1
65035,-100,4,2,10,80,0,1
65202,-100,4,2,3,80,0,1
66702,-100,4,2,4,80,0,1
66869,-100,4,2,3,80,0,1
67035,-100,4,2,4,80,0,1
67119,-100,4,2,3,80,0,1
67952,-100,4,2,3,80,0,0
68035,-100,4,2,77,80,0,1
68119,-100,4,2,3,80,0,1
70369,-100,4,2,10,80,0,1
70535,-100,4,2,3,80,0,1
75702,-100,4,2,10,80,0,1
75869,-100,4,2,3,80,0,1
77369,-100,4,2,4,80,0,1
77535,-100,4,2,3,80,0,1
77702,-100,4,2,4,80,0,1
78869,-100,4,2,3,90,0,1
79035,-100,4,2,4,90,0,1
79869,-100,4,2,3,80,0,1
80035,-100,4,2,1,45,0,0
80369,-100,4,2,1,35,0,0
80702,-100,4,2,1,25,0,0
81035,-100,4,2,1,15,0,0
81369,-100,4,2,1,5,0,0

[Colours]
Combo1 : 255,150,50
Combo2 : 255,50,150
Combo3 : 30,30,255
Combo4 : 150,0,150

[HitObjects]
292,280,36,6,0,L|400:280,1,80,4|0,0:0|0:0,0:0:0:0:
420,248,285,1,0,0:0:0:0:
372,212,369,2,0,L|260:212,1,80,0|2,0:0|0:0,0:0:0:0:
144,108,702,2,0,L|244:108,1,80
268,108,952,2,0,L|308:108,1,40
336,64,1119,2,0,L|284:64,1,40
40,276,1369,6,0,L|140:224,1,80,2|0,0:0|0:0,0:0:0:0:
164,236,1619,1,0,0:0:0:0:
216,196,1702,1,0,0:0:0:0:
164,156,1785,1,0,0:0:0:0:
112,120,1868,1,0,0:0:0:0:
164,84,1952,1,0,0:0:0:0:
376,76,2035,6,0,B|460:84|440:40|392:40,1,80,2|0,0:0|0:0,0:0:0:0:
268,40,2369,1,0,0:0:0:0:
208,88,2452,1,0,0:0:0:0:
232,148,2535,1,0,0:0:0:0:
304,164,2619,1,0,0:0:0:0:
448,184,2702,6,0,L|504:276,1,80,2|0,0:0|0:0,0:0:0:0:
444,268,2952,1,0,0:0:0:0:
396,268,3035,1,0,0:0:0:0:
352,268,3119,2,0,L|296:268,2,40,0|2|0,0:0|0:0|0:0,0:0:0:0:
448,236,3369,2,0,L|496:236,1,40
428,184,3535,2,0,L|376:184,1,40
160,180,3702,2,0,L|244:180,1,80,2|0,0:0|0:0,0:0:0:0:
492,120,4035,6,0,L|412:120,1,80,2|0,0:0|0:0,0:0:0:0:
304,164,4369,1,2,0:0:0:0:
272,192,4452,1,0,0:0:0:0:
304,224,4535,2,0,L|400:224,1,80,0|2,0:0|0:0,0:0:0:0:
304,256,4869,1,0,0:0:0:0:
72,280,5035,2,0,L|160:280,1,80,2|0,0:0|0:0,0:0:0:0:
452,292,5369,6,0,L|340:292,1,80,4|0,0:0|0:0,0:0:0:0:
336,256,5619,1,0,0:0:0:0:
380,256,5702,1,0,0:0:0:0:
424,256,5785,1,0,0:0:0:0:
208,204,5869,2,0,L|104:204,1,80,2|0,0:0|0:0,0:0:0:0:
72,204,6119,1,0,0:0:0:0:
32,184,6202,1,0,0:0:0:0:
72,160,6285,1,0,0:0:0:0:
132,152,6369,2,0,L|244:152,1,80
456,276,6702,6,0,L|368:276,1,80,2|0,0:0|0:0,0:0:0:0:
208,228,7035,1,0,0:0:0:0:
256,188,7119,1,0,0:0:0:0:
312,176,7202,1,0,0:0:0:0:
144,124,7369,2,0,L|60:124,1,80,2|0,0:0|0:0,0:0:0:0:
204,68,7702,1,0,0:0:0:0:
248,36,7785,1,0,0:0:0:0:
300,28,7869,1,0,0:0:0:0:
448,168,8035,6,0,L|340:168,1,80,2|0,0:0|0:0,0:0:0:0:
208,168,8369,2,0,L|196:128,1,40
124,104,8535,2,0,L|140:32,1,40,2|0,0:0|0:0,0:0:0:0:
200,36,8702,2,0,L|292:36,1,80
472,184,9035,5,0,0:0:0:0:
336,188,9202,1,0,0:0:0:0:
104,264,9369,2,0,B|16:192|112:124,1,160
360,176,9869,2,0,L|452:176,2,80,0|2|0,0:0|0:0|0:0,0:0:0:0:
116,92,10369,2,0,L|228:92,1,80,2|0,0:0|0:0,0:0:0:0:
448,216,10702,6,0,L|344:216,1,80,4|0,0:0|0:0,0:0:0:0:
212,296,11035,2,0,L|316:296,1,80,8|0,0:0|0:0,0:0:0:0:
448,216,11369,2,0,L|364:216,1,80,8|0,0:0|0:0,0:0:0:0:
208,172,11702,1,8,0:0:0:0:
160,144,11785,1,0,0:0:0:0:
208,120,11869,1,0,0:0:0:0:
264,120,11952,1,0,0:0:0:0:
320,120,12035,6,0,L|400:120,1,80,0|8,0:0|0:0,0:0:0:0:
304,180,12369,1,0,0:0:0:0:
184,196,12535,1,0,0:0:0:0:
416,228,12702,2,0,P|428:176|396:144,1,80,8|0,0:0|0:0,0:0:0:0:
184,128,13035,1,8,0:0:0:0:
144,92,13119,1,0,0:0:0:0:
184,60,13202,1,0,0:0:0:0:
236,60,13285,1,0,0:0:0:0:
288,60,13369,6,0,L|384:60,1,80,8|2,0:0|0:0,0:0:0:0:
232,128,13702,2,0,L|192:204,1,80,8|2,0:0|0:0,0:0:0:0:
352,224,14035,2,0,L|392:304,1,80,8|2,0:0|0:0,0:0:0:0:
272,320,14369,1,8,0:0:0:0:
392,348,14535,1,2,0:0:0:0:
128,56,14702,5,8,0:0:0:0:
52,136,14869,1,2,0:0:0:0:
128,232,15035,1,8,0:0:0:0:
352,260,15202,2,0,L|444:260,1,80,2|8,0:0|0:0,0:0:0:0:
160,200,15535,1,2,0:0:0:0:
428,140,15702,2,0,L|336:140,1,80,8|2,0:0|0:0,0:0:0:0:
40,104,16035,6,0,L|152:104,1,80,10|2,0:0|0:0,0:0:0:0:
296,180,16369,2,0,L|180:180,1,80,10|2,0:0|0:0,0:0:0:0:
44,256,16702,2,0,L|128:256,1,80,10|2,0:0|0:0,0:0:0:0:
248,268,17035,1,10,0:0:0:0:
328,232,17119,1,0,0:0:0:0:
364,160,17202,1,2,0:0:0:0:
308,100,17285,1,0,0:0:0:0:
204,80,17369,6,0,L|124:80,1,80,10|2,0:0|0:0,0:0:0:0:
240,152,17702,2,0,L|148:152,1,80,10|2,0:0|0:0,0:0:0:0:
248,224,18035,2,0,L|344:224,1,80,10|2,0:0|0:0,0:0:0:0:
216,288,18369,2,0,L|320:288,1,80,10|2,0:0|0:0,0:0:0:0:
104,308,18702,5,8,0:0:0:0:
48,276,18785,1,8,0:0:0:0:
100,236,18869,1,8,0:0:0:0:
160,236,18952,1,8,0:0:0:0:
264,212,19035,5,8,0:0:0:0:
304,168,19119,1,8,0:0:0:0:
260,140,19202,1,8,0:0:0:0:
200,136,19285,1,8,0:0:0:0:
100,96,19369,1,8,0:0:0:0:
160,96,19452,1,8,0:0:0:0:
220,96,19535,1,8,0:0:0:0:
280,96,19619,1,8,0:0:0:0:
388,100,19702,5,8,0:0:0:0:
432,140,19785,1,8,0:0:0:0:
424,192,19869,1,8,0:0:0:0:
364,216,19952,1,0,0:0:0:0:
252,216,20035,1,8,0:0:0:0:
208,260,20119,1,8,0:0:0:0:
240,316,20202,1,8,0:0:0:0:
296,324,20285,1,8,0:0:0:0:
408,304,20369,5,8,0:0:0:0:
440,268,20452,1,8,0:0:0:0:
408,224,20535,1,8,0:0:0:0:
440,184,20619,1,8,0:0:0:0:
332,148,20702,1,8,0:0:0:0:
292,184,20785,1,8,0:0:0:0:
328,224,20869,1,8,0:0:0:0:
292,272,20952,1,8,0:0:0:0:
188,284,21035,5,8,0:0:0:0:
140,248,21119,1,8,0:0:0:0:
92,212,21202,1,8,0:0:0:0:
144,176,21285,1,8,0:0:0:0:
320,188,21369,1,4,0:0:0:0:
256,192,21702,12,8,22369,0:0:0:0:
420,176,22702,6,0,L|468:256,1,80,4|0,0:0|0:0,0:0:0:0:
284,248,23035,2,0,L|328:164,1,80,8|0,0:0|0:0,0:0:0:0:
68,176,23369,2,0,L|20:256,1,80,2|0,0:0|0:0,0:0:0:0:
204,248,23702,2,0,L|160:164,1,80,8|0,0:0|0:0,0:0:0:0:
392,128,24035,2,0,L|484:128,2,80,2|0|8,0:0|0:0|0:0,0:0:0:0:
152,132,24535,2,0,L|36:132,1,80,2|0,0:0|0:0,0:0:0:0:
320,72,24869,6,0,B|384:136|360:184|312:224,1,160,0|0,0:0|0:0,0:0:0:0:
76,224,25369,2,0,L|48:144,1,80,2|0,0:0|0:0,0:0:0:0:
176,144,25702,2,0,L|208:64,1,80,8|0,0:0|0:0,0:0:0:0:
64,192,26035,2,0,L|36:112,1,80,2|0,0:0|0:0,0:0:0:0:
192,104,26368,2,0,L|224:24,1,80,8|0,0:0|0:0,0:0:0:0:
452,280,26702,2,0,L|264:280,1,160,2|8,0:0|0:0,0:0:0:0:
388,216,27202,1,8,0:0:0:0:
144,124,27535,1,0,0:0:0:0:
372,120,27702,6,0,B|452:148|436:184|304:200,1,160,8|2,0:0|0:0,0:0:0:0:
256,200,28202,1,0,0:0:0:0:
104,280,28369,2,0,L|288:280,1,160,8|2,0:0|0:0,0:0:0:0:
180,256,28869,1,0,0:0:0:0:
16,192,29035,2,0,L|180:192,1,160,8|2,0:0|0:0,0:0:0:0:
260,188,29535,1,0,0:0:0:0:
344,188,29702,1,8,0:0:0:0:
76,72,29869,1,2,0:0:0:0:
276,184,30202,6,0,L|436:184,1,160
104,256,30702,1,2,0:0:0:0:
320,248,31035,1,8,0:0:0:0:
72,228,31369,1,8,0:0:0:0:
360,216,31702,5,8,0:0:0:0:
132,216,31869,1,2,0:0:0:0:
360,216,32035,2,0,B|428:216|468:184|432:180,2,80,4|8|4,0:0|0:0|0:0,0:0:0:0:
84,92,32535,2,0,L|256:92,1,160,8|4,0:0|0:0,0:0:0:0:
416,40,33035,6,0,B|304:40,1,80,4|4,0:0|0:0,0:0:0:0:
92,48,33369,1,0,0:0:0:0:
36,104,33535,1,0,0:0:0:0:
52,176,33702,1,8,0:0:0:0:
128,216,33869,1,2,0:0:0:0:
304,288,34035,2,0,L|192:288,1,80,2|0,0:0|0:0,0:0:0:0:
72,200,34369,2,0,L|240:200,1,160,8|2,0:0|0:0,0:0:0:0:
72,116,35035,1,8,0:0:0:0:
416,80,35202,2,0,L|308:80,1,80,2|0,0:0|0:0,0:0:0:0:
68,232,35535,2,0,L|248:232,1,160,2|2,0:0|0:0,0:0:0:0:
480,144,36035,6,0,L|464:236,1,80,2|0,0:0|0:0,0:0:0:0:
296,200,36369,2,0,L|316:296,1,80,8|0,0:0|0:0,0:0:0:0:
468,316,36702,2,0,L|372:280,1,80,2|2,0:0|0:0,0:0:0:0:
212,224,37035,2,0,L|312:200,1,80,8|0,0:0|0:0,0:0:0:0:
60,148,37369,1,2,0:0:0:0:
308,152,37702,1,8,0:0:0:0:
60,148,37869,1,2,0:0:0:0:
312,244,38202,1,2,0:0:0:0:
60,248,38369,6,0,L|224:248,1,160,8|2,0:0|0:0,0:0:0:0:
436,160,39035,1,8,0:0:0:0:
132,144,39369,1,2,0:0:0:0:
444,256,39702,2,0,L|260:256,1,160,8|2,0:0|0:0,0:0:0:0:
40,156,40369,1,8,0:0:0:0:
280,156,40535,1,2,0:0:0:0:
40,156,40869,6,0,L|216:156,1,160,2|2,0:0|0:0,0:0:0:0:
364,152,41369,2,0,L|452:152,3,80,8|8|8|8,0:0|0:0|0:0|0:0,0:0:0:0:
296,216,42035,2,0,L|176:216,3,80,4|4|4|4,0:0|0:0|0:0|0:0,0:0:0:0:
28,180,42702,5,4,0:0:0:0:
108,116,42869,1,4,0:0:0:0:
216,108,43035,1,4,0:0:0:0:
440,280,43202,6,0,L|272:280,1,160,4|2,0:0|0:0,0:0:0:0:
44,176,43702,2,0,L|156:176,1,80,8|4,0:0|0:0,0:0:0:0:
432,176,44035,1,0,0:0:0:0:
328,184,44369,5,8,0:0:0:0:
232,164,44702,2,0,L|376:164,1,120,8|8,0:0|0:0,0:0:0:0:
296,208,45035,1,0,0:0:0:0:
240,224,45118,1,0,0:0:0:0:
184,232,45202,1,0,0:0:0:0:
56,232,45369,1,8,0:0:0:0:
292,164,45702,2,0,L|148:164,1,120,8|8,0:0|0:0,0:0:0:0:
228,208,46035,1,0,0:0:0:0:
284,224,46118,1,0,0:0:0:0:
340,232,46202,1,0,0:0:0:0:
460,232,46369,1,8,0:0:0:0:
48,296,46702,6,0,L|216:296,1,160,8|8,0:0|0:0,0:0:0:0:
464,176,47369,2,8,L|292:176,1,160
52,180,48035,1,8,0:0:0:0:
156,156,48369,1,8,0:0:0:0:
260,148,48702,1,8,0:0:0:0:
364,160,49035,1,8,0:0:0:0:
468,248,49369,6,0,L|368:248,1,80,8|2,0:0|0:0,0:0:0:0:
224,180,49702,2,0,L|328:180,1,80,8|2,0:0|0:0,0:0:0:0:
464,96,50035,2,0,L|352:96,1,80,8|2,0:0|0:0,0:0:0:0:
224,96,50369,1,8,0:0:0:0:
180,136,50452,1,0,0:0:0:0:
192,192,50535,1,2,0:0:0:0:
248,208,50619,1,0,0:0:0:0:
364,212,50702,6,0,L|448:212,1,80,8|2,0:0|0:0,0:0:0:0:
272,140,51035,2,0,L|180:140,1,80,8|2,0:0|0:0,0:0:0:0:
368,60,51369,2,0,L|456:60,1,80,8|2,0:0|0:0,0:0:0:0:
272,160,51702,2,0,L|352:160,1,80,8|2,0:0|0:0,0:0:0:0:
200,276,52035,1,0,0:0:0:0:
140,276,52119,6,0,L|84:276,2,40,8|8|8,0:0|0:0|0:0,0:0:0:0:
200,276,52369,2,0,L|244:276,3,40,8|8|8|8,0:0|0:0|0:0|0:0,0:0:0:0:
292,276,52702,5,8,0:0:0:0:
340,268,52785,1,8,0:0:0:0:
376,244,52869,1,8,0:0:0:0:
392,200,52952,1,8,0:0:0:0:
376,160,53035,5,8,0:0:0:0:
340,140,53119,1,8,0:0:0:0:
292,136,53202,1,8,0:0:0:0:
244,136,53285,1,8,0:0:0:0:
156,140,53369,6,0,L|116:140,3,40,8|8|8|8,0:0|0:0|0:0|0:0,0:0:0:0:
216,140,53702,1,8,0:0:0:0:
272,140,53785,1,8,0:0:0:0:
324,140,53869,1,8,0:0:0:0:
380,140,53952,1,8,0:0:0:0:
484,140,54035,2,0,L|424:140,3,40,8|8|8|8,0:0|0:0|0:0|0:0,0:0:0:0:
356,140,54369,1,8,0:0:0:0:
236,168,54535,5,4,0:0:0:0:
308,168,54619,1,0,0:0:0:0:
376,168,54702,1,4,0:0:0:0:
176,240,54952,1,4,0:0:0:0:
376,240,55202,1,4,0:0:0:0:
116,192,55369,5,4,0:0:0:0:
296,188,55619,1,4,0:0:0:0:
116,192,55869,1,4,0:0:0:0:
376,184,56035,1,4,0:0:0:0:
256,192,56369,12,8,57035,0:0:0:0:
80,204,57369,6,0,L|192:204,1,80,4|0,0:0|0:0,0:0:0:0:
312,200,57702,2,0,L|424:200,1,80,8|0,0:0|0:0,0:0:0:0:
232,112,58035,2,0,L|68:108,1,160,2|8,0:0|0:0,0:0:0:0:
192,200,58535,1,0,0:0:0:0:
420,204,58702,6,0,L|500:204,2,80,2|0|8,0:0|0:0|0:0,0:0:0:0:
144,144,59202,2,0,L|36:144,1,80,0|2,0:0|0:0,0:0:0:0:
224,252,59535,2,0,L|404:252,1,160
160,136,60035,2,0,L|72:136,1,80,2|0,0:0|0:0,0:0:0:0:
248,220,60369,2,0,L|212:296,1,80,8|0,0:0|0:0,0:0:0:0:
68,224,60702,2,0,L|108:312,1,80,2|0,0:0|0:0,0:0:0:0:
266,231,61035,2,0,L|220:332,1,80,8|0,0:0|0:0,0:0:0:0:
64,304,61369,5,2,0:0:0:0:
376,272,61702,1,0,0:0:0:0:
120,124,61869,2,0,L|80:228,1,80,8|8,0:0|0:0,0:0:0:0:
360,272,62202,1,0,0:0:0:0:
80,280,62369,2,0,L|248:192,1,160,8|2,0:0|0:0,0:0:0:0:
116,184,62869,1,0,0:0:0:0:
400,244,63035,6,0,B|496:244|504:172|444:152,1,160,8|2,0:0|0:0,0:0:0:0:
356,144,63535,1,0,0:0:0:0:
116,148,63702,2,0,B|20:148|12:220|72:240,1,160,8|2,0:0|0:0,0:0:0:0:
232,272,64202,1,0,0:0:0:0:
392,256,64369,1,8,0:0:0:0:
88,184,64535,1,2,0:0:0:0:
284,184,64869,6,0,L|112:184,1,160
376,144,65369,2,0,L|464:120,1,80,2|0,0:0|0:0,0:0:0:0:
284,116,65702,2,0,L|196:100,1,80,8|0,0:0|0:0,0:0:0:0:
36,144,66035,2,0,L|136:164,1,80,8|0,0:0|0:0,0:0:0:0:
312,184,66369,1,8,0:0:0:0:
168,184,66535,1,2,0:0:0:0:
444,192,66702,1,4,0:0:0:0:
192,76,66869,1,8,0:0:0:0:
152,76,66952,1,0,0:0:0:0:
112,76,67035,5,4,0:0:0:0:
72,100,67119,1,8,0:0:0:0:
112,128,67202,1,8,0:0:0:0:
152,128,67285,1,0,0:0:0:0:
200,128,67369,2,0,L|220:168,1,40
164,172,67535,2,0,L|148:216,1,40,4|0,0:0|0:0,0:0:0:0:
212,180,67702,2,0,L|236:232,1,40,4|4,0:0|0:0,0:0:0:0:
164,216,67869,2,0,L|136:288,1,40,4|4,0:0|0:0,0:0:0:0:
396,300,68035,6,0,L|468:228,1,80,4|0,0:0|0:0,0:0:0:0:
104,208,68369,2,0,P|76:172|76:128,1,80,8|2,0:0|0:0,0:0:0:0:
220,272,68702,2,0,P|248:236|248:192,1,80,8|2,0:0|0:0,0:0:0:0:
88,232,69035,2,0,P|60:196|60:152,1,80,8|0,0:0|0:0,0:0:0:0:
384,224,69369,2,0,L|288:224,1,80,2|0,0:0|0:0,0:0:0:0:
412,168,69702,1,8,0:0:0:0:
52,236,69869,1,2,0:0:0:0:
248,192,70202,6,0,P|128:168|84:160,1,160,2|2,0:0|0:0,0:0:0:0:
172,128,70702,1,2,0:0:0:0:
256,116,70869,1,0,0:0:0:0:
428,96,71035,1,8,0:0:0:0:
344,72,71202,1,0,0:0:0:0:
44,40,71369,2,0,L|124:40,2,80,2|2|8,0:0|0:0|0:0,0:0:0:0:
316,248,72035,2,0,L|204:248,1,80,2|0,0:0|0:0,0:0:0:0:
80,200,72369,1,8,0:0:0:0:
348,144,72535,6,0,P|404:108|356:44,1,160,2|2,0:0|0:0,0:0:0:0:
120,48,73035,2,0,L|228:48,1,80,8|2,0:0|0:0,0:0:0:0:
456,236,73369,1,0,0:0:0:0:
380,184,73535,1,0,0:0:0:0:
204,172,73702,1,8,0:0:0:0:
284,144,73869,1,0,0:0:0:0:
464,156,74035,1,2,0:0:0:0:
384,108,74202,1,2,0:0:0:0:
104,120,74369,1,8,0:0:0:0:
376,240,74702,6,0,L|268:240,1,80,2|0,0:0|0:0,0:0:0:0:
168,216,75035,1,8,0:0:0:0:
436,208,75202,1,2,0:0:0:0:
208,124,75535,2,0,L|380:124,1,160,2|2,0:0|0:0,0:0:0:0:
224,232,76035,2,0,L|128:232,2,80,10|2|10,0:0|0:0|0:0,0:0:0:0:
376,232,76535,2,0,L|464:232,2,80,2|10|2,0:0|0:0|0:0,0:0:0:0:
48,80,77035,5,8,0:0:0:0:
168,80,77202,1,8,0:0:0:0:
456,196,77369,2,0,L|364:196,1,80,4|2,0:0|0:0,0:0:0:0:
132,196,77702,1,4,0:0:0:0:
364,200,77869,1,4,0:0:0:0:
132,132,78202,1,4,0:0:0:0:
364,128,78369,6,0,L|452:128,1,80,4|4,0:0|0:0,0:0:0:0:
464,128,78577,2,0,L|428:128,3,20
272,232,78869,1,2,0:0:0:0:
376,236,79035,1,4,0:0:0:0:
96,236,79202,1,4,0:0:0:0:
320,240,79535,1,4,0:0:0:0:
92,148,79702,2,0,L|188:148,1,80,4|2,0:0|0:0,0:0:0:0:
256,192,80035,12,0,81369,0:0:0:0:
