osu file format v14

[General]
AudioFilename: Acceleration.mp3
AudioLeadIn: 0
PreviewTime: 21702
Countdown: 0
SampleSet: Soft
StackLeniency: 0.7
Mode: 2
LetterboxInBreaks: 0
WidescreenStoryboard: 0

[Editor]
DistanceSpacing: 1.2
BeatDivisor: 4
GridSize: 4
TimelineZoom: 1

[Metadata]
Title:Acceleration
TitleUnicode:Acceleration
Artist:REDALiCE
ArtistUnicode:REDALiCE
Creator:JBHyperion
Version:Rain
Source:HALFPIPE TOKYO
Tags:Original Soundtrack OST Sega 永井良和 Yoshikazu Nagai DJ Magic Girl WildOne94 Withered Lotus Razor Sharp NurseHyperion OnosakiHito DakeDekaane
BeatmapID:854263
BeatmapSetID:392304

[Difficulty]
HPDrainRate:6
CircleSize:4
OverallDifficulty:9.2
ApproachRate:9.2
SliderMultiplier:1.6
SliderTickRate:2

[Events]
//Background and Video events
0,0,"AccelerationPulse1920x1080.png",0,0
//Break Periods
//Storyboard Layer 0 (Background)
//Storyboard Layer 1 (Fail)
//Storyboard Layer 2 (Pass)
//Storyboard Layer 3 (Foreground)
//Storyboard Sound Samples

[TimingPoints]
36,333.333333333333,4,2,77,80,1,0
119,-100,4,2,1,100,0,0
10702,-100,4,2,2,50,0,0
13369,-100,4,2,2,55,0,0
14702,-100,4,2,2,60,0,0
16035,-100,4,2,2,65,0,0
17369,-100,4,2,2,70,0,0
18702,-100,4,2,3,55,0,0
19369,-100,4,2,3,60,0,0
20035,-100,4,2,3,65,0,0
20702,-100,4,2,3,70,0,0
21369,-100,4,2,4,80,0,0
21702,-100,4,2,1,60,0,0
22369,-50,4,2,1,100,0,0
22702,-100,4,2,77,80,0,1
22785,-100,4,2,3,80,0,1
24869,-66.6666666666667,4,2,3,80,0,1
25035,-66.6666666666667,4,2,10,80,0,1
25202,-100,4,2,3,80,0,1
30202,-66.6666666666667,4,2,3,80,0,1
30369,-66.6666666666667,4,2,10,80,0,1
30535,-100,4,2,3,80,0,1
32035,-100,4,2,3,80,0,1
32202,-100,4,2,3,80,0,1
32369,-100,4,2,4,80,0,1
32452,-100,4,2,3,80,0,1
33285,-100,4,2,3,80,0,0
33369,-100,4,2,77,80,0,1
33452,-100,4,2,3,80,0,1
35535,-66.6666666666667,4,2,3,80,0,1
35702,-66.6666666666667,4,2,10,80,0,1
35869,-100,4,2,3,80,0,1
40869,-66.6666666666667,4,2,3,80,0,1
41035,-66.6666666666667,4,2,10,80,0,1
41202,-100,4,2,3,80,0,1
42702,-100,4,2,4,80,0,1
43535,-100,4,2,3,80,0,1
44035,-100,4,2,77,70,0,0
44119,-100,4,2,2,60,0,0
49369,-100,4,2,2,70,0,0
52035,-100,4,2,3,40,0,0
52369,-100,4,2,3,45,0,0
52702,-100,4,2,3,50,0,0
53035,-100,4,2,3,55,0,0
53369,-100,4,2,3,60,0,0
53702,-100,4,2,3,65,0,0
54035,-100,4,2,3,70,0,0
54369,-100,4,2,3,75,0,0
54535,-100,4,2,4,70,0,0
54702,-66.6666666666667,4,2,4,80,0,0
57035,-50,4,2,1,100,0,0
57369,-100,4,2,77,80,0,1
57452,-100,4,2,3,80,0,1
59535,-66.6666666666667,4,2,3,80,0,1
59702,-66.6666666666667,4,2,10,80,0,1
59869,-100,4,2,3,80,0,1
64869,-66.6666666666667,4,2,3,80,0,1
65035,-66.6666666666667,4,2,10,80,0,1
65202,-100,4,2,3,80,0,1
66702,-100,4,2,4,80,0,1
66869,-100,4,2,3,80,0,1
67035,-100,4,2,4,80,0,1
67119,-100,4,2,3,80,0,1
67952,-100,4,2,3,80,0,0
68035,-100,4,2,77,80,0,1
68119,-100,4,2,3,80,0,1
70202,-66.6666666666667,4,2,3,80,0,1
70369,-66.6666666666667,4,2,10,80,0,1
70535,-100,4,2,3,80,0,1
75535,-66.6666666666667,4,2,3,80,0,1
75702,-66.6666666666667,4,2,10,80,0,1
75869,-100,4,2,3,80,0,1
77369,-66.6666666666667,4,2,4,80,0,1
77535,-66.6666666666667,4,2,3,80,0,1
77702,-66.6666666666667,4,2,4,80,0,1
78535,-66.6666666666667,4,2,3,80,0,1
78702,-66.6666666666667,4,2,4,90,0,1
78869,-66.6666666666667,4,2,3,90,0,1
79035,-66.6666666666667,4,2,4,90,0,1
79869,-66.6666666666667,4,2,3,80,0,1
80035,-100,4,2,1,45,0,0
80369,-100,4,2,1,35,0,0
80702,-100,4,2,1,25,0,0
81035,-100,4,2,1,15,0,0
81369,-100,4,2,1,5,0,0

[Colours]
Combo1 : 255,150,50
Combo2 : 255,50,150
Combo3 : 30,30,255
Combo4 : 150,0,150

[HitObjects]
192,192,36,6,0,P|128:168|120:80,1,160,4|0,0:0|0:0,0:0:0:0:
276,84,535,2,0,P|340:100|400:172,1,160,2|0,0:0|0:0,0:0:0:0:
272,172,1035,2,0,L|192:172,1,80,0|0,0:0|0:0,0:0:0:0:
16,240,1369,6,0,L|76:296,1,80,2|0,0:0|0:0,0:0:0:0:
188,296,1702,2,0,L|248:352,1,80
408,196,2035,2,0,L|348:252,1,80,2|0,0:0|0:0,0:0:0:0:
236,248,2368,2,0,L|148:248,1,80
384,192,2702,6,0,P|444:160|392:96,1,160,2|0,0:0|0:0,0:0:0:0:
244,192,3201,2,0,P|180:176|136:96,1,160,2|0,0:0|0:0,0:0:0:0:
264,100,3702,2,0,L|344:100,1,80,0|0,0:0|0:0,0:0:0:0:
140,192,4035,6,0,L|60:192,1,80,2|0,0:0|0:0,0:0:0:0:
224,192,4369,1,2,0:0:0:0:
284,192,4452,1,0,0:0:0:0:
300,252,4535,1,0,0:0:0:0:
258,293,4618,1,0,0:0:0:0:
156,296,4702,2,0,L|116:280,2,40,2|0|0,0:0|0:0|0:0,0:0:0:0:
300,252,5035,2,0,L|380:252,1,80,2|0,0:0|0:0,0:0:0:0:
152,192,5369,6,0,P|88:160|136:112,1,160,4|0,0:0|0:0,0:0:0:0:
296,252,5868,2,0,P|360:236|384:152,1,160,2|0,0:0|0:0,0:0:0:0:
256,112,6368,2,0,L|176:112,1,80
352,192,6702,6,0,L|412:248,1,80,2|0,0:0|0:0,0:0:0:0:
264,192,7035,2,0,L|204:248,1,80,0|0,0:0|0:0,0:0:0:0:
392,320,7368,2,0,L|308:320,1,80,2|0,0:0|0:0,0:0:0:0:
168,320,7702,2,0,L|248:320,1,80,0|0,0:0|0:0,0:0:0:0:
472,192,8035,6,0,P|492:132|412:100,1,160,2|0,0:0|0:0,0:0:0:0:
272,124,8535,2,0,P|292:180|388:212,1,160,2|0,0:0|0:0,0:0:0:0:
236,56,9035,2,0,L|156:56,1,80,0|0,0:0|0:0,0:0:0:0:
384,124,9369,6,0,L|424:124,2,40,2|0|0,0:0|0:0|0:0,0:0:0:0:
100,192,9702,2,0,L|20:192,2,80,0|0|2,0:0|0:0|0:0,0:0:0:0:
236,196,10202,1,0,0:0:0:0:
84,268,10369,2,0,L|16:312,1,80,2|0,0:0|0:0,0:0:0:0:
340,268,10702,5,4,0:0:0:0:
148,192,11035,2,0,L|64:192,1,80,8|0,0:0|0:0,0:0:0:0:
248,132,11369,2,0,L|328:132,1,80,8|0,0:0|0:0,0:0:0:0:
148,56,11702,1,8,0:0:0:0:
292,56,11869,1,0,0:0:0:0:
436,56,12035,5,8,0:0:0:0:
196,192,12369,2,0,L|130:257,1,80,8|0,0:0|0:0,0:0:0:0:
320,192,12702,2,0,L|254:257,1,80,8|0,0:0|0:0,0:0:0:0:
444,192,13035,2,0,L|378:257,1,80,8|0,0:0|0:0,0:0:0:0:
156,328,13369,6,0,L|83:294,1,80,8|2,0:0|0:0,0:0:0:0:
264,272,13702,2,0,L|191:238,1,80,8|2,0:0|0:0,0:0:0:0:
372,192,14035,2,0,L|444:158,1,80,8|2,0:0|0:0,0:0:0:0:
264,136,14368,2,0,L|336:102,1,80,8|2,0:0|0:0,0:0:0:0:
92,192,14702,6,0,L|180:192,1,80,8|2,0:0|0:0,0:0:0:0:
304,104,15035,1,8,0:0:0:0:
352,104,15119,1,0,0:0:0:0:
400,104,15202,1,2,0:0:0:0:
220,60,15369,2,0,L|132:60,1,80,8|2,0:0|0:0,0:0:0:0:
340,32,15702,2,0,L|424:32,1,80,8|2,0:0|0:0,0:0:0:0:
196,192,16035,6,0,L|116:192,2,80,10|2|10,0:0|0:0|0:0,0:0:0:0:
300,192,16535,1,2,0:0:0:0:
124,272,16702,2,0,L|40:272,1,80,10|2,0:0|0:0,0:0:0:0:
188,320,17035,2,0,L|118:390,1,80,10|2,0:0|0:0,0:0:0:0:
376,220,17369,6,0,L|464:220,3,80,10|2|10|2,0:0|0:0|0:0|0:0,0:0:0:0:
276,120,18035,2,0,L|188:120,3,80,10|2|10|2,0:0|0:0|0:0|0:0,0:0:0:0:
436,56,18702,5,8,0:0:0:0:
496,74,18785,1,8,0:0:0:0:
501,137,18868,1,8,0:0:0:0:
445,164,18951,1,8,0:0:0:0:
380,156,19035,1,8,0:0:0:0:
317,159,19118,1,8,0:0:0:0:
286,215,19201,1,8,0:0:0:0:
316,271,19284,1,8,0:0:0:0:
440,272,19369,5,8,0:0:0:0:
500,252,19452,1,8,0:0:0:0:
503,189,19535,1,8,0:0:0:0:
445,164,19618,1,8,0:0:0:0:
380,156,19702,1,8,0:0:0:0:
316,143,19785,1,8,0:0:0:0:
261,105,19868,1,8,0:0:0:0:
244,44,19951,1,0,0:0:0:0:
388,48,20035,5,8,0:0:0:0:
448,77,20118,1,8,0:0:0:0:
492,126,20201,1,8,0:0:0:0:
507,189,20284,1,8,0:0:0:0:
360,192,20369,1,8,0:0:0:0:
296,196,20452,1,8,0:0:0:0:
240,224,20535,1,8,0:0:0:0:
208,280,20618,1,8,0:0:0:0:
352,283,20702,5,8,0:0:0:0:
424,283,20785,1,8,0:0:0:0:
384,347,20868,1,8,0:0:0:0:
312,347,20951,1,8,0:0:0:0:
148,283,21035,5,8,0:0:0:0:
76,283,21118,1,8,0:0:0:0:
116,219,21201,1,8,0:0:0:0:
188,219,21284,1,8,0:0:0:0:
392,152,21369,5,4,0:0:0:0:
292,192,22369,6,0,L|452:192,1,160,8|0,0:0|0:0,0:0:0:0:
224,88,22702,6,0,L|144:88,1,80,4|0,0:0|0:0,0:0:0:0:
320,116,23035,2,0,L|396:156,1,80,8|0,0:0|0:0,0:0:0:0:
228,192,23369,2,0,L|144:192,1,80,2|0,0:0|0:0,0:0:0:0:
292,256,23702,2,0,L|216:296,1,80,8|0,0:0|0:0,0:0:0:0:
460,192,24035,6,0,L|390:152,1,80,2|0,0:0|0:0,0:0:0:0:
260,152,24369,1,8,0:0:0:0:
500,112,24535,2,0,L|430:72,1,80,2|0,0:0|0:0,0:0:0:0:
188,72,24869,2,0,P|152:148|256:260,1,240.000009155274,0|0,0:0|0:0,0:0:0:0:
464,148,25369,6,0,L|384:148,1,80,2|0,0:0|0:0,0:0:0:0:
208,188,25702,2,0,L|278:150,1,80,8|0,0:0|0:0,0:0:0:0:
148,188,26036,2,0,L|232:188,1,80,2|0,0:0|0:0,0:0:0:0:
372,280,26369,2,0,L|296:320,1,80,8|0,0:0|0:0,0:0:0:0:
60,192,26702,6,0,L|144:192,1,80,2|0,0:0|0:0,0:0:0:0:
28,192,27035,1,8,0:0:0:0:
252,192,27202,1,8,0:0:0:0:
348,192,27369,1,2,0:0:0:0:
108,192,27535,2,0,L|24:168,2,80,0|8|0,0:0|0:0|0:0,0:0:0:0:
352,292,28035,6,0,L|432:292,1,80,2|0,0:0|0:0,0:0:0:0:
288,232,28368,2,0,L|212:192,1,80,8|0,0:0|0:0,0:0:0:0:
364,156,28702,2,0,L|284:156,1,80,2|0,0:0|0:0,0:0:0:0:
164,104,29035,2,0,L|240:64,1,80,8|0,0:0|0:0,0:0:0:0:
464,120,29368,6,0,L|424:192,1,80,2|0,0:0|0:0,0:0:0:0:
280,196,29702,1,8,0:0:0:0:
40,192,29868,2,0,L|120:192,1,80,2|2,0:0|0:0,0:0:0:0:
364,112,30202,2,0,P|440:196|364:268,1,240,0|0,0:0|0:0,0:0:0:0:
124,268,30702,6,0,L|204:268,1,80,2|0,0:0|0:0,0:0:0:0:
364,112,31035,2,0,L|294:150,1,80,8|0,0:0|0:0,0:0:0:0:
164,192,31369,2,0,L|80:236,1,80,8|0,0:0|0:0,0:0:0:0:
336,272,31702,1,8,0:0:0:0:
208,272,31869,1,2,0:0:0:0:
380,272,32035,5,4,0:0:0:0:
427,231,32118,1,8,0:0:0:0:
433,169,32201,1,8,0:0:0:0:
395,120,32285,1,8,0:0:0:0:
332,112,32368,1,4,0:0:0:0:
260,112,32451,1,8,0:0:0:0:
116,152,32535,5,8,0:0:0:0:
356,192,32869,1,4,0:0:0:0:
92,228,33035,1,4,0:0:0:0:
40,268,33118,1,4,0:0:0:0:
72,324,33201,1,4,0:0:0:0:
136,324,33285,1,4,0:0:0:0:
320,308,33369,6,0,L|400:308,1,80,4|0,0:0|0:0,0:0:0:0:
240,280,33702,2,0,L|164:240,1,80,8|2,0:0|0:0,0:0:0:0:
316,192,34036,2,0,L|244:156,1,80,2|0,0:0|0:0,0:0:0:0:
116,156,34369,2,0,L|43:201,1,80,8|0,0:0|0:0,0:0:0:0:
208,200,34702,6,0,L|138:240,1,80,2|0,0:0|0:0,0:0:0:0:
284,244,35036,1,8,0:0:0:0:
44,284,35202,2,0,L|114:324,1,80,2|0,0:0|0:0,0:0:0:0:
356,324,35536,2,0,P|392:248|288:136,1,240.000009155274,2|2,0:0|0:0,0:0:0:0:
64,136,36035,6,0,B|16:136|16:136|48:136,1,80,2|0,0:0|0:0,0:0:0:0:
208,136,36368,2,0,L|278:174,1,80,8|0,0:0|0:0,0:0:0:0:
440,172,36702,2,0,L|356:172,1,80,2|2,0:0|0:0,0:0:0:0:
504,248,37035,2,0,L|416:248,1,80,8|0,0:0|0:0,0:0:0:0:
184,328,37368,6,0,L|272:328,1,80,2|0,0:0|0:0,0:0:0:0:
424,248,37702,1,8,0:0:0:0:
164,192,37869,2,0,L|84:192,1,80,2|0,0:0|0:0,0:0:0:0:
344,192,38202,1,2,0:0:0:0:
192,192,38369,1,8,0:0:0:0:
40,192,38535,1,2,0:0:0:0:
316,56,38702,6,0,L|396:56,1,80,2|0,0:0|0:0,0:0:0:0:
252,116,39035,2,0,L|176:156,1,80,8|0,0:0|0:0,0:0:0:0:
36,192,39369,2,0,L|120:192,1,80,2|2,0:0|0:0,0:0:0:0:
260,244,39702,2,0,L|184:284,1,80,8|0,0:0|0:0,0:0:0:0:
432,192,40035,6,0,L|502:152,1,80,2|0,0:0|0:0,0:0:0:0:
372,152,40369,1,8,0:0:0:0:
132,152,40535,2,0,L|52:152,1,80,2|0,0:0|0:0,0:0:0:0:
282,172,40869,2,0,B|112:372,1,240.000009155274,2|2,0:0|0:0,0:0:0:0:
376,192,41369,6,0,L|460:192,1,80,8|8,0:0|0:0,0:0:0:0:
196,112,41702,2,0,L|112:112,1,80,8|8,0:0|0:0,0:0:0:0:
396,112,42035,2,0,L|480:112,1,80,4|4,0:0|0:0,0:0:0:0:
192,192,42369,1,4,0:0:0:0:
64,192,42535,1,4,0:0:0:0:
328,192,42702,5,4,0:0:0:0:
192,192,42869,1,4,0:0:0:0:
352,192,43035,1,4,0:0:0:0:
88,192,43202,1,4,0:0:0:0:
328,192,43535,1,2,0:0:0:0:
88,192,43702,2,0,L|0:192,1,80,8|2,0:0|0:0,0:0:0:0:
328,116,44035,5,4,0:0:0:0:
120,192,44368,2,0,L|36:192,1,80,8|0,0:0|0:0,0:0:0:0:
200,264,44702,2,0,L|130:304,1,80,8|0,0:0|0:0,0:0:0:0:
292,296,45035,2,0,L|252:365,1,80,8|0,0:0|0:0,0:0:0:0:
476,296,45368,5,8,0:0:0:0:
268,192,45702,2,0,L|184:192,1,80,8|0,0:0|0:0,0:0:0:0:
364,120,46036,2,0,L|294:80,1,80,8|0,0:0|0:0,0:0:0:0:
468,88,46369,2,0,L|428:18,1,80,8|0,0:0|0:0,0:0:0:0:
204,268,46702,6,0,L|124:268,1,80,8|2,0:0|0:0,0:0:0:0:
304,192,47035,2,0,L|344:192,2,40,8|0|2,0:0|0:0|0:0,0:0:0:0:
120,192,47369,2,0,L|189:152,2,80,8|2|8,0:0|0:0|0:0,0:0:0:0:
248,192,47869,1,2,0:0:0:0:
8,272,48035,6,0,L|96:272,1,80,8|2,0:0|0:0,0:0:0:0:
248,192,48368,1,8,0:0:0:0:
304,192,48452,1,2,0:0:0:0:
360,192,48535,1,2,0:0:0:0:
200,148,48702,2,0,L|120:112,1,80,8|2,0:0|0:0,0:0:0:0:
276,92,49035,2,0,L|196:56,1,80,8|2,0:0|0:0,0:0:0:0:
428,192,49369,6,0,L|348:192,2,80,8|2|8,0:0|0:0|0:0,0:0:0:0:
280,192,49869,1,0,0:0:0:0:
80,284,50036,2,0,L|152:326,1,80,8|2,0:0|0:0,0:0:0:0:
288,284,50369,2,0,L|212:328,1,80,8|2,0:0|0:0,0:0:0:0:
444,192,50703,6,0,L|364:192,1,80,8|2,0:0|0:0,0:0:0:0:
468,120,51035,2,0,L|388:120,1,80,8|2,0:0|0:0,0:0:0:0:
216,120,51369,2,0,L|296:120,1,80,8|2,0:0|0:0,0:0:0:0:
192,48,51702,2,0,L|272:48,1,80,8|2,0:0|0:0,0:0:0:0:
496,52,52035,5,8,0:0:0:0:
512,127,52118,1,8,0:0:0:0:
499,203,52201,1,8,0:0:0:0:
440,255,52285,1,8,0:0:0:0:
380,208,52369,1,8,0:0:0:0:
304,183,52452,1,8,0:0:0:0:
228,204,52535,1,8,0:0:0:0:
196,276,52619,1,8,0:0:0:0:
296,324,52702,5,8,0:0:0:0:
350,289,52785,1,8,0:0:0:0:
354,225,52868,1,8,0:0:0:0:
305,183,52952,1,8,0:0:0:0:
228,204,53035,1,8,0:0:0:0:
150,205,53118,1,8,0:0:0:0:
80,168,53201,1,8,0:0:0:0:
56,96,53285,1,8,0:0:0:0:
216,32,53369,5,8,0:0:0:0:
304,56,53452,1,8,0:0:0:0:
376,111,53535,1,8,0:0:0:0:
407,198,53619,1,8,0:0:0:0:
248,200,53702,1,8,0:0:0:0:
192,248,53785,1,8,0:0:0:0:
176,320,53868,1,8,0:0:0:0:
252,320,53952,1,8,0:0:0:0:
412,264,54035,5,8,0:0:0:0:
484,264,54118,1,8,0:0:0:0:
444,200,54201,1,8,0:0:0:0:
372,200,54284,1,0,0:0:0:0:
191,262,54368,5,8,0:0:0:0:
119,262,54452,1,8,0:0:0:0:
159,326,54534,1,4,0:0:0:0:
231,326,54619,1,0,0:0:0:0:
372,136,54702,6,0,P|456:104|488:24,2,180.000006866455,4|4|4,0:0|0:0|0:0,0:0:0:0:
140,164,55369,2,0,P|48:192|20:276,2,180.000006866455,4|4|4,0:0|0:0|0:0,0:0:0:0:
472,192,56035,1,4,0:0:0:0:
208,192,57035,6,0,L|48:192,1,160,8|0,0:0|0:0,0:0:0:0:
292,336,57369,6,0,L|372:336,1,80,4|0,0:0|0:0,0:0:0:0:
196,308,57702,2,0,L|120:268,1,80,8|0,0:0|0:0,0:0:0:0:
288,232,58036,2,0,L|372:232,1,80,2|0,0:0|0:0,0:0:0:0:
224,168,58369,2,0,L|300:128,1,80,8|0,0:0|0:0,0:0:0:0:
56,232,58702,6,0,L|126:272,1,80,2|0,0:0|0:0,0:0:0:0:
256,272,59036,1,8,0:0:0:0:
16,312,59202,2,0,L|86:352,1,80,0|2,0:0|0:0,0:0:0:0:
328,352,59536,2,0,P|364:276|260:164,1,240.000009155274,0|0,0:0|0:0,0:0:0:0:
36,164,60035,6,0,L|116:164,1,80,2|0,0:0|0:0,0:0:0:0:
276,204,60368,2,0,L|206:166,1,80,8|0,0:0|0:0,0:0:0:0:
60,240,60702,2,0,L|144:240,1,80,2|0,0:0|0:0,0:0:0:0:
268,332,61035,2,0,L|192:372,1,80,8|0,0:0|0:0,0:0:0:0:
440,164,61368,6,0,B|504:116,1,80,2|0,0:0|0:0,0:0:0:0:
344,164,61701,1,8,0:0:0:0:
152,164,61868,1,8,0:0:0:0:
264,164,62035,1,2,0:0:0:0:
24,164,62201,2,0,L|100:116,2,80,0|8|0,0:0|0:0|0:0,0:0:0:0:
268,24,62702,6,0,L|348:24,1,80,2|0,0:0|0:0,0:0:0:0:
188,84,63035,2,0,L|112:124,1,80,8|0,0:0|0:0,0:0:0:0:
264,192,63369,2,0,L|180:192,1,80,2|0,0:0|0:0,0:0:0:0:
40,212,63702,2,0,L|116:252,1,80,8|0,0:0|0:0,0:0:0:0:
352,248,64035,6,0,L|444:248,1,80,2|0,0:0|0:0,0:0:0:0:
304,192,64369,1,8,0:0:0:0:
64,196,64535,2,0,B|32:196|32:196|80:196,1,80,2|2,0:0|0:0,0:0:0:0:
324,192,64869,2,0,P|432:128|432:16,1,240,0|0,0:0|0:0,0:0:0:0:
196,40,65369,6,0,L|116:40,1,80,2|0,0:0|0:0,0:0:0:0:
296,132,65702,2,0,L|226:170,1,80,8|0,0:0|0:0,0:0:0:0:
408,192,66036,2,0,L|357:272,1,80,8|0,0:0|0:0,0:0:0:0:
204,264,66369,1,8,0:0:0:0:
380,260,66536,1,2,0:0:0:0:
140,264,66702,5,4,0:0:0:0:
12,160,66869,1,8,0:0:0:0:
27,84,66952,1,8,0:0:0:0:
96,48,67035,1,4,0:0:0:0:
166,80,67118,1,8,0:0:0:0:
328,80,67202,1,8,0:0:0:0:
100,140,67536,5,4,0:0:0:0:
356,176,67702,1,4,0:0:0:0:
416,216,67785,1,4,0:0:0:0:
352,244,67868,1,4,0:0:0:0:
284,272,67952,1,4,0:0:0:0:
104,272,68035,6,0,L|24:272,1,80,4|0,0:0|0:0,0:0:0:0:
200,244,68368,2,0,L|276:204,1,80,8|2,0:0|0:0,0:0:0:0:
108,156,68702,2,0,L|180:120,1,80,2|0,0:0|0:0,0:0:0:0:
324,120,69035,2,0,L|397:165,1,80,8|0,0:0|0:0,0:0:0:0:
216,164,69368,6,0,L|286:204,1,80,2|0,0:0|0:0,0:0:0:0:
432,200,69702,1,8,0:0:0:0:
192,268,69868,2,0,L|122:308,1,80,2|0,0:0|0:0,0:0:0:0:
364,268,70202,2,0,P|384:184|272:100,1,240,2|2,0:0|0:0,0:0:0:0:
48,100,70702,6,0,B|132:100,1,80,2|0,0:0|0:0,0:0:0:0:
272,192,71035,2,0,L|342:230,1,80,8|0,0:0|0:0,0:0:0:0:
180,260,71369,2,0,L|96:260,1,80,2|2,0:0|0:0,0:0:0:0:
244,336,71702,2,0,L|156:336,1,80,8|0,0:0|0:0,0:0:0:0:
404,264,72035,6,0,L|308:264,1,80,2|0,0:0|0:0,0:0:0:0:
160,192,72369,1,8,0:0:0:0:
400,192,72535,2,0,L|484:192,1,80,2|2,0:0|0:0,0:0:0:0:
216,128,72869,1,2,0:0:0:0:
360,128,73036,1,8,0:0:0:0:
504,128,73202,1,2,0:0:0:0:
232,32,73369,6,0,L|152:32,1,80,2|0,0:0|0:0,0:0:0:0:
296,128,73702,2,0,L|220:168,1,80,8|0,0:0|0:0,0:0:0:0:
80,168,74035,2,0,L|160:168,1,80,2|2,0:0|0:0,0:0:0:0:
16,264,74368,2,0,L|92:304,1,80,8|0,0:0|0:0,0:0:0:0:
328,200,74702,6,0,B|376:200|376:200|336:200,1,80,2|0,0:0|0:0,0:0:0:0:
216,200,75036,1,8,0:0:0:0:
456,200,75202,2,0,L|384:256,1,80,2|0,0:0|0:0,0:0:0:0:
152,304,75536,2,0,P|88:232|184:160,1,240.000009155274,2|2,0:0|0:0,0:0:0:0:
420,160,76035,6,0,L|504:160,1,80,10|2,0:0|0:0,0:0:0:0:
260,80,76368,2,0,L|176:80,1,80,10|2,0:0|0:0,0:0:0:0:
420,80,76702,2,0,L|354:14,1,80,10|2,0:0|0:0,0:0:0:0:
120,192,77035,1,8,0:0:0:0:
248,192,77201,1,8,0:0:0:0:
8,192,77368,5,4,0:0:0:0:
168,192,77535,1,2,0:0:0:0:
328,192,77701,1,4,0:0:0:0:
88,192,77868,1,4,0:0:0:0:
328,192,78201,1,4,0:0:0:0:
88,192,78369,2,0,L|208:192,1,120.000004577637,4|2,0:0|0:0,0:0:0:0:
436,192,78702,5,4,0:0:0:0:
276,192,78869,1,2,0:0:0:0:
116,192,79035,1,4,0:0:0:0:
356,192,79202,1,4,0:0:0:0:
92,192,79535,1,4,0:0:0:0:
332,192,79702,2,0,L|456:192,1,120.000004577637,4|2,0:0|0:0,0:0:0:0:
256,192,80035,12,0,81369,0:0:0:0:
