osu file format v14

[General]
AudioFilename: Acceleration.mp3
AudioLeadIn: 0
PreviewTime: 21702
Countdown: 0
SampleSet: Soft
StackLeniency: 0.7
Mode: 2
LetterboxInBreaks: 0
WidescreenStoryboard: 0

[Editor]
DistanceSpacing: 1.2
BeatDivisor: 4
GridSize: 4
TimelineZoom: 2

[Metadata]
Title:Acceleration
TitleUnicode:Acceleration
Artist:REDALiCE
ArtistUnicode:REDALiCE
Creator:JBHyperion
Version:Platter
Source:HALFPIPE TOKYO
Tags:Original Soundtrack OST Sega 永井良和 Yoshikazu Nagai DJ Magic Girl WildOne94 Withered Lotus Razor Sharp NurseHyperion OnosakiHito DakeDekaane
BeatmapID:857668
BeatmapSetID:392304

[Difficulty]
HPDrainRate:5
CircleSize:3.2
OverallDifficulty:7.8
ApproachRate:7.8
SliderMultiplier:1.4
SliderTickRate:2

[Events]
//Background and Video events
0,0,"AccelerationPulse1920x1080.png",0,0
//Break Periods
//Storyboard Layer 0 (Background)
//Storyboard Layer 1 (Fail)
//Storyboard Layer 2 (Pass)
//Storyboard Layer 3 (Foreground)
//Storyboard Sound Samples

[TimingPoints]
36,333.333333333333,4,2,77,80,1,0
119,-100,4,2,1,100,0,0
10702,-100,4,2,2,50,0,0
13369,-100,4,2,2,55,0,0
14035,-100,4,2,11,55,0,0
14202,-100,4,2,2,55,0,0
14702,-100,4,2,2,60,0,0
16035,-100,4,2,2,65,0,0
17369,-100,4,2,2,70,0,0
18702,-100,4,2,3,55,0,0
19369,-100,4,2,3,60,0,0
20035,-100,4,2,3,65,0,0
20369,-100,4,2,3,65,0,0
20702,-100,4,2,3,70,0,0
21035,-100,4,2,3,70,0,0
21369,-100,4,2,4,80,0,0
21702,-100,4,2,1,60,0,0
22369,-100,4,2,1,100,0,0
22702,-100,4,2,77,80,0,1
22785,-100,4,2,3,80,0,1
30369,-100,4,2,10,80,0,1
30535,-100,4,2,3,80,0,1
32369,-100,4,2,4,80,0,1
32452,-100,4,2,3,80,0,1
33285,-100,4,2,3,80,0,0
33369,-100,4,2,77,80,0,1
33452,-100,4,2,3,80,0,1
41035,-100,4,2,10,80,0,1
41202,-100,4,2,3,80,0,1
42702,-100,4,2,4,80,0,1
43535,-100,4,2,3,80,0,1
44035,-100,4,2,77,70,0,0
44119,-100,4,2,2,60,0,0
47369,-100,4,2,11,60,0,0
47535,-100,4,2,2,60,0,0
49369,-100,4,2,2,70,0,0
50035,-100,4,2,11,70,0,0
50202,-100,4,2,2,70,0,0
52035,-100,4,2,3,40,0,0
52369,-100,4,2,3,45,0,0
52702,-100,4,2,3,50,0,0
53035,-100,4,2,3,55,0,0
53369,-100,4,2,3,60,0,0
53702,-100,4,2,3,65,0,0
54035,-100,4,2,3,70,0,0
54369,-100,4,2,3,75,0,0
54702,-100,4,2,4,80,0,0
57035,-100,4,2,1,100,0,0
57369,-100,4,2,77,80,0,1
57452,-100,4,2,3,80,0,1
65035,-100,4,2,10,80,0,1
65202,-100,4,2,3,80,0,1
66702,-100,4,2,4,80,0,1
67035,-100,4,2,4,80,0,1
67119,-100,4,2,3,80,0,1
67952,-100,4,2,3,80,0,0
68035,-100,4,2,77,80,0,1
68119,-100,4,2,3,80,0,1
75702,-100,4,2,10,80,0,1
75869,-100,4,2,3,80,0,1
77369,-100,4,2,4,80,0,1
78535,-100,4,2,3,80,0,1
78702,-100,4,2,4,90,0,1
78869,-100,4,2,3,90,0,1
79035,-100,4,2,4,90,0,1
79702,-66.6666666666667,4,2,4,90,0,1
79869,-100,4,2,3,80,0,1
80035,-100,4,2,1,45,0,0
80369,-100,4,2,1,35,0,0
80702,-100,4,2,1,25,0,0
81035,-100,4,2,1,15,0,0
81369,-100,4,2,1,5,0,0

[Colours]
Combo1 : 255,150,50
Combo2 : 255,50,150
Combo3 : 30,30,255
Combo4 : 150,0,150

[HitObjects]
160,288,36,6,0,P|244:256|240:140,1,210,4|2,0:0|0:0,0:0:0:0:
36,148,1035,1,0,0:0:0:0:
280,244,1369,2,0,L|412:192,1,140,2|0,0:0|0:0,0:0:0:0:
144,196,2035,2,0,P|88:144|120:100,1,140,2|0,0:0|0:0,0:0:0:0:
200,100,2535,1,0,0:0:0:0:
368,100,2702,6,0,P|424:140|352:228,1,210,2|2,0:0|0:0,0:0:0:0:
100,228,3702,2,0,L|176:292,1,70,0|0,0:0|0:0,0:0:0:0:
300,276,4035,2,0,B|408:192|408:192|328:192,1,210,2|2,0:0|0:0,0:0:0:0:
128,192,4869,2,0,L|204:192,1,70,0|2,0:0|0:0,0:0:0:0:
450,190,5369,6,0,P|484:128|376:92,1,210,4|2,0:0|0:0,0:0:0:0:
172,88,6369,1,0,0:0:0:0:
424,196,6702,2,0,B|492:212|492:212|424:252,1,140,2|0,0:0|0:0,0:0:0:0:
180,248,7369,2,0,L|32:212,1,140,2|0,0:0|0:0,0:0:0:0:
352,192,8035,6,0,P|456:164|496:64,1,210,2|2,0:0|0:0,0:0:0:0:
244,68,9035,2,0,L|172:68,1,70
12,192,9369,2,0,P|44:268|100:284,1,140,2|0,0:0|0:0,0:0:0:0:
220,192,9869,2,0,P|282:219|302:284,1,140,2|0,0:0|0:0,0:0:0:0:
244,348,10369,1,2,0:0:0:0:
164,352,10535,1,0,0:0:0:0:
408,280,10702,6,0,P|470:257|472:192,1,140,4|8,0:0|0:0,0:0:0:0:
248,184,11369,2,0,L|148:184,2,70,8|0|8,0:0|0:0|0:0,0:0:0:0:
320,184,11869,1,0,0:0:0:0:
164,184,12035,6,0,L|44:272,1,140,8|8,0:0|0:0,0:0:0:0:
136,268,12535,1,0,0:0:0:0:
292,268,12702,2,0,P|356:232|356:172,1,140,8|8,0:0|0:0,0:0:0:0:
272,172,13202,1,0,0:0:0:0:
440,172,13369,6,0,P|464:136|392:88,1,140,8|8,0:0|0:0,0:0:0:0:
280,172,13869,2,0,P|256:208|160:232,1,140,2|2,0:0|0:0,0:0:0:0:
48,152,14369,2,0,L|101:107,1,70,8|2,0:0|0:0,0:0:0:0:
276,108,14702,6,0,L|412:212,1,140,8|8,0:0|0:0,0:0:0:0:
304,192,15202,1,2,0:0:0:0:
164,192,15369,2,0,L|96:256,1,70,8|2,0:0|0:0,0:0:0:0:
240,236,15702,2,0,L|308:300,1,70,8|2,0:0|0:0,0:0:0:0:
116,284,16035,6,0,P|52:260|32:192,1,140,10|10,0:0|0:0,0:0:0:0:
116,196,16535,1,2,0:0:0:0:
256,196,16702,2,0,B|361:196|361:196|320:160,1,140,10|10,0:0|0:0,0:0:0:0:
252,172,17202,1,2,0:0:0:0:
96,172,17369,6,0,L|24:240,1,70,10|2,0:0|0:0,0:0:0:0:
156,264,17702,2,0,L|224:332,1,70,10|2,0:0|0:0,0:0:0:0:
316,312,18035,2,0,L|266:262,1,70,10|2,0:0|0:0,0:0:0:0:
155,219,18368,2,0,L|205:170,1,70,10|2,0:0|0:0,0:0:0:0:
371,51,18702,5,8,0:0:0:0:
443,99,18869,1,0,0:0:0:0:
363,131,19035,1,8,0:0:0:0:
279,155,19202,1,0,0:0:0:0:
367,215,19369,2,0,L|443:215,2,70,8|8|8,0:0|0:0|0:0,0:0:0:0:
263,215,19869,1,8,0:0:0:0:
256,192,20035,12,4,21369,0:0:0:0:
116,192,22369,5,8,0:0:0:0:
452,192,22702,2,0,L|308:192,1,140,4|8,0:0|0:0,0:0:0:0:
60,192,23369,2,0,L|132:192,1,70,2|0,0:0|0:0,0:0:0:0:
228,116,23702,2,0,L|304:116,1,70,8|0,0:0|0:0,0:0:0:0:
124,116,24035,6,0,P|60:140|32:204,1,140,2|8,0:0|0:0,0:0:0:0:
132,200,24535,2,0,L|208:200,1,70,2|0,0:0|0:0,0:0:0:0:
372,200,24869,1,0,0:0:0:0:
444,288,25035,2,0,L|412:360,1,70,8|0,0:0|0:0,0:0:0:0:
180,320,25369,6,0,L|40:320,1,140,2|8,0:0|0:0,0:0:0:0:
264,192,26035,2,0,L|340:176,1,70,2|0,0:0|0:0,0:0:0:0:
228,136,26369,2,0,L|152:120,1,70,8|0,0:0|0:0,0:0:0:0:
336,52,26702,6,0,P|396:72|432:144,1,140,2|8,0:0|0:0,0:0:0:0:
332,136,27202,1,8,0:0:0:0:
192,192,27369,2,0,L|120:252,1,70,2|0,0:0|0:0,0:0:0:0:
280,236,27702,2,0,L|352:296,1,70,8|0,0:0|0:0,0:0:0:0:
100,280,28035,6,0,B|28:280|28:280|84:228,1,140,2|8,0:0|0:0,0:0:0:0:
332,192,28702,2,0,L|408:140,1,70,2|0,0:0|0:0,0:0:0:0:
292,116,29035,2,0,L|234:155,1,70,8|0,0:0|0:0,0:0:0:0:
408,192,29369,6,0,L|492:192,2,70,2|0|8,0:0|0:0|0:0,0:0:0:0:
308,192,29869,2,0,L|232:192,1,70,2|2,0:0|0:0,0:0:0:0:
397,266,30202,2,0,P|440:316|379:372,1,140
172,192,30702,5,2,0:0:0:0:
424,192,31035,1,8,0:0:0:0:
172,100,31369,2,0,L|104:156,1,70,8|0,0:0|0:0,0:0:0:0:
276,144,31702,2,0,L|344:200,1,70,8|2,0:0|0:0,0:0:0:0:
96,224,32035,6,0,P|56:264|116:300,1,140,4|4,0:0|0:0,0:0:0:0:
200,304,32535,1,8,0:0:0:0:
424,308,32869,2,0,L|494:308,1,70,4|4,0:0|0:0,0:0:0:0:
96,232,33369,6,0,P|64:192|92:112,1,140,4|8,0:0|0:0,0:0:0:0:
308,64,34035,2,0,L|168:28,1,140,2|8,0:0|0:0,0:0:0:0:
264,32,34535,1,0,0:0:0:0:
428,60,34702,6,0,P|476:108|432:152,1,140,2|8,0:0|0:0,0:0:0:0:
332,156,35202,2,0,L|256:156,1,70,2|0,0:0|0:0,0:0:0:0:
416,240,35535,2,0,L|486:240,2,70,2|0|2,0:0|0:0|0:0,0:0:0:0:
184,240,36035,6,0,P|115:222|104:160,1,140,2|8,0:0|0:0,0:0:0:0:
344,208,36702,2,0,L|360:120,1,70,2|2,0:0|0:0,0:0:0:0:
252,136,37035,2,0,L|236:48,1,70,8|0,0:0|0:0,0:0:0:0:
380,140,37369,6,0,L|460:140,2,70,2|0|8,0:0|0:0|0:0,0:0:0:0:
220,140,37869,1,2,0:0:0:0:
380,140,38202,1,2,0:0:0:0:
236,140,38369,2,0,L|164:140,1,70,8|2,0:0|0:0,0:0:0:0:
400,140,38702,6,0,L|476:140,1,70,2|0,0:0|0:0,0:0:0:0:
328,140,39035,2,0,P|264:168|236:232,1,140,8|2,0:0|0:0,0:0:0:0:
432,232,39702,2,0,L|508:232,1,70,8|0,0:0|0:0,0:0:0:0:
344,232,40035,6,0,L|284:192,1,70,2|0,0:0|0:0,0:0:0:0:
188,192,40369,1,8,0:0:0:0:
285,193,40535,2,0,L|360:192,1,70,2|0,0:0|0:0,0:0:0:0:
196,104,40869,2,0,P|128:120|80:176,1,140,2|2,0:0|0:0,0:0:0:0:
258,232,41369,6,0,L|330:232,1,70,8|8,0:0|0:0,0:0:0:0:
242,312,41702,2,0,L|170:312,1,70,8|8,0:0|0:0,0:0:0:0:
86,236,42035,2,0,L|158:236,1,70,4|4,0:0|0:0,0:0:0:0:
256,236,42368,1,4,0:0:0:0:
368,236,42535,1,4,0:0:0:0:
136,124,42702,6,0,L|40:124,2,70,4|4|4,0:0|0:0|0:0,0:0:0:0:
276,124,43202,1,4,0:0:0:0:
136,124,43535,1,2,0:0:0:0:
276,124,43702,2,0,L|372:124,1,70,8|2,0:0|0:0,0:0:0:0:
116,128,44035,6,0,B|12:128|12:128|48:156,1,140,4|8,0:0|0:0,0:0:0:0:
264,152,44702,2,0,L|340:152,1,70,8|0,0:0|0:0,0:0:0:0:
420,228,45035,2,0,L|344:228,1,70,8|0,0:0|0:0,0:0:0:0:
192,224,45369,6,0,L|52:268,1,140,8|8,0:0|0:0,0:0:0:0:
144,268,45869,1,0,0:0:0:0:
284,268,46035,2,0,P|352:252|392:184,1,140,8|8,0:0|0:0,0:0:0:0:
108,136,46702,6,0,P|32:112|20:52,1,140,8|8,0:0|0:0,0:0:0:0:
156,140,47202,2,0,P|212:176|264:136,1,140,2|2,0:0|0:0,0:0:0:0:
156,140,47702,1,8,0:0:0:0:
436,148,48035,6,0,L|508:268,1,140,8|8,0:0|0:0,0:0:0:0:
424,268,48535,1,2,0:0:0:0:
284,232,48702,2,0,L|188:232,1,70,8|2,0:0|0:0,0:0:0:0:
300,152,49035,2,0,L|396:152,1,70,8|2,0:0|0:0,0:0:0:0:
200,60,49369,6,0,L|124:60,2,70,8|2|8,0:0|0:0|0:0,0:0:0:0:
340,296,49869,2,0,P|388:264|380:188,1,140,0|2,0:0|0:0,0:0:0:0:
268,132,50369,2,0,L|180:132,1,70,8|2,0:0|0:0,0:0:0:0:
340,132,50702,6,0,P|376:188|328:228,1,140,8|8,0:0|0:0,0:0:0:0:
244,228,51202,1,2,0:0:0:0:
104,228,51369,2,0,P|68:284|116:324,1,140,8|8,0:0|0:0,0:0:0:0:
352,192,52035,6,0,L|428:192,2,70,8|8|8,0:0|0:0|0:0,0:0:0:0:
268,192,52535,1,8,0:0:0:0:
408,112,52702,1,8,0:0:0:0:
196,112,52952,1,8,0:0:0:0:
384,112,53202,1,8,0:0:0:0:
256,192,53369,12,2,54369,0:0:0:0:
288,160,54702,6,0,L|392:160,2,105,4|4|4,0:0|0:0|0:0,0:0:0:0:
132,108,55369,2,0,L|24:108,2,105,4|4|4,0:0|0:0|0:0,0:0:0:0:
308,108,56035,1,4,0:0:0:0:
408,192,57035,5,8,0:0:0:0:
84,192,57369,2,0,L|224:192,1,140,4|8,0:0|0:0,0:0:0:0:
408,192,58036,2,0,L|336:192,1,70,2|0,0:0|0:0,0:0:0:0:
240,104,58369,2,0,L|164:104,1,70,8|0,0:0|0:0,0:0:0:0:
344,116,58702,6,0,P|408:140|436:204,1,140,2|8,0:0|0:0,0:0:0:0:
336,200,59202,1,0,0:0:0:0:
196,192,59369,2,0,L|228:264,1,70,2|0,0:0|0:0,0:0:0:0:
328,284,59702,2,0,L|296:356,1,70,8|0,0:0|0:0,0:0:0:0:
68,224,60035,6,0,L|208:224,1,140,2|8,0:0|0:0,0:0:0:0:
432,192,60702,2,0,L|356:176,1,70,2|0,0:0|0:0,0:0:0:0:
260,136,61035,2,0,L|336:120,1,70,8|0,0:0|0:0,0:0:0:0:
488,192,61368,6,0,P|468:252|396:288,1,140,2|8,0:0|0:0,0:0:0:0:
304,284,61868,1,8,0:0:0:0:
444,192,62035,2,0,L|500:144,1,70,2|0,0:0|0:0,0:0:0:0:
356,148,62368,2,0,L|300:104,1,70,8|0,0:0|0:0,0:0:0:0:
66,104,62702,6,0,P|32:136|88:192,1,140,2|8,0:0|0:0,0:0:0:0:
336,192,63369,2,0,L|368:108,1,70,2|0,0:0|0:0,0:0:0:0:
272,128,63702,2,0,L|304:48,1,70,8|0,0:0|0:0,0:0:0:0:
132,192,64036,6,0,L|62:192,2,70,2|0|8,0:0|0:0|0:0,0:0:0:0:
232,192,64536,2,0,L|302:192,1,70,2|2,0:0|0:0,0:0:0:0:
145,119,64869,2,0,P|165:54|228:29,1,140,0|0,0:0|0:0,0:0:0:0:
406,168,65369,5,2,0:0:0:0:
154,168,65702,1,8,0:0:0:0:
406,168,66036,2,0,L|460:212,1,70,8|0,0:0|0:0,0:0:0:0:
302,212,66369,2,0,L|247:256,1,70,8|2,0:0|0:0,0:0:0:0:
480,168,66702,6,0,P|493:102|442:60,1,140,4|4,0:0|0:0,0:0:0:0:
346,60,67202,1,8,0:0:0:0:
94,60,67536,2,0,B|24:60,1,70,4|4,0:0|0:0,0:0:0:0:
420,104,68035,6,0,P|452:144|424:224,1,140,4|8,0:0|0:0,0:0:0:0:
208,272,68701,2,0,L|68:308,1,140,2|8,0:0|0:0,0:0:0:0:
312,308,69368,6,0,P|360:260|316:216,1,140,2|8,0:0|0:0,0:0:0:0:
216,212,69868,2,0,L|140:212,1,70,2|0,0:0|0:0,0:0:0:0:
300,128,70201,2,0,L|372:92,2,70,2|0|2,0:0|0:0|0:0,0:0:0:0:
64,192,70702,6,0,P|52:256|116:300,1,140,2|8,0:0|0:0,0:0:0:0:
344,296,71369,2,0,L|360:208,1,70,2|2,0:0|0:0,0:0:0:0:
460,192,71702,2,0,L|444:104,1,70,8|0,0:0|0:0,0:0:0:0:
304,124,72036,6,0,L|224:124,2,70,2|0|8,0:0|0:0|0:0,0:0:0:0:
160,124,72536,1,2,0:0:0:0:
308,196,72869,1,2,0:0:0:0:
168,196,73036,2,0,L|96:196,1,70,8|2,0:0|0:0,0:0:0:0:
332,196,73369,6,0,L|408:196,1,70,2|0,0:0|0:0,0:0:0:0:
260,196,73702,2,0,P|248:240|312:296,1,140,8|2,0:0|0:0,0:0:0:0:
116,296,74369,2,0,L|40:296,1,70,8|0,0:0|0:0,0:0:0:0:
204,296,74702,6,0,L|264:256,1,70,2|0,0:0|0:0,0:0:0:0:
164,256,75036,1,8,0:0:0:0:
304,192,75202,2,0,L|373:192,1,70,2|0,0:0|0:0,0:0:0:0:
196,192,75536,2,0,P|128:176|80:120,1,140,2|2,0:0|0:0,0:0:0:0:
312,124,76035,6,0,L|384:124,1,70,10|2,0:0|0:0,0:0:0:0:
254,47,76368,2,0,L|182:47,1,70,10|2,0:0|0:0,0:0:0:0:
326,47,76702,2,0,L|398:47,1,70,10|2,0:0|0:0,0:0:0:0:
278,123,77034,1,8,0:0:0:0:
398,123,77201,1,8,0:0:0:0:
158,183,77369,6,0,P|122:239|162:295,1,140,4|0,0:0|0:0,0:0:0:0:
298,291,77868,1,4,0:0:0:0:
158,235,78201,1,4,0:0:0:0:
334,235,78368,2,0,L|430:235,1,70,4|2,0:0|0:0,0:0:0:0:
170,127,78702,6,0,L|98:127,2,70,4|2|4,0:0|0:0|0:0,0:0:0:0:
310,123,79202,1,4,0:0:0:0:
448,224,79535,1,4,0:0:0:0:
196,224,79702,2,0,L|88:224,1,105.000004005432,4|2,0:0|0:0,0:0:0:0:
256,192,80035,12,0,81369,0:0:0:0:
