osu file format v14

[General]
AudioFilename: Acceleration.mp3
AudioLeadIn: 0
PreviewTime: 21702
Countdown: 0
SampleSet: Soft
StackLeniency: 0.7
Mode: 2
LetterboxInBreaks: 0
WidescreenStoryboard: 0

[Editor]
DistanceSpacing: 1.3
BeatDivisor: 4
GridSize: 4
TimelineZoom: 1.1

[Metadata]
Title:Acceleration
TitleUnicode:Acceleration
Artist:REDALiCE
ArtistUnicode:REDALiCE
Creator:JBHyperion
Version:Overdose
Source:HALFPIPE TOKYO
Tags:Original Soundtrack OST Sega 永井良和 Yoshikazu Nagai DJ Magic Girl WildOne94 Withered Lotus Razor Sharp NurseHyperion OnosakiHito DakeDekaane
BeatmapID:854262
BeatmapSetID:392304

[Difficulty]
HPDrainRate:7
CircleSize:4
OverallDifficulty:9.5
ApproachRate:9.5
SliderMultiplier:1.8
SliderTickRate:2

[Events]
//Background and Video events
0,0,"AccelerationPulse1920x1080.png",0,0
//Break Periods
//Storyboard Layer 0 (Background)
//Storyboard Layer 1 (Fail)
//Storyboard Layer 2 (Pass)
//Storyboard Layer 3 (Foreground)
//Storyboard Sound Samples

[TimingPoints]
36,333.333333333333,4,2,77,100,1,0
119,-100,4,2,1,80,0,0
10702,-100,4,2,2,50,0,0
13369,-100,4,2,2,55,0,0
14702,-100,4,2,2,60,0,0
16035,-100,4,2,2,65,0,0
17369,-100,4,2,2,70,0,0
18702,-100,4,2,3,55,0,0
19369,-100,4,2,3,60,0,0
20035,-100,4,2,3,65,0,0
20702,-100,4,2,3,70,0,0
21369,-100,4,2,4,80,0,0
21702,-80,4,2,1,60,0,0
22369,-50,4,2,1,100,0,0
22702,-100,4,2,77,80,0,1
22785,-100,4,2,3,80,0,1
24869,-80,4,2,3,80,0,1
25035,-80,4,2,10,80,0,1
25202,-100,4,2,3,80,0,1
30202,-80,4,2,3,80,0,1
30369,-80,4,2,10,80,0,1
30535,-100,4,2,3,80,0,1
32035,-80,4,2,4,80,0,1
32202,-80,4,2,3,80,0,1
32369,-100,4,2,4,80,0,1
32535,-100,4,2,3,80,0,1
33285,-100,4,2,3,80,0,0
33369,-100,4,2,77,80,0,1
33452,-100,4,2,3,80,0,1
35535,-80,4,2,3,80,0,1
35702,-80,4,2,10,80,0,1
35869,-100,4,2,3,80,0,1
36702,-66.6666666666667,4,2,3,80,0,1
36869,-100,4,2,3,80,0,1
40869,-80,4,2,3,80,0,1
41035,-80,4,2,10,80,0,1
41202,-100,4,2,3,80,0,1
42702,-100,4,2,4,80,0,1
43535,-100,4,2,3,80,0,1
44035,-100,4,2,77,70,0,0
44119,-100,4,2,2,60,0,0
49369,-100,4,2,2,70,0,0
52035,-100,4,2,3,40,0,0
52369,-100,4,2,3,45,0,0
52702,-100,4,2,3,50,0,0
53035,-100,4,2,3,55,0,0
53369,-100,4,2,3,60,0,0
53702,-100,4,2,3,65,0,0
54035,-100,4,2,3,70,0,0
54369,-100,4,2,3,75,0,0
54702,-80,4,2,4,80,0,0
56369,-80,4,2,1,60,0,0
57035,-50,4,2,1,100,0,0
57369,-100,4,2,77,80,0,1
57452,-100,4,2,3,80,0,1
59535,-80,4,2,3,80,0,1
59702,-80,4,2,10,80,0,1
59869,-100,4,2,3,80,0,1
64869,-80,4,2,3,80,0,1
65035,-80,4,2,10,80,0,1
65202,-100,4,2,3,80,0,1
66702,-80,4,2,4,80,0,1
66869,-80,4,2,3,80,0,1
67035,-100,4,2,4,80,0,1
67202,-100,4,2,3,80,0,1
67952,-100,4,2,3,80,0,0
68035,-100,4,2,77,80,0,1
68119,-100,4,2,3,80,0,1
70202,-80,4,2,3,80,0,1
70369,-80,4,2,10,80,0,1
70535,-100,4,2,3,80,0,1
71369,-66.6666666666667,4,2,3,80,0,1
71535,-100,4,2,3,80,0,1
75535,-80,4,2,3,80,0,1
75702,-80,4,2,10,80,0,1
75869,-100,4,2,3,80,0,1
77369,-100,4,2,4,80,0,1
77535,-100,4,2,3,80,0,1
77702,-100,4,2,4,80,0,1
78535,-100,4,2,3,80,0,1
78702,-100,4,2,4,90,0,1
78869,-100,4,2,3,90,0,1
79035,-100,4,2,4,90,0,1
79869,-100,4,2,3,80,0,1
80035,-100,4,2,1,45,0,0
80369,-100,4,2,1,35,0,0
80702,-100,4,2,1,25,0,0
81035,-100,4,2,1,15,0,0
81369,-100,4,2,1,5,0,0

[Colours]
Combo1 : 255,150,50
Combo2 : 255,50,150
Combo3 : 30,30,255
Combo4 : 150,0,150

[HitObjects]
252,192,36,6,0,L|428:144,1,180,4|0,0:0|0:0,0:0:0:0:
264,108,535,2,0,L|88:60,1,180,2|0,0:0|0:0,0:0:0:0:
216,60,1035,2,0,L|308:60,1,90
70,60,1369,6,0,L|162:60,1,90,2|0,0:0|0:0,0:0:0:0:
306,60,1702,2,0,L|342:92,2,45
72,160,2035,2,0,L|164:160,1,90,2|0,0:0|0:0,0:0:0:0:
324,160,2368,2,0,L|360:192,2,45
68,212,2702,6,0,P|12:272|68:332,1,180,2|0,0:0|0:0,0:0:0:0:
232,292,3202,2,0,L|404:232,1,180,2|0,0:0|0:0,0:0:0:0:
176,192,3702,2,0,L|80:192,1,90
322,167,4035,5,2,0:0:0:0:
344,128,4118,1,0,0:0:0:0:
345,84,4201,1,0,0:0:0:0:
322,46,4284,1,0,0:0:0:0:
176,144,4369,2,0,L|161:101,3,45,2|0|0|0,0:0|0:0|0:0|0:0,0:0:0:0:
311,124,4702,6,0,L|338:89,3,45,2|0|0|0,0:0|0:0|0:0|0:0,0:0:0:0:
184,144,5035,1,2,0:0:0:0:
149,170,5118,1,0,0:0:0:0:
148,213,5201,1,0,0:0:0:0:
183,239,5284,1,0,0:0:0:0:
332,192,5369,6,0,L|508:240,1,180,4|0,0:0|0:0,0:0:0:0:
344,276,5868,2,0,P|284:328|344:380,1,180,2|0,0:0|0:0,0:0:0:0:
472,380,6369,2,0,L|392:328,1,90
124,332,6702,5,2,0:0:0:0:
260,272,6869,2,0,L|308:272,1,45
204,232,7035,1,0,0:0:0:0:
148,232,7119,1,0,0:0:0:0:
112,192,7202,1,0,0:0:0:0:
372,192,7369,5,2,0:0:0:0:
256,152,7535,2,0,L|208:152,1,45
314,100,7701,1,0,0:0:0:0:
370,100,7785,1,0,0:0:0:0:
406,60,7868,1,0,0:0:0:0:
178,152,8035,6,0,P|100:200|124:272,1,180,2|0,0:0|0:0,0:0:0:0:
286,240,8535,2,0,P|364:288|340:360,1,180,2|0,0:0|0:0,0:0:0:0:
116,336,9035,2,0,L|24:336,1,90
276,228,9369,5,2,0:0:0:0:
336,204,9452,1,0,0:0:0:0:
344,140,9535,1,0,0:0:0:0:
294,103,9619,1,0,0:0:0:0:
144,104,9702,1,0,0:0:0:0:
252,160,9869,2,0,L|308:168,1,45
116,220,10035,6,0,L|16:220,1,90,2|0,0:0|0:0,0:0:0:0:
256,304,10369,2,0,L|360:304,1,90,2|0,0:0|0:0,0:0:0:0:
76,156,10702,5,4,0:0:0:0:
356,192,11035,2,0,L|448:192,1,90,8|0,0:0|0:0,0:0:0:0:
196,156,11369,2,0,L|128:88,1,90,8|0,0:0|0:0,0:0:0:0:
380,32,11702,2,0,L|443:95,1,90,8|0,0:0|0:0,0:0:0:0:
172,228,12035,5,8,0:0:0:0:
424,228,12369,1,8,0:0:0:0:
260,228,12535,1,0,0:0:0:0:
204,228,12619,1,0,0:0:0:0:
352,192,12702,2,0,L|428:136,1,90,8|0,0:0|0:0,0:0:0:0:
96,128,13035,2,0,L|167:57,1,90,8|0,0:0|0:0,0:0:0:0:
388,192,13369,6,0,L|284:220,2,90,8|2|8,0:0|0:0|0:0,0:0:0:0:
140,264,13869,2,0,L|244:292,2,90,2|8|2,0:0|0:0|0:0,0:0:0:0:
388,284,14369,2,0,L|472:216,1,90,8|2,0:0|0:0,0:0:0:0:
188,192,14702,6,0,L|80:192,1,90,8|2,0:0|0:0,0:0:0:0:
280,124,15035,1,8,0:0:0:0:
116,124,15202,1,2,0:0:0:0:
364,124,15369,2,0,L|448:172,1,90,8|2,0:0|0:0,0:0:0:0:
194,79,15702,2,0,L|111:127,1,90,8|2,0:0|0:0,0:0:0:0:
364,124,16035,6,0,L|468:124,2,90,10|2|10,0:0|0:0|0:0,0:0:0:0:
220,124,16535,1,2,0:0:0:0:
448,192,16702,2,0,B|504:264,1,90,10|2,0:0|0:0,0:0:0:0:
276,244,17035,2,0,B|220:316,1,90,10|2,0:0|0:0,0:0:0:0:
472,192,17369,6,0,L|389:144,1,90,10|2,0:0|0:0,0:0:0:0:
124,136,17702,2,0,L|208:88,1,90,10|2,0:0|0:0,0:0:0:0:
472,192,18035,2,0,L|456:97,1,90,10|2,0:0|0:0,0:0:0:0:
202,91,18369,2,0,L|187:179,1,90,10|2,0:0|0:0,0:0:0:0:
463,318,18702,6,8,L|440:280,7,45
344,216,19369,6,8,L|313:184,3,45
240,216,19702,6,8,L|209:184,3,45
418,162,20035,5,8,0:0:0:0:
476,101,20118,1,8,0:0:0:0:
430,31,20201,1,8,0:0:0:0:
352,60,20284,1,8,0:0:0:0:
166,194,20369,5,8,0:0:0:0:
100,168,20452,1,8,0:0:0:0:
56,112,20535,1,8,0:0:0:0:
72,40,20618,1,8,0:0:0:0:
276,44,20702,5,8,0:0:0:0:
352,60,20785,1,8,0:0:0:0:
392,121,20868,1,8,0:0:0:0:
392,195,20951,1,8,0:0:0:0:
164,236,21035,5,8,0:0:0:0:
116,304,21118,1,8,0:0:0:0:
164,372,21201,1,8,0:0:0:0:
244,372,21284,1,8,0:0:0:0:
496,252,21369,1,4,0:0:0:0:
216,192,21702,6,0,L|100:192,1,112.5,2|0,0:0|0:0,0:0:0:0:
388,140,22035,2,0,L|512:140,1,112.5,2|0,0:0|0:0,0:0:0:0:
192,96,22369,2,0,L|8:96,1,180,8|0,0:0|0:0,0:0:0:0:
284,240,22702,6,0,L|380:240,1,90,4|0,0:0|0:0,0:0:0:0:
124,296,23035,2,0,L|28:296,1,90,8|0,0:0|0:0,0:0:0:0:
260,336,23369,2,0,L|356:336,1,90,2|0,0:0|0:0,0:0:0:0:
188,240,23702,2,0,L|92:240,1,90,8|0,0:0|0:0,0:0:0:0:
324,216,24035,6,0,L|436:216,1,90,2|0,0:0|0:0,0:0:0:0:
268,216,24369,1,8,0:0:0:0:
492,128,24535,2,0,L|412:88,1,90,2|0,0:0|0:0,0:0:0:0:
164,64,24869,2,0,P|76:116|164:180,1,225
208,188,25285,1,0,0:0:0:0:
372,192,25369,6,0,L|468:192,1,90,2|0,0:0|0:0,0:0:0:0:
236,280,25702,2,0,L|140:280,1,90,8|0,0:0|0:0,0:0:0:0:
396,332,26035,2,0,L|496:332,1,90,2|0,0:0|0:0,0:0:0:0:
324,264,26369,2,0,L|412:220,1,90,8|0,0:0|0:0,0:0:0:0:
132,192,26702,6,0,L|36:192,2,90,2|0|8,0:0|0:0|0:0,0:0:0:0:
356,140,27202,2,0,L|464:140,1,90,8|2,0:0|0:0,0:0:0:0:
220,88,27535,1,0,0:0:0:0:
444,56,27702,2,0,P|488:96|440:140,1,135,8|0,0:0|0:0,0:0:0:0:
240,192,28035,6,0,B|192:192|192:192|240:192,1,90,2|0,0:0|0:0,0:0:0:0:
416,248,28368,2,0,L|512:248,1,90,8|0,0:0|0:0,0:0:0:0:
280,304,28702,2,0,L|208:360,1,90,2|0,0:0|0:0,0:0:0:0:
56,272,29035,2,0,L|136:208,1,90,8|0,0:0|0:0,0:0:0:0:
352,192,29368,6,0,L|464:192,1,90,2|0,0:0|0:0,0:0:0:0:
296,192,29702,1,8,0:0:0:0:
48,116,29868,2,0,L|128:68,1,90,2|2,0:0|0:0,0:0:0:0:
352,192,30202,2,0,P|452:240|400:312,1,225
336,312,30618,1,0,0:0:0:0:
164,280,30702,6,0,L|68:280,1,90,2|0,0:0|0:0,0:0:0:0:
300,192,31035,2,0,L|396:192,1,90,8|0,0:0|0:0,0:0:0:0:
140,140,31368,2,0,L|40:140,1,90,8|0,0:0|0:0,0:0:0:0:
324,96,31702,1,8,0:0:0:0:
84,60,31869,1,2,0:0:0:0:
364,192,32035,6,0,L|480:192,2,112.5,4|0|4,0:0|0:0|0:0,0:0:0:0:
136,192,32535,1,8,0:0:0:0:
72,202,32618,1,8,0:0:0:0:
35,254,32702,1,8,0:0:0:0:
73,306,32785,1,8,0:0:0:0:
300,280,32869,6,4,L|352:280,1,45
136,192,33035,1,4,0:0:0:0:
76,167,33118,1,4,0:0:0:0:
12,143,33201,1,4,0:0:0:0:
68,117,33285,1,4,0:0:0:0:
296,116,33369,6,0,L|392:116,1,90,4|0,0:0|0:0,0:0:0:0:
136,172,33702,2,0,L|40:172,1,90,8|2,0:0|0:0,0:0:0:0:
120,240,33952,1,2,0:0:0:0:
290,257,34036,2,0,L|386:257,1,90,2|0,0:0|0:0,0:0:0:0:
218,161,34369,2,0,L|301:113,1,90,8|0,0:0|0:0,0:0:0:0:
68,240,34702,6,0,B|16:240|16:240|56:240,1,90,2|0,0:0|0:0,0:0:0:0:
200,240,35036,1,8,0:0:0:0:
252,240,35119,1,2,0:0:0:0:
96,304,35202,2,0,L|16:344,1,90,2|0,0:0|0:0,0:0:0:0:
300,360,35536,2,0,P|368:312|284:240,1,225,2|2,0:0|0:0,0:0:0:0:
224,240,35952,1,2,0:0:0:0:
392,192,36035,6,0,L|488:192,1,90,2|0,0:0|0:0,0:0:0:0:
256,104,36368,2,0,L|160:104,1,90,8|0,0:0|0:0,0:0:0:0:
392,192,36702,2,0,P|440:232|392:268,1,135.000005149842,2|2,0:0|0:0,0:0:0:0:
323,299,36952,1,2,0:0:0:0:
120,300,37035,2,0,L|28:300,1,90,8|0,0:0|0:0,0:0:0:0:
302,192,37369,6,0,L|414:192,1,90,2|0,0:0|0:0,0:0:0:0:
248,192,37702,1,8,0:0:0:0:
184,192,37785,1,2,0:0:0:0:
388,124,37869,2,0,L|480:124,1,90,2|0,0:0|0:0,0:0:0:0:
332,124,38202,1,2,0:0:0:0:
84,124,38369,2,0,B|24:124|24:124|56:124,1,90,8|2,0:0|0:0,0:0:0:0:
116,124,38619,1,2,0:0:0:0:
340,192,38702,6,0,L|436:192,1,90,2|0,0:0|0:0,0:0:0:0:
180,248,39035,2,0,L|84:248,1,90,8|0,0:0|0:0,0:0:0:0:
316,336,39369,2,0,L|412:336,1,90,2|2,0:0|0:0,0:0:0:0:
332,268,39619,1,2,0:0:0:0:
252,268,39702,2,0,L|169:220,1,90,8|0,0:0|0:0,0:0:0:0:
424,192,40035,6,0,B|374:105,1,90,2|0,0:0|0:0,0:0:0:0:
216,180,40369,1,8,0:0:0:0:
164,180,40452,1,2,0:0:0:0:
320,116,40535,2,0,L|400:76,1,90,2|0,0:0|0:0,0:0:0:0:
116,60,40869,2,0,P|64:116|168:176,1,225,2|2,0:0|0:0,0:0:0:0:
224,180,41285,1,2,0:0:0:0:
338,180,41369,5,8,0:0:0:0:
214,180,41535,1,8,0:0:0:0:
350,180,41702,1,8,0:0:0:0:
202,180,41869,1,8,0:0:0:0:
426,180,42035,5,4,0:0:0:0:
202,180,42202,1,4,0:0:0:0:
438,180,42369,1,4,0:0:0:0:
194,180,42535,1,4,0:0:0:0:
202,180,42619,1,2,0:0:0:0:
284,288,42702,5,4,0:0:0:0:
60,288,42869,1,4,0:0:0:0:
284,288,43035,1,4,0:0:0:0:
156,288,43202,1,4,0:0:0:0:
408,188,43535,5,2,0:0:0:0:
408,156,43577,1,2,0:0:0:0:
388,128,43619,1,2,0:0:0:0:
353,120,43660,1,2,0:0:0:0:
240,120,43702,1,8,0:0:0:0:
60,120,43869,1,2,0:0:0:0:
292,188,44035,5,4,0:0:0:0:
96,152,44368,2,0,L|4:152,1,90,8|0,0:0|0:0,0:0:0:0:
256,188,44702,2,0,L|188:256,1,90,8|0,0:0|0:0,0:0:0:0:
440,272,45035,2,0,L|444:364,1,90,8|0,0:0|0:0,0:0:0:0:
172,192,45368,5,8,0:0:0:0:
396,192,45702,1,8,0:0:0:0:
260,192,45868,1,0,0:0:0:0:
204,192,45952,1,0,0:0:0:0:
352,228,46035,2,0,L|428:284,1,90,8|0,0:0|0:0,0:0:0:0:
96,292,46368,2,0,L|167:363,1,90,8|0,0:0|0:0,0:0:0:0:
388,192,46702,6,0,L|492:220,2,90,8|2|8,0:0|0:0|0:0,0:0:0:0:
244,192,47202,1,2,0:0:0:0:
192,192,47285,1,2,0:0:0:0:
352,124,47369,2,0,L|456:96,1,90,8|2,0:0|0:0,0:0:0:0:
192,192,47702,2,0,L|100:192,1,90,8|2,0:0|0:0,0:0:0:0:
328,192,48035,6,0,L|436:192,1,90,8|2,0:0|0:0,0:0:0:0:
232,124,48368,1,8,0:0:0:0:
168,156,48452,1,2,0:0:0:0:
172,227,48535,1,2,0:0:0:0:
237,254,48619,1,2,0:0:0:0:
416,256,48702,2,0,L|516:256,1,90,8|2,0:0|0:0,0:0:0:0:
344,192,49035,2,0,L|432:144,1,90,8|2,0:0|0:0,0:0:0:0:
172,92,49369,5,8,0:0:0:0:
308,92,49535,2,0,L|352:92,1,45,2|2,0:0|0:0,0:0:0:0:
196,160,49702,2,0,L|104:160,1,90,8|0,0:0|0:0,0:0:0:0:
352,252,50035,2,0,L|425:304,1,90,8|2,0:0|0:0,0:0:0:0:
260,304,50285,1,2,0:0:0:0:
176,304,50369,1,8,0:0:0:0:
328,372,50535,1,2,0:0:0:0:
244,372,50619,1,2,0:0:0:0:
160,232,50702,5,8,0:0:0:0:
284,188,50869,2,2,L|332:188,1,45
172,188,51035,2,0,L|72:188,1,90,8|2,0:0|0:0,0:0:0:0:
148,120,51285,1,0,0:0:0:0:
188,120,51327,1,0,0:0:0:0:
324,120,51369,2,0,L|420:120,1,90,8|2,0:0|0:0,0:0:0:0:
260,268,51619,1,0,0:0:0:0:
188,268,51703,1,8,0:0:0:0:
348,328,51869,1,2,0:0:0:0:
124,192,52035,6,8,L|101:154,3,45
28,192,52369,2,8,L|5:154,3,45
232,192,52702,6,8,L|256:155,3,45
76,192,53035,2,8,L|51:155,3,45
280,264,53369,5,8,0:0:0:0:
328,232,53452,1,8,0:0:0:0:
324,164,53535,1,8,0:0:0:0:
260,148,53619,1,8,0:0:0:0:
80,144,53702,5,8,0:0:0:0:
24,184,53785,1,8,0:0:0:0:
28,256,53868,1,8,0:0:0:0:
88,292,53952,1,8,0:0:0:0:
312,208,54035,6,8,L|368:208,1,45
136,144,54202,2,8,L|88:144,1,45
320,264,54369,6,8,L|376:263,1,45
140,192,54535,2,8,L|84:191,1,45
380,128,54702,6,0,L|248:24,2,168.75,4|4|4,0:0|0:0|0:0,0:0:0:0:
96,252,55369,2,0,L|248:168,2,168.75,4|4|4,0:0|0:0|0:0,0:0:0:0:
324,255,56035,1,4,0:0:0:0:
103,192,56369,6,0,L|216:192,1,112.5,2|0,0:0|0:0,0:0:0:0:
488,144,56702,2,0,L|376:144,1,112.5,2|0,0:0|0:0,0:0:0:0:
48,96,57036,2,0,L|205:194,1,180,8|0,0:0|0:0,0:0:0:0:
464,252,57369,6,0,L|368:252,1,90,4|0,0:0|0:0,0:0:0:0:
124,308,57702,2,0,L|28:308,1,90,8|0,0:0|0:0,0:0:0:0:
260,348,58036,2,0,L|356:348,1,90,2|0,0:0|0:0,0:0:0:0:
188,252,58369,2,0,L|92:252,1,90,8|0,0:0|0:0,0:0:0:0:
324,228,58702,6,0,L|436:228,1,90,2|0,0:0|0:0,0:0:0:0:
268,228,59036,1,8,0:0:0:0:
44,140,59202,2,0,L|108:76,1,90,0|2,0:0|0:0,0:0:0:0:
356,76,59536,2,0,P|372:152|252:192,1,225
192,192,59952,1,0,0:0:0:0:
363,225,60035,6,0,L|459:225,1,90,2|0,0:0|0:0,0:0:0:0:
227,137,60368,2,0,L|131:137,1,90,8|0,0:0|0:0,0:0:0:0:
387,85,60702,2,0,L|487:85,1,90,2|0,0:0|0:0,0:0:0:0:
315,153,61035,2,0,L|403:197,1,90,8|0,0:0|0:0,0:0:0:0:
123,225,61368,6,0,L|27:225,2,90,2|0|8,0:0|0:0|0:0,0:0:0:0:
347,277,61868,2,0,L|455:277,1,90,8|2,0:0|0:0,0:0:0:0:
211,329,62201,1,0,0:0:0:0:
353,367,62368,2,0,P|413:339|437:277,1,135,8|0,0:0|0:0,0:0:0:0:
244,188,62702,6,0,L|148:188,1,90,2|0,0:0|0:0,0:0:0:0:
324,244,63035,2,0,L|420:244,1,90,8|0,0:0|0:0,0:0:0:0:
188,300,63369,2,0,B|136:300|136:300|180:300,1,90,2|0,0:0|0:0,0:0:0:0:
324,244,63702,2,0,B|356:244|356:244|296:244,1,90,8|0,0:0|0:0,0:0:0:0:
72,164,64035,6,0,L|156:132,1,90,2|0,0:0|0:0,0:0:0:0:
300,132,64369,1,8,0:0:0:0:
52,236,64535,2,0,B|16:236|16:236|72:236,1,90,2|2,0:0|0:0,0:0:0:0:
240,304,64869,2,0,P|336:264|280:188,1,225
220,188,65285,1,0,0:0:0:0:
404,100,65369,6,0,L|496:100,1,90,2|0,0:0|0:0,0:0:0:0:
248,188,65702,2,0,L|152:188,1,90,8|0,0:0|0:0,0:0:0:0:
404,240,66035,2,0,L|496:240,1,90,8|0,0:0|0:0,0:0:0:0:
224,284,66369,1,8,0:0:0:0:
452,324,66536,1,2,0:0:0:0:
180,192,66702,6,0,L|64:192,2,112.5,4|0|4,0:0|0:0|0:0,0:0:0:0:
408,192,67202,1,8,0:0:0:0:
476,192,67285,1,8,0:0:0:0:
508,132,67369,1,8,0:0:0:0:
440,132,67452,1,8,0:0:0:0:
188,104,67536,6,4,L|136:104,1,45
370,253,67702,1,4,0:0:0:0:
434,281,67785,1,4,0:0:0:0:
502,305,67868,1,4,0:0:0:0:
442,353,67952,1,4,0:0:0:0:
210,309,68035,6,0,L|114:309,1,90,4|0,0:0|0:0,0:0:0:0:
370,253,68368,2,0,L|466:253,1,90,8|2,0:0|0:0,0:0:0:0:
386,185,68618,1,2,0:0:0:0:
216,168,68702,2,0,L|120:168,1,90,2|0,0:0|0:0,0:0:0:0:
288,264,69035,2,0,L|371:312,1,90,8|0,0:0|0:0,0:0:0:0:
120,184,69368,6,0,B|216:184,1,90,2|0,0:0|0:0,0:0:0:0:
48,112,69702,1,8,0:0:0:0:
108,112,69785,1,2,0:0:0:0:
256,112,69868,2,0,L|348:112,1,90,2|0,0:0|0:0,0:0:0:0:
64,184,70202,2,0,P|28:252|140:300,1,225,2|2,0:0|0:0,0:0:0:0:
208,304,70618,1,2,0:0:0:0:
392,192,70702,6,0,L|488:192,1,90,2|0,0:0|0:0,0:0:0:0:
256,104,71035,2,0,L|339:56,1,90,8|0,0:0|0:0,0:0:0:0:
108,192,71369,2,0,P|60:232|108:268,1,135.000005149842,2|2,0:0|0:0,0:0:0:0:
177,299,71619,1,2,0:0:0:0:
380,300,71702,2,0,L|472:300,1,90,8|0,0:0|0:0,0:0:0:0:
198,192,72036,6,0,L|86:192,1,90,2|0,0:0|0:0,0:0:0:0:
272,124,72369,1,8,0:0:0:0:
336,124,72452,1,2,0:0:0:0:
152,124,72535,2,0,B|96:124|96:124|132:124,1,90,2|0,0:0|0:0,0:0:0:0:
276,124,72869,1,2,0:0:0:0:
48,192,73036,2,0,B|136:232,1,90,8|2,0:0|0:0,0:0:0:0:
192,228,73286,1,2,0:0:0:0:
372,228,73369,6,0,L|468:228,1,90,2|0,0:0|0:0,0:0:0:0:
212,172,73702,2,0,L|116:172,1,90,8|0,0:0|0:0,0:0:0:0:
368,116,74036,2,0,L|284:68,1,90,2|2,0:0|0:0,0:0:0:0:
228,72,74286,1,2,0:0:0:0:
408,192,74369,2,0,L|500:192,1,90,8|0,0:0|0:0,0:0:0:0:
228,192,74702,6,0,B|136:192,1,90,2|0,0:0|0:0,0:0:0:0:
300,264,75036,1,8,0:0:0:0:
356,264,75119,1,2,0:0:0:0:
176,304,75202,2,0,L|96:344,1,90,2|0,0:0|0:0,0:0:0:0:
368,328,75536,2,0,P|421:263|316:212,1,225,2|2,0:0|0:0,0:0:0:0:
260,208,75952,1,2,0:0:0:0:
80,208,76035,6,0,L|64:117,1,90,10|2,0:0|0:0,0:0:0:0:
432,208,76369,2,0,L|447:117,1,90,10|2,0:0|0:0,0:0:0:0:
80,208,76702,2,0,L|95:117,1,90,10|2,0:0|0:0,0:0:0:0:
432,208,77035,1,8,0:0:0:0:
204,208,77202,1,8,0:0:0:0:
476,208,77369,5,4,0:0:0:0:
332,208,77535,1,2,0:0:0:0:
476,208,77702,1,4,0:0:0:0:
204,208,77869,1,4,0:0:0:0:
384,208,78202,1,4,0:0:0:0:
84,208,78369,1,4,0:0:0:0:
212,208,78535,5,2,0:0:0:0:
212,176,78577,1,2,0:0:0:0:
192,148,78619,1,2,0:0:0:0:
157,140,78660,1,2,0:0:0:0:
44,208,78702,5,4,0:0:0:0:
160,208,78868,1,2,0:0:0:0:
44,208,79035,1,4,0:0:0:0:
316,208,79202,1,4,0:0:0:0:
136,208,79535,1,4,0:0:0:0:
452,208,79702,2,0,L|356:156,1,90,4|2,0:0|0:0,0:0:0:0:
100,164,80035,1,4,0:0:0:0:
256,192,80202,12,0,81369,0:0:0:0:
