osu file format v14

[General]
AudioFilename: 8OROCHI.mp3
AudioLeadIn: 0
PreviewTime: 62529
Countdown: 0
SampleSet: Normal
StackLeniency: 0.7
Mode: 1
LetterboxInBreaks: 0
WidescreenStoryboard: 0

[Editor]
DistanceSpacing: 2
BeatDivisor: 4
GridSize: 32
TimelineZoom: 1.1

[Metadata]
Title:8OROCHI
TitleUnicode:8OROCHI
Artist:REDALiCE
ArtistUnicode:REDALiCE
Creator:Firce777
Version:Oni
Source:
Tags:Taiko no Tatsujin
BeatmapID:1308018
BeatmapSetID:620547

[Difficulty]
HPDrainRate:6
CircleSize:5
OverallDifficulty:7
ApproachRate:5
SliderMultiplier:1.4
SliderTickRate:1

[Events]
//Background and Video events
0,0,"ZKnWLFb.jpg",0,0
//Break Periods
//Storyboard Layer 0 (Background)
//Storyboard Layer 1 (Fail)
//Storyboard Layer 2 (Pass)
//Storyboard Layer 3 (Foreground)
//Storyboard Sound Samples

[TimingPoints]
1573,298.804780876494,4,1,0,50,1,0
62529,-100,4,1,0,50,0,1
81652,-100,4,1,0,50,0,0
112728,-100,4,1,0,50,0,1
134242,-100,4,1,0,50,0,0

[HitObjects]
256,192,1573,5,0,0:0:0:0:
256,192,1622,1,2,0:0:0:0:
256,192,1672,1,2,0:0:0:0:
256,192,1722,1,0,0:0:0:0:
256,192,2021,1,2,0:0:0:0:
256,192,2917,1,0,0:0:0:0:
256,192,3365,1,0,0:0:0:0:
256,192,3664,1,0,0:0:0:0:
256,192,3963,1,0,0:0:0:0:
256,192,4013,1,2,0:0:0:0:
256,192,4063,1,2,0:0:0:0:
256,192,4112,1,0,0:0:0:0:
256,192,4411,1,2,0:0:0:0:
256,192,5308,1,0,0:0:0:0:
256,192,5756,1,0,0:0:0:0:
256,192,6055,1,0,0:0:0:0:
256,192,6353,1,0,0:0:0:0:
256,192,6403,1,2,0:0:0:0:
256,192,6453,1,2,0:0:0:0:
256,192,6503,1,0,0:0:0:0:
256,192,6652,1,2,0:0:0:0:
256,192,6802,1,2,0:0:0:0:
256,192,6951,1,2,0:0:0:0:
256,192,7100,1,2,0:0:0:0:
256,192,7250,1,2,0:0:0:0:
256,192,7399,1,2,0:0:0:0:
256,192,7549,1,2,0:0:0:0:
256,192,7698,1,0,0:0:0:0:
256,192,7847,1,2,0:0:0:0:
256,192,7997,1,2,0:0:0:0:
256,192,8146,1,0,0:0:0:0:
256,192,8296,1,2,0:0:0:0:
256,192,8445,1,0,0:0:0:0:
256,192,8594,1,2,0:0:0:0:
256,192,8744,1,0,0:0:0:0:
256,192,8794,1,2,0:0:0:0:
256,192,8843,1,2,0:0:0:0:
256,192,8893,1,0,0:0:0:0:
256,192,8968,1,0,0:0:0:0:
256,192,9043,1,2,0:0:0:0:
256,192,9117,1,2,0:0:0:0:
256,192,9192,1,0,0:0:0:0:
256,192,9267,1,0,0:0:0:0:
256,192,9341,1,2,0:0:0:0:
256,192,9416,1,2,0:0:0:0:
256,192,9491,1,0,0:0:0:0:
256,192,9566,1,0,0:0:0:0:
256,192,9640,1,2,0:0:0:0:
256,192,9715,1,2,0:0:0:0:
256,192,9790,1,0,0:0:0:0:
256,192,9864,1,0,0:0:0:0:
256,192,9939,12,0,10985,0:0:0:0:
256,192,11134,5,4,0:0:0:0:
256,192,12329,1,4,0:0:0:0:
256,192,12479,1,2,0:0:0:0:
256,192,12529,1,2,0:0:0:0:
256,192,12578,1,2,0:0:0:0:
256,192,12628,1,2,0:0:0:0:
256,192,12778,1,0,0:0:0:0:
256,192,12927,1,0,0:0:0:0:
256,192,13076,1,2,0:0:0:0:
256,192,13226,1,2,0:0:0:0:
256,192,13301,1,2,0:0:0:0:
256,192,13375,1,0,0:0:0:0:
256,192,13525,1,0,0:0:0:0:
256,192,13674,1,0,0:0:0:0:
256,192,13823,1,2,0:0:0:0:
256,192,13898,1,2,0:0:0:0:
256,192,13973,1,0,0:0:0:0:
256,192,14122,1,2,0:0:0:0:
256,192,14272,1,0,0:0:0:0:
256,192,14346,1,2,0:0:0:0:
256,192,14421,1,2,0:0:0:0:
256,192,14571,1,0,0:0:0:0:
256,192,14720,1,0,0:0:0:0:
256,192,14869,1,2,0:0:0:0:
256,192,14944,1,2,0:0:0:0:
256,192,15019,1,0,0:0:0:0:
256,192,15243,1,2,0:0:0:0:
256,192,15318,1,0,0:0:0:0:
256,192,15467,1,0,0:0:0:0:
256,192,15766,1,2,0:0:0:0:
256,192,15915,1,0,0:0:0:0:
256,192,15990,1,2,0:0:0:0:
256,192,16065,1,2,0:0:0:0:
256,192,16139,1,0,0:0:0:0:
256,192,16214,1,2,0:0:0:0:
256,192,16289,1,2,0:0:0:0:
256,192,16363,1,0,0:0:0:0:
256,192,16438,1,2,0:0:0:0:
256,192,16513,1,2,0:0:0:0:
256,192,16587,1,2,0:0:0:0:
256,192,16662,1,0,0:0:0:0:
256,192,16812,1,6,0:0:0:0:
256,192,17110,1,4,0:0:0:0:
256,192,17260,1,2,0:0:0:0:
256,192,17310,1,2,0:0:0:0:
256,192,17359,1,2,0:0:0:0:
256,192,17409,1,2,0:0:0:0:
256,192,17559,1,0,0:0:0:0:
256,192,17708,1,0,0:0:0:0:
256,192,17857,1,2,0:0:0:0:
256,192,18007,1,2,0:0:0:0:
256,192,18081,1,2,0:0:0:0:
256,192,18156,1,0,0:0:0:0:
256,192,18306,1,0,0:0:0:0:
256,192,18455,1,0,0:0:0:0:
256,192,18604,1,2,0:0:0:0:
256,192,18679,1,2,0:0:0:0:
256,192,18754,1,0,0:0:0:0:
256,192,18903,1,2,0:0:0:0:
256,192,19053,1,0,0:0:0:0:
256,192,19127,1,2,0:0:0:0:
256,192,19202,1,2,0:0:0:0:
256,192,19351,1,0,0:0:0:0:
256,192,19426,1,0,0:0:0:0:
256,192,19501,1,0,0:0:0:0:
256,192,19725,1,2,0:0:0:0:
256,192,19800,1,2,0:0:0:0:
256,192,19949,1,4,0:0:0:0:
256,192,20173,1,2,0:0:0:0:
256,192,20248,1,2,0:0:0:0:
256,192,20397,1,4,0:0:0:0:
256,192,20547,1,2,0:0:0:0:
256,192,20696,1,2,0:0:0:0:
256,192,20771,1,2,0:0:0:0:
256,192,20845,1,0,0:0:0:0:
256,192,20920,1,2,0:0:0:0:
256,192,20995,1,0,0:0:0:0:
256,192,21144,1,0,0:0:0:0:
256,192,21294,1,6,0:0:0:0:
256,192,21443,1,6,0:0:0:0:
256,192,21891,1,0,0:0:0:0:
256,192,21966,1,0,0:0:0:0:
256,192,22041,1,0,0:0:0:0:
256,192,22115,1,0,0:0:0:0:
256,192,22190,1,0,0:0:0:0:
256,192,22339,1,2,0:0:0:0:
256,192,22489,1,0,0:0:0:0:
256,192,22788,1,0,0:0:0:0:
256,192,23086,1,0,0:0:0:0:
256,192,23236,1,2,0:0:0:0:
256,192,23385,1,0,0:0:0:0:
256,192,23535,1,2,0:0:0:0:
256,192,23609,1,2,0:0:0:0:
256,192,23684,1,0,0:0:0:0:
256,192,23833,1,2,0:0:0:0:
256,192,23983,1,0,0:0:0:0:
256,192,24058,1,2,0:0:0:0:
256,192,24132,1,2,0:0:0:0:
256,192,24282,1,0,0:0:0:0:
256,192,24431,1,2,0:0:0:0:
256,192,24580,1,0,0:0:0:0:
256,192,24879,1,0,0:0:0:0:
256,192,25178,1,0,0:0:0:0:
256,192,25327,1,2,0:0:0:0:
256,192,25477,1,0,0:0:0:0:
256,192,25552,1,2,0:0:0:0:
256,192,25626,1,2,0:0:0:0:
256,192,25701,1,0,0:0:0:0:
256,192,25776,1,2,0:0:0:0:
256,192,25850,1,2,0:0:0:0:
256,192,25925,1,0,0:0:0:0:
256,192,26000,1,2,0:0:0:0:
256,192,26074,1,2,0:0:0:0:
256,192,26149,1,2,0:0:0:0:
256,192,26224,1,0,0:0:0:0:
256,192,26373,1,6,0:0:0:0:
256,192,26672,1,0,0:0:0:0:
256,192,26822,1,2,0:0:0:0:
256,192,26971,1,0,0:0:0:0:
256,192,27270,1,0,0:0:0:0:
256,192,27569,1,0,0:0:0:0:
256,192,27718,1,2,0:0:0:0:
256,192,27867,1,0,0:0:0:0:
256,192,28017,1,2,0:0:0:0:
256,192,28091,1,2,0:0:0:0:
256,192,28166,1,0,0:0:0:0:
256,192,28316,1,2,0:0:0:0:
256,192,28465,1,0,0:0:0:0:
256,192,28540,1,2,0:0:0:0:
256,192,28614,1,2,0:0:0:0:
256,192,28764,1,0,0:0:0:0:
256,192,28913,1,0,0:0:0:0:
256,192,28988,1,0,0:0:0:0:
256,192,29063,1,0,0:0:0:0:
256,192,29287,1,2,0:0:0:0:
256,192,29361,1,2,0:0:0:0:
256,192,29511,1,4,0:0:0:0:
256,192,29735,1,2,0:0:0:0:
256,192,29810,1,2,0:0:0:0:
256,192,29959,1,4,0:0:0:0:
256,192,30108,1,2,0:0:0:0:
256,192,30258,1,2,0:0:0:0:
256,192,30332,1,2,0:0:0:0:
256,192,30407,1,0,0:0:0:0:
256,192,30482,1,2,0:0:0:0:
256,192,30557,1,0,0:0:0:0:
256,192,30706,1,0,0:0:0:0:
256,192,30855,1,6,0:0:0:0:
256,192,31004,1,6,0:0:0:0:
256,192,31453,1,0,0:0:0:0:
256,192,32051,1,2,0:0:0:0:
256,192,32798,1,0,0:0:0:0:
256,192,33246,1,2,0:0:0:0:
256,192,33545,1,2,0:0:0:0:
256,192,33843,1,0,0:0:0:0:
256,192,33993,1,0,0:0:0:0:
256,192,34292,1,0,0:0:0:0:
256,192,34441,1,0,0:0:0:0:
256,192,34740,1,0,0:0:0:0:
256,192,34889,1,0,0:0:0:0:
256,192,35188,1,2,0:0:0:0:
256,192,35337,1,2,0:0:0:0:
256,192,35636,1,2,0:0:0:0:
256,192,35935,1,2,0:0:0:0:
256,192,36234,1,0,0:0:0:0:
256,192,36533,1,2,0:0:0:0:
256,192,36831,1,2,0:0:0:0:
256,192,37130,1,2,0:0:0:0:
256,192,37578,1,0,0:0:0:0:
256,192,37728,1,0,0:0:0:0:
256,192,38027,1,2,0:0:0:0:
256,192,38325,1,2,0:0:0:0:
256,192,38624,1,0,0:0:0:0:
256,192,38774,1,0,0:0:0:0:
256,192,39073,1,0,0:0:0:0:
256,192,39222,1,0,0:0:0:0:
256,192,39521,1,0,0:0:0:0:
256,192,39670,1,0,0:0:0:0:
256,192,39820,1,2,0:0:0:0:
256,192,39969,1,2,0:0:0:0:
256,192,40118,1,2,0:0:0:0:
256,192,40268,1,2,0:0:0:0:
256,192,40417,1,2,0:0:0:0:
256,192,40492,1,2,0:0:0:0:
256,192,40567,1,2,0:0:0:0:
256,192,40716,1,2,0:0:0:0:
256,192,40865,1,2,0:0:0:0:
256,192,41015,1,0,0:0:0:0:
256,192,41164,1,0,0:0:0:0:
256,192,41314,1,2,0:0:0:0:
256,192,41463,1,0,0:0:0:0:
256,192,41612,1,0,0:0:0:0:
256,192,41762,1,2,0:0:0:0:
256,192,41911,1,0,0:0:0:0:
256,192,42061,1,0,0:0:0:0:
256,192,42210,1,2,0:0:0:0:
256,192,42359,1,0,0:0:0:0:
256,192,42434,1,2,0:0:0:0:
256,192,42509,1,0,0:0:0:0:
256,192,42658,1,2,0:0:0:0:
256,192,42808,1,0,0:0:0:0:
256,192,42882,1,2,0:0:0:0:
256,192,42957,1,0,0:0:0:0:
256,192,43032,1,2,0:0:0:0:
256,192,43106,1,0,0:0:0:0:
256,192,43181,1,2,0:0:0:0:
256,192,43256,1,2,0:0:0:0:
256,192,43330,1,2,0:0:0:0:
256,192,43405,1,0,0:0:0:0:
256,192,43555,1,0,0:0:0:0:
256,192,43704,1,2,0:0:0:0:
256,192,43853,1,0,0:0:0:0:
256,192,44003,1,0,0:0:0:0:
256,192,44152,1,2,0:0:0:0:
256,192,44302,1,0,0:0:0:0:
256,192,44451,1,0,0:0:0:0:
256,192,44600,1,2,0:0:0:0:
256,192,44750,1,0,0:0:0:0:
256,192,44824,1,0,0:0:0:0:
256,192,44899,1,0,0:0:0:0:
256,192,45049,1,2,0:0:0:0:
256,192,45198,1,0,0:0:0:0:
256,192,45347,1,2,0:0:0:0:
256,192,45397,1,2,0:0:0:0:
256,192,45447,1,2,0:0:0:0:
256,192,45497,1,0,0:0:0:0:
256,192,45646,1,2,0:0:0:0:
256,192,45796,1,0,0:0:0:0:
256,192,45945,1,0,0:0:0:0:
256,192,46094,1,2,0:0:0:0:
256,192,46244,1,0,0:0:0:0:
256,192,46393,1,0,0:0:0:0:
256,192,46543,1,2,0:0:0:0:
256,192,46692,1,0,0:0:0:0:
256,192,46841,1,0,0:0:0:0:
256,192,46991,1,2,0:0:0:0:
256,192,47140,1,0,0:0:0:0:
256,192,47215,1,2,0:0:0:0:
256,192,47290,1,0,0:0:0:0:
256,192,47439,1,2,0:0:0:0:
256,192,47588,1,0,0:0:0:0:
256,192,47663,1,2,0:0:0:0:
256,192,47738,1,0,0:0:0:0:
256,192,47813,1,2,0:0:0:0:
256,192,47887,1,0,0:0:0:0:
256,192,47962,1,2,0:0:0:0:
256,192,48037,1,2,0:0:0:0:
256,192,48111,1,2,0:0:0:0:
256,192,48186,1,0,0:0:0:0:
256,192,48335,1,0,0:0:0:0:
256,192,48485,1,2,0:0:0:0:
256,192,48634,1,0,0:0:0:0:
256,192,48784,1,0,0:0:0:0:
256,192,48933,1,2,0:0:0:0:
256,192,49082,1,0,0:0:0:0:
256,192,49232,1,0,0:0:0:0:
256,192,49381,1,2,0:0:0:0:
256,192,49531,1,0,0:0:0:0:
256,192,49605,1,0,0:0:0:0:
256,192,49680,1,0,0:0:0:0:
256,192,49829,1,2,0:0:0:0:
256,192,49979,1,0,0:0:0:0:
256,192,50128,1,2,0:0:0:0:
256,192,50178,1,2,0:0:0:0:
256,192,50228,1,2,0:0:0:0:
256,192,50278,1,0,0:0:0:0:
256,192,50427,1,2,0:0:0:0:
256,192,50576,1,0,0:0:0:0:
256,192,50651,1,0,0:0:0:0:
256,192,50726,1,0,0:0:0:0:
256,192,50801,1,2,0:0:0:0:
256,192,50875,1,0,0:0:0:0:
256,192,51025,1,0,0:0:0:0:
256,192,51099,1,2,0:0:0:0:
256,192,51174,1,0,0:0:0:0:
256,192,51249,1,0,0:0:0:0:
256,192,51323,1,0,0:0:0:0:
256,192,51473,1,0,0:0:0:0:
256,192,51548,1,2,0:0:0:0:
256,192,51622,1,0,0:0:0:0:
256,192,51697,1,2,0:0:0:0:
256,192,51772,1,0,0:0:0:0:
256,192,51921,1,0,0:0:0:0:
256,192,51996,1,2,0:0:0:0:
256,192,52071,1,2,0:0:0:0:
256,192,52145,1,2,0:0:0:0:
256,192,52220,1,0,0:0:0:0:
256,192,52369,1,6,0:0:0:0:
256,192,52668,1,6,0:0:0:0:
256,192,52967,1,0,0:0:0:0:
256,192,53042,1,0,0:0:0:0:
256,192,53116,1,0,0:0:0:0:
256,192,53191,1,2,0:0:0:0:
256,192,53266,1,0,0:0:0:0:
256,192,53415,1,0,0:0:0:0:
256,192,53490,1,2,0:0:0:0:
256,192,53565,1,0,0:0:0:0:
256,192,53639,1,0,0:0:0:0:
256,192,53714,1,0,0:0:0:0:
256,192,53863,1,0,0:0:0:0:
256,192,53938,1,2,0:0:0:0:
256,192,54013,1,0,0:0:0:0:
256,192,54087,1,2,0:0:0:0:
256,192,54162,1,0,0:0:0:0:
256,192,54312,1,0,0:0:0:0:
256,192,54386,1,2,0:0:0:0:
256,192,54461,1,2,0:0:0:0:
256,192,54536,1,2,0:0:0:0:
256,192,54610,1,0,0:0:0:0:
256,192,54760,1,6,0:0:0:0:
256,192,55059,1,6,0:0:0:0:
256,192,55557,1,0,0:0:0:0:
256,192,55656,1,0,0:0:0:0:
256,192,55756,1,0,0:0:0:0:
256,192,55855,1,0,0:0:0:0:
256,192,55955,1,0,0:0:0:0:
256,192,56055,1,0,0:0:0:0:
256,192,56154,1,0,0:0:0:0:
256,192,56254,1,2,0:0:0:0:
256,192,56752,1,0,0:0:0:0:
256,192,56851,1,0,0:0:0:0:
256,192,56951,1,0,0:0:0:0:
256,192,57051,1,0,0:0:0:0:
256,192,57150,1,0,0:0:0:0:
256,192,57250,1,0,0:0:0:0:
256,192,57349,1,2,0:0:0:0:
256,192,57449,1,2,0:0:0:0:
256,192,57947,1,0,0:0:0:0:
256,192,58047,1,0,0:0:0:0:
256,192,58146,1,0,0:0:0:0:
256,192,58246,1,0,0:0:0:0:
256,192,58345,1,0,0:0:0:0:
256,192,58445,1,2,0:0:0:0:
256,192,58545,1,2,0:0:0:0:
256,192,58644,1,2,0:0:0:0:
256,192,59142,1,0,0:0:0:0:
256,192,59242,1,0,0:0:0:0:
256,192,59341,1,0,0:0:0:0:
256,192,59441,1,0,0:0:0:0:
256,192,59541,1,2,0:0:0:0:
256,192,59640,1,2,0:0:0:0:
256,192,59740,1,2,0:0:0:0:
256,192,59839,1,2,0:0:0:0:
256,192,60138,1,0,0:0:0:0:
256,192,60213,1,0,0:0:0:0:
256,192,60288,1,2,0:0:0:0:
256,192,60362,1,2,0:0:0:0:
256,192,60437,1,0,0:0:0:0:
256,192,60512,1,0,0:0:0:0:
256,192,60586,1,2,0:0:0:0:
256,192,60661,1,2,0:0:0:0:
256,192,60736,1,0,0:0:0:0:
256,192,60811,1,0,0:0:0:0:
256,192,60885,1,2,0:0:0:0:
256,192,60960,1,2,0:0:0:0:
256,192,61035,1,0,0:0:0:0:
256,192,61109,1,0,0:0:0:0:
256,192,61184,1,2,0:0:0:0:
256,192,61259,1,2,0:0:0:0:
256,192,61333,1,0,0:0:0:0:
256,192,61408,1,2,0:0:0:0:
256,192,61483,1,0,0:0:0:0:
256,192,61782,1,0,0:0:0:0:
256,192,61931,2,0,L|480:192,1,210
256,192,62529,1,0,0:0:0:0:
256,192,62678,1,2,0:0:0:0:
256,192,62753,1,2,0:0:0:0:
256,192,62827,1,0,0:0:0:0:
256,192,62977,1,2,0:0:0:0:
256,192,63126,1,0,0:0:0:0:
256,192,63201,1,2,0:0:0:0:
256,192,63276,1,0,0:0:0:0:
256,192,63425,1,0,0:0:0:0:
256,192,63574,1,2,0:0:0:0:
256,192,63649,1,2,0:0:0:0:
256,192,63724,1,0,0:0:0:0:
256,192,63873,1,2,0:0:0:0:
256,192,64023,1,0,0:0:0:0:
256,192,64097,1,2,0:0:0:0:
256,192,64172,1,2,0:0:0:0:
256,192,64247,1,2,0:0:0:0:
256,192,64322,1,0,0:0:0:0:
256,192,64620,1,2,0:0:0:0:
256,192,64919,1,0,0:0:0:0:
256,192,65069,1,0,0:0:0:0:
256,192,65143,1,2,0:0:0:0:
256,192,65218,1,0,0:0:0:0:
256,192,65367,1,2,0:0:0:0:
256,192,65517,1,0,0:0:0:0:
256,192,65591,1,2,0:0:0:0:
256,192,65666,1,0,0:0:0:0:
256,192,65741,1,0,0:0:0:0:
256,192,65816,1,2,0:0:0:0:
256,192,65965,1,0,0:0:0:0:
256,192,66264,1,0,0:0:0:0:
256,192,66338,1,2,0:0:0:0:
256,192,66413,1,2,0:0:0:0:
256,192,66563,1,0,0:0:0:0:
256,192,66637,1,0,0:0:0:0:
256,192,66712,1,0,0:0:0:0:
256,192,66787,1,0,0:0:0:0:
256,192,66861,1,2,0:0:0:0:
256,192,67011,1,4,0:0:0:0:
256,192,67310,1,0,0:0:0:0:
256,192,67459,1,2,0:0:0:0:
256,192,67534,1,2,0:0:0:0:
256,192,67608,1,0,0:0:0:0:
256,192,67758,1,2,0:0:0:0:
256,192,67907,1,0,0:0:0:0:
256,192,67982,1,2,0:0:0:0:
256,192,68057,1,0,0:0:0:0:
256,192,68206,1,0,0:0:0:0:
256,192,68355,1,2,0:0:0:0:
256,192,68430,1,2,0:0:0:0:
256,192,68505,1,0,0:0:0:0:
256,192,68654,1,2,0:0:0:0:
256,192,68804,1,0,0:0:0:0:
256,192,68878,1,2,0:0:0:0:
256,192,68953,1,2,0:0:0:0:
256,192,69028,1,2,0:0:0:0:
256,192,69102,1,0,0:0:0:0:
256,192,69252,1,2,0:0:0:0:
256,192,69401,1,0,0:0:0:0:
256,192,69551,1,0,0:0:0:0:
256,192,69625,1,2,0:0:0:0:
256,192,69700,1,0,0:0:0:0:
256,192,69775,1,0,0:0:0:0:
256,192,69849,1,0,0:0:0:0:
256,192,69924,1,2,0:0:0:0:
256,192,69999,1,0,0:0:0:0:
256,192,70148,1,0,0:0:0:0:
256,192,70223,1,2,0:0:0:0:
256,192,70298,1,2,0:0:0:0:
256,192,70372,1,0,0:0:0:0:
256,192,70447,1,0,0:0:0:0:
256,192,70596,1,0,0:0:0:0:
256,192,70671,1,0,0:0:0:0:
256,192,70746,1,2,0:0:0:0:
256,192,70821,1,2,0:0:0:0:
256,192,70895,1,0,0:0:0:0:
256,192,71045,1,0,0:0:0:0:
256,192,71119,1,2,0:0:0:0:
256,192,71194,1,0,0:0:0:0:
256,192,71269,1,2,0:0:0:0:
256,192,71343,1,0,0:0:0:0:
256,192,71493,1,2,0:0:0:0:
256,192,71642,1,2,0:0:0:0:
256,192,71792,1,4,0:0:0:0:
256,192,72090,1,0,0:0:0:0:
256,192,72240,1,2,0:0:0:0:
256,192,72315,1,2,0:0:0:0:
256,192,72389,1,0,0:0:0:0:
256,192,72539,1,2,0:0:0:0:
256,192,72688,1,0,0:0:0:0:
256,192,72763,1,2,0:0:0:0:
256,192,72837,1,0,0:0:0:0:
256,192,72987,1,0,0:0:0:0:
256,192,73136,1,2,0:0:0:0:
256,192,73211,1,2,0:0:0:0:
256,192,73286,1,0,0:0:0:0:
256,192,73435,1,2,0:0:0:0:
256,192,73584,1,0,0:0:0:0:
256,192,73659,1,2,0:0:0:0:
256,192,73734,1,2,0:0:0:0:
256,192,73809,1,2,0:0:0:0:
256,192,73883,1,0,0:0:0:0:
256,192,74182,1,2,0:0:0:0:
256,192,74481,1,0,0:0:0:0:
256,192,74630,1,0,0:0:0:0:
256,192,74705,1,2,0:0:0:0:
256,192,74780,1,0,0:0:0:0:
256,192,74929,1,2,0:0:0:0:
256,192,75078,1,0,0:0:0:0:
256,192,75153,1,2,0:0:0:0:
256,192,75228,1,0,0:0:0:0:
256,192,75303,1,0,0:0:0:0:
256,192,75377,1,2,0:0:0:0:
256,192,75527,1,0,0:0:0:0:
256,192,75825,1,0,0:0:0:0:
256,192,75900,1,2,0:0:0:0:
256,192,75975,1,2,0:0:0:0:
256,192,76124,1,0,0:0:0:0:
256,192,76274,1,0,0:0:0:0:
256,192,76348,1,2,0:0:0:0:
256,192,76423,1,0,0:0:0:0:
256,192,76498,1,0,0:0:0:0:
256,192,76573,1,2,0:0:0:0:
256,192,76871,1,0,0:0:0:0:
256,192,77021,1,0,0:0:0:0:
256,192,77095,1,2,0:0:0:0:
256,192,77170,1,0,0:0:0:0:
256,192,77320,1,0,0:0:0:0:
256,192,77469,1,2,0:0:0:0:
256,192,77544,1,0,0:0:0:0:
256,192,77618,1,0,0:0:0:0:
256,192,77768,1,0,0:0:0:0:
256,192,77917,1,0,0:0:0:0:
256,192,77992,1,2,0:0:0:0:
256,192,78067,1,0,0:0:0:0:
256,192,78216,1,0,0:0:0:0:
256,192,78365,1,2,0:0:0:0:
256,192,78440,1,0,0:0:0:0:
256,192,78515,1,0,0:0:0:0:
256,192,78664,1,0,0:0:0:0:
256,192,78739,1,2,0:0:0:0:
256,192,78814,1,2,0:0:0:0:
256,192,78888,1,2,0:0:0:0:
256,192,78963,1,0,0:0:0:0:
256,192,79112,1,0,0:0:0:0:
256,192,79187,1,2,0:0:0:0:
256,192,79262,1,0,0:0:0:0:
256,192,79336,1,0,0:0:0:0:
256,192,79411,1,0,0:0:0:0:
256,192,79486,1,2,0:0:0:0:
256,192,79561,1,0,0:0:0:0:
256,192,79710,1,0,0:0:0:0:
256,192,79785,1,2,0:0:0:0:
256,192,79859,1,2,0:0:0:0:
256,192,79934,1,0,0:0:0:0:
256,192,80009,1,0,0:0:0:0:
256,192,80158,1,0,0:0:0:0:
256,192,80233,1,0,0:0:0:0:
256,192,80308,1,2,0:0:0:0:
256,192,80382,1,2,0:0:0:0:
256,192,80457,1,0,0:0:0:0:
256,192,80606,1,0,0:0:0:0:
256,192,80681,1,2,0:0:0:0:
256,192,80756,1,0,0:0:0:0:
256,192,80830,1,2,0:0:0:0:
256,192,80905,1,0,0:0:0:0:
256,192,81055,1,2,0:0:0:0:
256,192,81204,1,2,0:0:0:0:
256,192,81652,1,4,0:0:0:0:
256,192,82847,1,0,0:0:0:0:
256,192,83445,1,0,0:0:0:0:
256,192,83520,1,0,0:0:0:0:
256,192,83594,1,0,0:0:0:0:
256,192,83893,1,0,0:0:0:0:
256,192,84192,1,2,0:0:0:0:
256,192,84341,1,0,0:0:0:0:
256,192,84640,1,0,0:0:0:0:
256,192,84939,1,2,0:0:0:0:
256,192,85238,1,0,0:0:0:0:
256,192,85537,1,0,0:0:0:0:
256,192,85835,1,0,0:0:0:0:
256,192,85985,1,2,0:0:0:0:
256,192,86134,1,0,0:0:0:0:
256,192,86433,1,0,0:0:0:0:
256,192,86508,1,2,0:0:0:0:
256,192,86582,1,2,0:0:0:0:
256,192,86657,1,0,0:0:0:0:
256,192,86732,1,2,0:0:0:0:
256,192,86807,1,2,0:0:0:0:
256,192,86881,1,0,0:0:0:0:
256,192,86956,1,2,0:0:0:0:
256,192,87031,1,0,0:0:0:0:
256,192,87329,1,6,0:0:0:0:
256,192,87628,1,0,0:0:0:0:
256,192,87927,1,2,0:0:0:0:
256,192,88226,1,0,0:0:0:0:
256,192,88525,1,2,0:0:0:0:
256,192,88823,1,0,0:0:0:0:
256,192,88973,1,0,0:0:0:0:
256,192,89122,1,2,0:0:0:0:
256,192,89421,1,0,0:0:0:0:
256,192,89720,1,2,0:0:0:0:
256,192,89869,1,2,0:0:0:0:
256,192,89944,1,2,0:0:0:0:
256,192,90019,1,0,0:0:0:0:
256,192,90318,1,2,0:0:0:0:
256,192,90467,1,0,0:0:0:0:
256,192,90766,1,2,0:0:0:0:
256,192,90915,1,0,0:0:0:0:
256,192,91214,1,2,0:0:0:0:
256,192,91363,1,0,0:0:0:0:
256,192,91438,1,0,0:0:0:0:
256,192,91513,1,0,0:0:0:0:
256,192,91662,1,0,0:0:0:0:
256,192,91812,1,6,0:0:0:0:
256,192,91961,1,6,0:0:0:0:
256,192,92409,1,0,0:0:0:0:
256,192,92459,1,2,0:0:0:0:
256,192,92509,1,2,0:0:0:0:
256,192,92559,1,0,0:0:0:0:
256,192,92708,1,2,0:0:0:0:
256,192,92857,1,0,0:0:0:0:
256,192,93156,1,0,0:0:0:0:
256,192,93306,1,2,0:0:0:0:
256,192,93455,1,0,0:0:0:0:
256,192,93604,1,0,0:0:0:0:
256,192,93679,1,0,0:0:0:0:
256,192,93754,1,0,0:0:0:0:
256,192,93828,1,0,0:0:0:0:
256,192,93903,1,2,0:0:0:0:
256,192,94053,1,0,0:0:0:0:
256,192,94351,1,0,0:0:0:0:
256,192,94501,1,2,0:0:0:0:
256,192,94650,1,0,0:0:0:0:
256,192,94800,1,0,0:0:0:0:
256,192,94849,1,2,0:0:0:0:
256,192,94899,1,2,0:0:0:0:
256,192,94949,1,0,0:0:0:0:
256,192,95098,1,2,0:0:0:0:
256,192,95248,1,0,0:0:0:0:
256,192,95323,1,2,0:0:0:0:
256,192,95397,1,0,0:0:0:0:
256,192,95547,1,0,0:0:0:0:
256,192,95696,1,2,0:0:0:0:
256,192,95845,1,0,0:0:0:0:
256,192,95995,1,0,0:0:0:0:
256,192,96070,1,2,0:0:0:0:
256,192,96144,1,2,0:0:0:0:
256,192,96219,1,0,0:0:0:0:
256,192,96294,1,2,0:0:0:0:
256,192,96368,1,2,0:0:0:0:
256,192,96443,1,0,0:0:0:0:
256,192,96518,1,2,0:0:0:0:
256,192,96592,1,0,0:0:0:0:
256,192,96742,1,0,0:0:0:0:
256,192,96891,1,6,0:0:0:0:
256,192,97190,1,0,0:0:0:0:
256,192,97240,1,2,0:0:0:0:
256,192,97290,1,2,0:0:0:0:
256,192,97339,1,0,0:0:0:0:
256,192,97489,1,2,0:0:0:0:
256,192,97638,1,0,0:0:0:0:
256,192,97713,1,2,0:0:0:0:
256,192,97788,1,0,0:0:0:0:
256,192,97937,1,0,0:0:0:0:
256,192,98086,1,2,0:0:0:0:
256,192,98236,1,2,0:0:0:0:
256,192,98311,1,2,0:0:0:0:
256,192,98385,1,0,0:0:0:0:
256,192,98535,1,0,0:0:0:0:
256,192,98684,1,2,0:0:0:0:
256,192,98833,1,0,0:0:0:0:
256,192,98908,1,2,0:0:0:0:
256,192,98983,1,0,0:0:0:0:
256,192,99132,1,0,0:0:0:0:
256,192,99282,1,2,0:0:0:0:
256,192,99431,1,2,0:0:0:0:
256,192,99506,1,2,0:0:0:0:
256,192,99580,1,0,0:0:0:0:
256,192,100029,1,2,0:0:0:0:
256,192,100477,1,0,0:0:0:0:
256,192,100925,1,2,0:0:0:0:
256,192,101373,1,4,0:0:0:0:
256,192,101523,1,4,0:0:0:0:
256,192,101971,1,2,0:0:0:0:
256,192,102120,1,2,0:0:0:0:
256,192,102419,1,2,0:0:0:0:
256,192,102569,1,2,0:0:0:0:
256,192,102718,1,2,0:0:0:0:
256,192,103166,1,2,0:0:0:0:
256,192,103316,1,2,0:0:0:0:
256,192,103614,1,2,0:0:0:0:
256,192,103764,1,2,0:0:0:0:
256,192,103913,1,2,0:0:0:0:
256,192,104361,1,2,0:0:0:0:
256,192,104511,1,2,0:0:0:0:
256,192,104810,1,2,0:0:0:0:
256,192,104959,1,2,0:0:0:0:
256,192,105108,1,2,0:0:0:0:
256,192,105557,1,2,0:0:0:0:
256,192,105706,1,2,0:0:0:0:
256,192,106005,1,2,0:0:0:0:
256,192,106154,1,2,0:0:0:0:
256,192,106304,1,2,0:0:0:0:
256,192,106851,1,2,0:0:0:0:
256,192,106901,1,2,0:0:0:0:
256,192,106951,1,0,0:0:0:0:
256,192,107051,1,0,0:0:0:0:
256,192,107150,1,0,0:0:0:0:
256,192,107250,1,2,0:0:0:0:
256,192,107349,1,2,0:0:0:0:
256,192,107449,1,2,0:0:0:0:
256,192,107549,1,2,0:0:0:0:
256,192,107648,1,2,0:0:0:0:
256,192,108047,1,2,0:0:0:0:
256,192,108096,1,2,0:0:0:0:
256,192,108146,1,0,0:0:0:0:
256,192,108246,1,0,0:0:0:0:
256,192,108345,1,2,0:0:0:0:
256,192,108445,1,2,0:0:0:0:
256,192,108545,1,2,0:0:0:0:
256,192,108644,1,2,0:0:0:0:
256,192,108744,1,2,0:0:0:0:
256,192,108843,1,2,0:0:0:0:
256,192,109242,1,2,0:0:0:0:
256,192,109292,1,2,0:0:0:0:
256,192,109341,1,0,0:0:0:0:
256,192,109441,1,2,0:0:0:0:
256,192,109541,1,2,0:0:0:0:
256,192,109640,1,2,0:0:0:0:
256,192,109740,1,2,0:0:0:0:
256,192,109839,1,2,0:0:0:0:
256,192,109939,1,2,0:0:0:0:
256,192,110039,1,2,0:0:0:0:
256,192,110437,1,2,0:0:0:0:
256,192,110487,1,2,0:0:0:0:
256,192,110537,1,2,0:0:0:0:
256,192,110636,1,2,0:0:0:0:
256,192,110736,1,2,0:0:0:0:
256,192,110835,1,2,0:0:0:0:
256,192,110935,1,2,0:0:0:0:
256,192,111035,1,2,0:0:0:0:
256,192,111134,1,2,0:0:0:0:
256,192,111234,1,2,0:0:0:0:
256,192,111309,1,2,0:0:0:0:
256,192,111383,1,2,0:0:0:0:
256,192,111458,1,2,0:0:0:0:
256,192,111533,1,0,0:0:0:0:
256,192,111607,1,2,0:0:0:0:
256,192,111682,1,0,0:0:0:0:
256,192,111981,1,0,0:0:0:0:
256,192,112130,2,0,L|480:192,1,210
256,192,112728,1,0,0:0:0:0:
256,192,112877,1,2,0:0:0:0:
256,192,112952,1,2,0:0:0:0:
256,192,113027,1,0,0:0:0:0:
256,192,113176,1,2,0:0:0:0:
256,192,113325,1,0,0:0:0:0:
256,192,113400,1,2,0:0:0:0:
256,192,113475,1,0,0:0:0:0:
256,192,113624,1,0,0:0:0:0:
256,192,113774,1,2,0:0:0:0:
256,192,113848,1,2,0:0:0:0:
256,192,113923,1,0,0:0:0:0:
256,192,114073,1,2,0:0:0:0:
256,192,114222,1,0,0:0:0:0:
256,192,114297,1,2,0:0:0:0:
256,192,114371,1,2,0:0:0:0:
256,192,114446,1,2,0:0:0:0:
256,192,114521,1,0,0:0:0:0:
256,192,114820,1,2,0:0:0:0:
256,192,115118,1,0,0:0:0:0:
256,192,115268,1,0,0:0:0:0:
256,192,115342,1,2,0:0:0:0:
256,192,115417,1,0,0:0:0:0:
256,192,115567,1,2,0:0:0:0:
256,192,115716,1,0,0:0:0:0:
256,192,115791,1,2,0:0:0:0:
256,192,115865,1,0,0:0:0:0:
256,192,115940,1,0,0:0:0:0:
256,192,116015,1,2,0:0:0:0:
256,192,116164,1,0,0:0:0:0:
256,192,116463,1,0,0:0:0:0:
256,192,116538,1,2,0:0:0:0:
256,192,116612,1,2,0:0:0:0:
256,192,116762,1,0,0:0:0:0:
256,192,116836,1,0,0:0:0:0:
256,192,116911,1,0,0:0:0:0:
256,192,116986,1,0,0:0:0:0:
256,192,117061,1,2,0:0:0:0:
256,192,117210,1,2,0:0:0:0:
256,192,117509,1,0,0:0:0:0:
256,192,117658,1,2,0:0:0:0:
256,192,117733,1,2,0:0:0:0:
256,192,117808,1,0,0:0:0:0:
256,192,117957,1,2,0:0:0:0:
256,192,118106,1,0,0:0:0:0:
256,192,118181,1,2,0:0:0:0:
256,192,118256,1,0,0:0:0:0:
256,192,118405,1,0,0:0:0:0:
256,192,118555,1,2,0:0:0:0:
256,192,118629,1,2,0:0:0:0:
256,192,118704,1,0,0:0:0:0:
256,192,118853,1,2,0:0:0:0:
256,192,119003,1,0,0:0:0:0:
256,192,119077,1,2,0:0:0:0:
256,192,119152,1,2,0:0:0:0:
256,192,119227,1,2,0:0:0:0:
256,192,119302,1,0,0:0:0:0:
256,192,119451,1,2,0:0:0:0:
256,192,119600,1,0,0:0:0:0:
256,192,119750,1,0,0:0:0:0:
256,192,119824,1,2,0:0:0:0:
256,192,119899,1,0,0:0:0:0:
256,192,119974,1,0,0:0:0:0:
256,192,120049,1,0,0:0:0:0:
256,192,120123,1,2,0:0:0:0:
256,192,120198,1,0,0:0:0:0:
256,192,120347,1,0,0:0:0:0:
256,192,120422,1,2,0:0:0:0:
256,192,120497,1,2,0:0:0:0:
256,192,120572,1,0,0:0:0:0:
256,192,120646,1,0,0:0:0:0:
256,192,120796,1,0,0:0:0:0:
256,192,120870,1,0,0:0:0:0:
256,192,120945,1,2,0:0:0:0:
256,192,121020,1,2,0:0:0:0:
256,192,121094,1,0,0:0:0:0:
256,192,121244,1,0,0:0:0:0:
256,192,121319,1,2,0:0:0:0:
256,192,121393,1,0,0:0:0:0:
256,192,121468,1,2,0:0:0:0:
256,192,121543,1,0,0:0:0:0:
256,192,121692,1,2,0:0:0:0:
256,192,121841,1,2,0:0:0:0:
256,192,122290,1,0,0:0:0:0:
256,192,122364,1,0,0:0:0:0:
256,192,122439,1,0,0:0:0:0:
256,192,122514,1,0,0:0:0:0:
256,192,122588,1,0,0:0:0:0:
256,192,122738,1,2,0:0:0:0:
256,192,122813,1,0,0:0:0:0:
256,192,122887,1,0,0:0:0:0:
256,192,123037,1,0,0:0:0:0:
256,192,123186,1,2,0:0:0:0:
256,192,123335,1,2,0:0:0:0:
256,192,123410,1,0,0:0:0:0:
256,192,123485,1,0,0:0:0:0:
256,192,123634,1,0,0:0:0:0:
256,192,123784,1,2,0:0:0:0:
256,192,123858,1,2,0:0:0:0:
256,192,123933,1,2,0:0:0:0:
256,192,124008,1,2,0:0:0:0:
256,192,124082,1,0,0:0:0:0:
256,192,124232,1,0,0:0:0:0:
256,192,124381,1,2,0:0:0:0:
256,192,124456,1,0,0:0:0:0:
256,192,124531,1,0,0:0:0:0:
256,192,124680,1,0,0:0:0:0:
256,192,124755,1,0,0:0:0:0:
256,192,124829,1,0,0:0:0:0:
256,192,124904,1,0,0:0:0:0:
256,192,124979,1,0,0:0:0:0:
256,192,125128,1,2,0:0:0:0:
256,192,125203,1,0,0:0:0:0:
256,192,125278,1,0,0:0:0:0:
256,192,125427,1,0,0:0:0:0:
256,192,125576,1,2,0:0:0:0:
256,192,125726,1,0,0:0:0:0:
256,192,126025,1,0,0:0:0:0:
256,192,126074,1,2,0:0:0:0:
256,192,126124,1,2,0:0:0:0:
256,192,126174,1,0,0:0:0:0:
256,192,126323,1,0,0:0:0:0:
256,192,126622,1,0,0:0:0:0:
256,192,126672,1,2,0:0:0:0:
256,192,126722,1,2,0:0:0:0:
256,192,126772,1,0,0:0:0:0:
256,192,126921,1,0,0:0:0:0:
256,192,127071,1,2,0:0:0:0:
256,192,127145,1,2,0:0:0:0:
256,192,127220,1,2,0:0:0:0:
256,192,127295,1,2,0:0:0:0:
256,192,127369,1,0,0:0:0:0:
256,192,127519,1,2,0:0:0:0:
256,192,127593,1,2,0:0:0:0:
256,192,127668,1,2,0:0:0:0:
256,192,127743,1,0,0:0:0:0:
256,192,127818,1,0,0:0:0:0:
256,192,127967,1,2,0:0:0:0:
256,192,128042,1,2,0:0:0:0:
256,192,128116,1,0,0:0:0:0:
256,192,128191,1,0,0:0:0:0:
256,192,128266,1,0,0:0:0:0:
256,192,128415,1,2,0:0:0:0:
256,192,128490,1,0,0:0:0:0:
256,192,128565,1,0,0:0:0:0:
256,192,128639,1,0,0:0:0:0:
256,192,128714,1,0,0:0:0:0:
256,192,128863,1,0,0:0:0:0:
256,192,128938,1,0,0:0:0:0:
256,192,129013,1,0,0:0:0:0:
256,192,129087,1,0,0:0:0:0:
256,192,129162,1,0,0:0:0:0:
256,192,129312,1,0,0:0:0:0:
256,192,129386,1,0,0:0:0:0:
256,192,129461,1,0,0:0:0:0:
256,192,129536,1,2,0:0:0:0:
256,192,129610,1,2,0:0:0:0:
256,192,129685,1,2,0:0:0:0:
256,192,129760,1,0,0:0:0:0:
256,192,129834,1,0,0:0:0:0:
256,192,129909,1,0,0:0:0:0:
256,192,129984,1,2,0:0:0:0:
256,192,130059,1,2,0:0:0:0:
256,192,130133,1,2,0:0:0:0:
256,192,130208,1,0,0:0:0:0:
256,192,130283,1,0,0:0:0:0:
256,192,130357,1,0,0:0:0:0:
256,192,130432,1,2,0:0:0:0:
256,192,130507,1,2,0:0:0:0:
256,192,130581,1,2,0:0:0:0:
256,192,130656,1,0,0:0:0:0:
256,192,130731,1,0,0:0:0:0:
256,192,130806,1,0,0:0:0:0:
256,192,130955,1,0,0:0:0:0:
256,192,131104,1,0,0:0:0:0:
256,192,131254,1,6,0:0:0:0:
256,192,131403,1,6,0:0:0:0:
256,192,131851,1,0,0:0:0:0:
256,192,132150,1,2,0:0:0:0:
256,192,132200,1,2,0:0:0:0:
256,192,132250,1,2,0:0:0:0:
256,192,132300,1,0,0:0:0:0:
256,192,132598,1,2,0:0:0:0:
256,192,132648,1,2,0:0:0:0:
256,192,132698,1,2,0:0:0:0:
256,192,132748,1,0,0:0:0:0:
256,192,133047,1,0,0:0:0:0:
256,192,133121,1,0,0:0:0:0:
256,192,133196,1,0,0:0:0:0:
256,192,133345,1,0,0:0:0:0:
256,192,133495,1,0,0:0:0:0:
256,192,133644,1,6,0:0:0:0:
256,192,133794,1,6,0:0:0:0:
