osu file format v14

[General]
AudioFilename: tenshikourin.ogg
AudioLeadIn: 0
PreviewTime: 1154
Countdown: 0
SampleSet: Normal
StackLeniency: 0.7
Mode: 3
LetterboxInBreaks: 0
SpecialStyle: 0
WidescreenStoryboard: 0

[Editor]
DistanceSpacing: 0.8
BeatDivisor: 2
GridSize: 32
TimelineZoom: 1

[Metadata]
Title:Tenshi Kourin
TitleUnicode:天使光輪
Artist:REDALiCE & cosMo@BousouP
ArtistUnicode:REDALiCE & cosMo@暴走P
Creator:AutotelicBrown
Version:Hyper
Source:WACCA S
Tags:FAMoss ANGEL HALO 大熊まい TOHRU MiTSUHASHi electronic hardcore techno tano*c j-core jcore Tokyo WACCA video game instrumental
BeatmapID:3156250
BeatmapSetID:1544167

[Difficulty]
HPDrainRate:8
CircleSize:4
OverallDifficulty:7.7
ApproachRate:5
SliderMultiplier:1.4
SliderTickRate:1

[Events]
//Background and Video events
0,0,"bg.jpg",0,0
//Break Periods
//Storyboard Layer 0 (Background)
//Storyboard Layer 1 (Fail)
//Storyboard Layer 2 (Pass)
//Storyboard Layer 3 (Foreground)
//Storyboard Layer 4 (Overlay)
//Storyboard Sound Samples
Sample,92040,0,"tom01.wav",70
Sample,109035,0,"Clap Drum.wav",100

[TimingPoints]
1154,295.566502,4,1,1,60,1,0
30858,-100,4,1,1,40,0,0
35439,-100,4,1,1,50,0,0
40316,-100,4,1,1,40,0,0
40612,-100,4,1,1,50,0,0
40907,-100,4,1,1,60,0,0
41351,-100,4,1,1,60,0,1
49626,-100,4,1,1,40,0,0
51991,-100,4,1,1,50,0,0
54355,-100,4,1,1,60,0,0
78001,-100,4,1,1,30,0,0
86277,-100,4,1,1,40,0,0
86868,-100,4,1,1,50,0,0
92188,-100,4,1,1,30,0,0
92779,-100,4,1,1,35,0,0
93370,-100,4,1,1,40,0,0
93961,-100,4,1,1,45,0,0
94553,-100,4,1,1,50,0,0
95144,-100,4,1,1,60,0,0
118198,-100,4,1,1,60,0,1
135932,-100,4,1,1,60,0,0

[HitObjects]
64,192,1154,5,2,0:0:0:0:
192,192,1154,1,4,0:0:0:0:
448,192,1154,1,0,0:0:0:0:
192,192,1301,1,2,0:0:0:0:
320,192,1301,1,0,0:0:0:0:
64,192,2188,1,2,0:0:0:0:
192,192,2188,1,0,0:0:0:0:
64,192,2484,1,2,0:0:0:0:
320,192,2484,1,0,0:0:0:0:
192,192,3518,1,2,0:0:0:0:
448,192,3518,1,0,0:0:0:0:
320,192,3666,1,2,0:0:0:0:
448,192,3666,1,0,0:0:0:0:
64,192,4700,1,2,0:0:0:0:
448,192,4700,1,0,0:0:0:0:
64,192,4996,1,8,0:0:0:0:
64,192,5144,1,8,0:0:0:0:
192,192,5291,1,2,0:0:0:0:
320,192,5291,1,0,0:0:0:0:
448,192,5439,1,0,0:0:0:70:tom02.wav
192,192,5513,1,0,0:0:0:70:tom03.wav
320,192,5587,1,0,0:0:0:70:tom01.wav
64,192,5661,1,0,0:0:0:70:tom02.wav
448,192,5735,1,0,0:0:0:70:tom03.wav
320,192,5809,1,0,0:0:0:70:tom04.wav
64,192,5883,1,6,0:0:0:0:
192,192,6030,1,2,0:0:0:0:
448,192,6104,1,8,0:0:0:0:
64,192,6178,1,2,0:0:0:0:
320,192,6178,1,8,0:0:0:0:
448,192,6326,1,8,0:0:0:0:
320,192,6474,1,10,0:0:0:0:
64,192,6695,1,8,0:0:0:0:
192,192,6769,1,2,0:0:0:0:
448,192,6769,1,8,0:0:0:0:
64,192,6917,1,8,0:0:0:0:
320,192,7065,1,10,0:0:0:0:
192,192,7213,1,2,0:0:0:0:
448,192,7287,1,8,0:0:0:0:
64,192,7360,1,2,0:0:0:0:
320,192,7360,1,8,0:0:0:0:
448,192,7508,1,8,0:0:0:0:
320,192,7656,1,10,0:0:0:0:
64,192,7878,1,8,0:0:0:0:
192,192,7952,1,2,0:0:0:0:
448,192,7952,1,8,0:0:0:0:
320,192,8099,1,10,0:0:0:0:
64,192,8247,128,2,8395:0:0:0:0:
192,192,8543,128,2,8690:0:0:0:0:
320,192,8838,128,2,8986:0:0:0:0:
448,192,9134,128,2,9429:0:0:0:0:
192,192,9429,1,2,0:0:0:0:
320,192,9725,1,0,0:0:0:0:
64,192,10020,1,0,0:0:0:0:
192,192,10316,1,0,0:0:0:70:VEC4 Snares 151.wav
448,192,10316,1,0,0:0:0:0:
320,192,10612,1,2,0:0:0:0:
64,192,10907,1,4,0:0:0:0:
192,192,10907,1,2,0:0:0:0:
448,192,10907,1,0,0:0:0:100:Clap Drum.wav
320,192,11055,1,0,0:0:0:0:
192,192,11203,1,2,0:0:0:0:
448,192,11351,1,0,0:0:0:0:
320,192,11498,1,2,0:0:0:0:
64,192,11646,1,0,0:0:0:0:
448,192,11794,1,2,0:0:0:0:
192,192,11942,1,0,0:0:0:0:
64,192,12089,1,2,0:0:0:0:
320,192,12237,1,0,0:0:0:0:
192,192,12385,1,2,0:0:0:0:
448,192,12533,1,0,0:0:0:0:
320,192,12681,1,2,0:0:0:0:
64,192,12828,1,0,0:0:0:0:
320,192,12976,1,2,0:0:0:0:
192,192,13124,1,0,0:0:0:0:
64,192,13272,1,2,0:0:0:0:
320,192,13420,1,0,0:0:0:0:
192,192,13567,1,2,0:0:0:0:
448,192,13715,1,0,0:0:0:0:
192,192,13863,1,2,0:0:0:0:
320,192,13863,1,8,0:0:0:0:
64,192,14011,1,8,0:0:0:0:
320,192,14085,1,8,0:0:0:0:
64,192,14158,128,2,14306:0:0:0:0:
192,192,14158,128,0,14306:0:0:0:100:Clap Drum.wav
320,192,14454,128,2,14602:0:0:0:0:
448,192,14454,128,0,14602:0:0:0:100:Clap Drum.wav
64,192,14750,1,2,0:0:0:0:
320,192,14823,1,2,0:0:0:0:
192,192,14897,1,2,0:0:0:0:
64,192,15045,1,0,0:0:0:70:VEC4 Snares 151.wav
448,192,15045,1,0,0:0:0:0:
320,192,15341,1,2,0:0:0:0:
320,192,15488,1,2,0:0:0:0:
64,192,15636,1,14,0:0:0:0:
192,192,15636,1,0,0:0:0:100:Clap Drum.wav
320,192,15784,1,0,0:0:0:0:
192,192,15932,1,2,0:0:0:0:
448,192,16080,1,0,0:0:0:0:
64,192,16227,1,2,0:0:0:0:
192,192,16227,1,8,0:0:0:0:
320,192,16375,1,0,0:0:0:0:
64,192,16523,1,2,0:0:0:0:
448,192,16671,1,0,0:0:0:0:
192,192,16819,1,2,0:0:0:0:
320,192,16819,1,8,0:0:0:0:
64,192,16966,1,0,0:0:0:0:
448,192,17114,1,2,0:0:0:0:
192,192,17262,1,0,0:0:0:0:
320,192,17410,1,2,0:0:0:0:
448,192,17410,1,8,0:0:0:0:
192,192,17557,1,8,0:0:0:0:
448,192,17557,1,0,0:0:0:0:
64,192,17705,1,2,0:0:0:0:
192,192,17779,1,8,0:0:0:0:
320,192,17779,1,0,0:0:0:0:
448,192,17927,1,2,0:0:0:0:
64,192,18001,1,8,0:0:0:0:
192,192,18001,1,0,0:0:0:0:
320,192,18149,1,2,0:0:0:0:
64,192,18222,1,8,0:0:0:0:
448,192,18222,1,0,0:0:0:0:
192,192,18370,1,2,0:0:0:0:
320,192,18444,1,8,0:0:0:0:
448,192,18444,1,0,0:0:0:0:
64,192,18518,1,2,0:0:0:0:
192,192,18592,1,2,0:0:0:0:
64,192,18666,1,8,0:0:0:0:
448,192,18666,1,0,0:0:0:0:
320,192,18740,1,2,0:0:0:0:
64,192,18887,1,2,0:0:0:0:
192,192,18887,1,4,0:0:0:0:
448,192,18887,1,0,0:0:0:0:
64,192,19479,1,0,0:0:0:70:tom01.wav
192,192,19553,1,0,0:0:0:70:tom01.wav
320,192,19626,1,0,0:0:0:70:tom02.wav
64,192,19700,1,0,0:0:0:70:tom02.wav
448,192,19774,1,0,0:0:0:70:tom03.wav
320,192,19848,1,0,0:0:0:70:tom03.wav
192,192,19922,1,0,0:0:0:70:tom04.wav
64,192,19996,1,0,0:0:0:70:tom04.wav
320,192,20070,1,2,0:0:0:0:
448,192,20070,1,4,0:0:0:0:
64,192,20365,1,10,0:0:0:0:
192,192,20365,1,0,0:0:0:100:Clap Drum.wav
64,192,20513,1,2,0:0:0:0:
448,192,20513,1,0,0:0:0:0:
64,192,20661,1,2,0:0:0:0:
320,192,20809,1,0,0:0:0:0:
192,192,20956,1,2,0:0:0:0:
448,192,20956,1,8,0:0:0:0:
64,192,21030,1,0,0:0:0:0:
192,192,21252,1,2,0:0:0:0:
320,192,21252,1,0,0:0:0:0:
64,192,21548,1,2,0:0:0:0:
192,192,21548,1,8,0:0:0:0:
448,192,21695,1,0,0:0:0:0:
64,192,21843,1,2,0:0:0:0:
320,192,21991,1,0,0:0:0:0:
192,192,22139,1,2,0:0:0:0:
448,192,22139,1,8,0:0:0:0:
64,192,22287,1,0,0:0:0:0:
320,192,22434,1,2,0:0:0:0:
448,192,22434,1,0,0:0:0:0:
64,192,22656,1,0,0:0:0:0:
320,192,22730,1,10,0:0:0:0:
192,192,22878,1,0,0:0:0:0:
448,192,23025,1,2,0:0:0:0:
64,192,23099,1,0,0:0:0:0:
192,192,23321,1,10,0:0:0:0:
320,192,23395,1,8,0:0:0:0:
64,192,23469,1,8,0:0:0:0:
320,192,23543,1,8,0:0:0:0:
64,192,23617,128,2,23764:0:0:0:0:
192,192,23617,128,0,23764:0:0:0:100:Clap Drum.wav
320,192,23912,128,2,24060:0:0:0:0:
448,192,23912,128,0,24060:0:0:0:100:Clap Drum.wav
64,192,24208,1,2,0:0:0:0:
192,192,24503,1,0,0:0:0:70:VEC4 Snares 151.wav
64,192,24577,1,0,0:0:0:0:
320,192,24651,1,0,0:0:0:0:
448,192,24725,1,0,0:0:0:0:
192,192,24799,1,10,0:0:0:0:
320,192,24873,1,10,0:0:0:0:
192,192,24947,1,10,0:0:0:0:
64,192,25094,1,6,0:0:0:0:
320,192,25094,1,8,0:0:0:0:
448,192,25242,1,0,0:0:0:0:
64,192,25390,1,10,0:0:0:0:
320,192,25538,1,0,0:0:0:0:
192,192,25686,1,2,0:0:0:0:
448,192,25686,1,8,0:0:0:0:
64,192,25759,1,0,0:0:0:0:
192,192,25981,1,2,0:0:0:0:
320,192,25981,1,8,0:0:0:0:
448,192,26129,1,0,0:0:0:0:
320,192,26203,1,0,0:0:0:0:
64,192,26277,1,2,0:0:0:0:
192,192,26277,1,8,0:0:0:0:
448,192,26424,1,0,0:0:0:0:
320,192,26572,1,10,0:0:0:0:
64,192,26720,1,0,0:0:0:0:
448,192,26794,1,0,0:0:0:0:
192,192,26868,1,10,0:0:0:0:
320,192,26942,1,8,0:0:0:0:
64,192,27016,1,8,0:0:0:0:
448,192,27089,1,8,0:0:0:0:
192,192,27163,1,4,0:0:0:0:
320,192,27163,1,2,0:0:0:0:
64,192,27311,1,2,0:0:0:0:
448,192,27459,1,2,0:0:0:0:
320,192,27607,1,2,0:0:0:0:
192,192,27754,1,2,0:0:0:0:
64,192,27828,1,2,0:0:0:0:
448,192,27902,1,2,0:0:0:0:
192,192,27976,1,2,0:0:0:0:
320,192,28050,1,2,0:0:0:0:
64,192,28124,1,2,0:0:0:0:
448,192,28198,1,2,0:0:0:0:
192,192,28272,1,2,0:0:0:0:
320,192,28346,1,2,0:0:0:0:
448,192,28346,1,4,0:0:0:0:
192,192,28641,1,0,0:0:0:0:
320,192,28789,1,0,0:0:0:0:
64,192,28937,1,8,0:0:0:0:
448,192,29085,1,2,0:0:0:0:
192,192,29232,1,8,0:0:0:0:
320,192,29232,1,0,0:0:0:0:
64,192,29380,1,2,0:0:0:0:
448,192,29528,1,2,0:0:0:0:
448,192,29823,1,2,0:0:0:0:
192,192,29971,128,2,30119:0:0:0:0:
64,192,30119,1,0,0:0:0:70:VEC4 Snares 151.wav
320,192,30119,128,0,30415:0:0:0:0:
448,192,30415,128,0,30710:0:0:0:0:
64,192,30710,1,2,0:0:0:0:
192,192,30710,1,4,0:0:0:0:
320,192,30710,1,0,0:0:0:100:Clap Drum.wav
64,192,31153,1,2,0:0:0:0:
448,192,31153,1,0,0:0:0:0:
192,192,31301,1,0,0:0:0:0:
64,192,31892,1,2,0:0:0:0:
320,192,31892,1,0,0:0:0:0:
192,192,32040,1,0,0:0:0:0:
320,192,32188,1,0,0:0:0:0:
192,192,32336,1,2,0:0:0:0:
448,192,32336,1,0,0:0:0:0:
64,192,32484,1,0,0:0:0:0:
64,192,32927,1,2,0:0:0:0:
192,192,33075,1,2,0:0:0:0:
320,192,33075,1,0,0:0:0:0:
64,192,33518,1,2,0:0:0:0:
192,192,33518,1,0,0:0:0:0:
448,192,33666,1,0,0:0:0:0:
64,192,33961,1,0,0:0:0:0:
192,192,34109,1,0,0:0:0:0:
320,192,34257,1,0,0:0:0:0:
448,192,34257,1,0,0:0:0:0:
64,192,34405,1,2,0:0:0:0:
64,192,34553,1,2,0:0:0:0:
192,192,34700,1,0,0:0:0:0:
448,192,34700,1,0,0:0:0:0:
320,192,34848,1,0,0:0:0:70:h06.wav
448,192,35144,1,0,0:0:0:70:tom01.wav
192,192,35218,1,0,0:0:0:70:tom02.wav
320,192,35291,1,0,0:0:0:70:tom03.wav
64,192,35365,1,0,0:0:0:70:tom04.wav
192,192,35439,1,6,0:0:0:0:
448,192,35439,1,0,0:0:0:100:Clap Drum.wav
64,192,35883,1,2,0:0:0:0:
192,192,35883,1,0,0:0:0:0:
64,192,36030,1,8,0:0:0:0:
448,192,36030,1,0,0:0:0:0:
320,192,36178,1,2,0:0:0:0:
192,192,36326,1,0,0:0:0:0:
320,192,36621,1,0,0:0:0:0:
448,192,36621,1,0,0:0:0:0:
64,192,36769,1,2,0:0:0:0:
64,192,36917,1,2,0:0:0:0:
448,192,36917,1,0,0:0:0:0:
192,192,37065,1,0,0:0:0:0:
320,192,37065,1,0,0:0:0:0:
64,192,37213,1,8,0:0:0:0:
320,192,37213,1,0,0:0:0:0:
448,192,37360,1,0,0:0:0:0:
64,192,37508,1,0,0:0:0:0:
192,192,37582,1,0,0:0:0:0:
320,192,37656,1,2,0:0:0:0:
448,192,37730,1,0,0:0:0:0:
64,192,37804,1,2,0:0:0:0:
192,192,37804,1,0,0:0:0:0:
320,192,38247,1,2,0:0:0:0:
448,192,38247,1,0,0:0:0:0:
64,192,38395,1,8,0:0:0:0:
448,192,38395,1,0,0:0:0:0:
192,192,38543,1,2,0:0:0:0:
320,192,38690,1,0,0:0:0:0:
192,192,38986,1,0,0:0:0:0:
448,192,38986,1,0,0:0:0:0:
64,192,39134,1,2,0:0:0:0:
192,192,39282,1,8,0:0:0:0:
320,192,39282,1,2,0:0:0:0:
448,192,39429,1,0,0:0:0:0:
64,192,39725,1,8,0:0:0:0:
192,192,39725,1,0,0:0:0:0:
320,192,39799,1,8,0:0:0:0:
448,192,39799,1,0,0:0:0:0:
64,192,39873,1,8,0:0:0:0:
192,192,39873,1,0,0:0:0:0:
320,192,40020,1,8,0:0:0:0:
448,192,40020,1,0,0:0:0:0:
64,192,40168,128,6,40612:0:0:0:0:
448,192,40612,128,8,40759:0:0:0:0:
192,192,40759,1,8,0:0:0:0:
320,192,40833,1,8,0:0:0:0:
64,192,40907,1,8,0:0:0:0:
448,192,40981,1,8,0:0:0:0:
192,192,41055,1,0,0:0:0:70:VEC4 Snares 151.wav
320,192,41055,1,0,0:0:0:0:
64,192,41351,1,2,0:0:0:0:
448,192,41351,1,4,0:0:0:0:
192,192,41572,1,0,0:0:0:0:
448,192,41794,1,0,0:0:0:0:
320,192,42089,1,0,0:0:0:0:
192,192,42237,1,10,0:0:0:0:
64,192,42385,1,0,0:0:0:0:
448,192,42533,1,2,0:0:0:0:
320,192,42607,1,0,0:0:0:0:
64,192,42681,1,0,0:0:0:0:
192,192,42754,1,0,0:0:0:0:
320,192,42828,1,10,0:0:0:0:
448,192,42902,1,0,0:0:0:0:
64,192,42976,1,0,0:0:0:0:
320,192,43050,1,0,0:0:0:0:
192,192,43124,1,2,0:0:0:0:
448,192,43198,1,0,0:0:0:0:
64,192,43272,1,0,0:0:0:0:
192,192,43346,1,0,0:0:0:0:
320,192,43420,1,10,0:0:0:0:
448,192,43567,1,0,0:0:0:0:
320,192,43715,1,2,0:0:0:0:
448,192,44011,1,10,0:0:0:0:
192,192,44085,1,0,0:0:0:0:
320,192,44158,1,0,0:0:0:0:
64,192,44232,1,0,0:0:0:0:
448,192,44306,1,2,0:0:0:0:
64,192,44380,1,0,0:0:0:0:
320,192,44454,1,0,0:0:0:0:
192,192,44528,1,0,0:0:0:0:
64,192,44602,1,0,0:0:0:70:tom01.wav
448,192,44676,1,0,0:0:0:70:tom02.wav
192,192,44750,1,0,0:0:0:70:tom03.wav
64,192,44823,1,0,0:0:0:70:tom04.wav
320,192,44897,1,2,0:0:0:0:
448,192,44971,1,0,0:0:0:0:
64,192,45045,1,2,0:0:0:0:
192,192,45119,1,0,0:0:0:0:
448,192,45193,1,10,0:0:0:0:
320,192,45267,1,0,0:0:0:0:
192,192,45341,1,0,0:0:0:0:
64,192,45415,1,0,0:0:0:0:
320,192,45488,1,2,0:0:0:0:
448,192,45562,1,0,0:0:0:0:
192,192,45636,1,0,0:0:0:0:
64,192,45710,1,0,0:0:0:0:
448,192,45784,1,10,0:0:0:0:
192,192,45858,1,0,0:0:0:0:
320,192,45932,1,0,0:0:0:0:
64,192,46006,1,0,0:0:0:0:
192,192,46080,1,2,0:0:0:0:
320,192,46153,1,2,0:0:0:0:
448,192,46227,1,2,0:0:0:0:
192,192,46301,1,2,0:0:0:0:
64,192,46375,1,10,0:0:0:0:
448,192,46449,1,0,0:0:0:0:
192,192,46523,1,0,0:0:0:0:
320,192,46597,1,0,0:0:0:0:
64,192,46671,1,2,0:0:0:0:
448,192,46745,1,0,0:0:0:0:
320,192,46819,1,0,0:0:0:0:
192,192,46892,1,0,0:0:0:0:
64,192,46966,1,10,0:0:0:0:
448,192,47040,1,0,0:0:0:0:
192,192,47114,1,0,0:0:0:0:
320,192,47188,1,0,0:0:0:0:
448,192,47262,1,2,0:0:0:0:
320,192,47484,1,0,0:0:0:0:
64,192,47705,1,2,0:0:0:0:
192,192,47779,1,0,0:0:0:0:
448,192,47853,1,2,0:0:0:0:
64,192,47927,1,0,0:0:0:0:
320,192,48001,1,8,0:0:0:0:
192,192,48075,1,0,0:0:0:0:
448,192,48149,1,2,0:0:0:0:
64,192,48296,1,2,0:0:0:0:
320,192,48444,1,2,0:0:0:0:
192,192,48666,1,0,0:0:0:0:
64,192,48887,1,0,0:0:0:0:
448,192,49035,1,0,0:0:0:70:tom01.wav
320,192,49109,1,0,0:0:0:70:tom01.wav
192,192,49183,1,0,0:0:0:70:tom02.wav
448,192,49257,1,0,0:0:0:70:tom02.wav
320,192,49331,1,0,0:0:0:70:tom03.wav
64,192,49405,1,0,0:0:0:70:tom03.wav
192,192,49479,1,0,0:0:0:70:tom04.wav
320,192,49553,1,0,0:0:0:70:tom04.wav
64,192,49626,1,6,0:0:0:0:
448,192,49626,1,0,0:0:0:100:Clap Drum.wav
320,192,49725,1,0,0:0:0:0:
192,192,49823,1,0,0:0:0:0:
448,192,49922,1,0,0:0:0:0:
320,192,50020,1,0,0:0:0:0:
192,192,50119,1,0,0:0:0:0:
64,192,50218,1,0,0:0:0:0:
192,192,50316,1,0,0:0:0:0:
320,192,50415,1,0,0:0:0:0:
448,192,50513,1,0,0:0:0:0:
320,192,50612,1,0,0:0:0:0:
192,192,50710,1,0,0:0:0:0:
64,192,50809,1,0,0:0:0:0:
192,192,50907,1,0,0:0:0:0:
448,192,51006,1,0,0:0:0:0:
320,192,51104,1,2,0:0:0:0:
192,192,51203,1,0,0:0:0:0:
448,192,51301,1,0,0:0:0:0:
64,192,51400,1,0,0:0:0:0:
192,192,51498,1,0,0:0:0:0:
448,192,51597,1,0,0:0:0:0:
320,192,51695,1,0,0:0:0:0:
192,192,51794,1,0,0:0:0:0:
448,192,51892,1,0,0:0:0:0:
192,192,51991,1,0,0:0:0:0:
320,192,52089,1,0,0:0:0:0:
64,192,52188,1,0,0:0:0:0:
448,192,52287,1,0,0:0:0:0:
64,192,52385,1,0,0:0:0:0:
320,192,52484,1,0,0:0:0:0:
192,192,52582,1,0,0:0:0:0:
320,192,52681,1,0,0:0:0:0:
64,192,52779,1,0,0:0:0:0:
448,192,52878,1,2,0:0:0:0:
64,192,52976,1,0,0:0:0:0:
320,192,53075,1,0,0:0:0:0:
192,192,53173,1,0,0:0:0:0:
448,192,53272,1,0,0:0:0:0:
64,192,53370,1,0,0:0:0:0:
320,192,53469,1,0,0:0:0:0:
64,192,53567,1,0,0:0:0:0:
192,192,53666,1,0,0:0:0:0:
448,192,53764,128,2,54060:0:0:0:0:
64,192,54060,128,0,54355:0:0:0:0:
192,192,54355,1,2,0:0:0:0:
320,192,54355,1,4,0:0:0:0:
448,192,54355,1,0,0:0:0:0:
64,192,54947,1,2,0:0:0:0:
320,192,55020,1,2,0:0:0:0:
192,192,55094,1,2,0:0:0:0:
320,192,55242,1,2,0:0:0:0:
64,192,55316,1,2,0:0:0:0:
192,192,55390,1,2,0:0:0:0:
64,192,55538,1,4,0:0:0:0:
448,192,55538,1,2,0:0:0:0:
448,192,56129,1,2,0:0:0:0:
192,192,56203,1,2,0:0:0:0:
320,192,56277,1,2,0:0:0:0:
192,192,56424,1,2,0:0:0:0:
448,192,56498,1,2,0:0:0:0:
320,192,56572,1,2,0:0:0:0:
64,192,56720,1,4,0:0:0:0:
448,192,56720,1,2,0:0:0:0:
192,192,56819,1,2,0:0:0:0:
64,192,56917,1,2,0:0:0:0:
320,192,57016,1,4,0:0:0:0:
448,192,57016,1,2,0:0:0:0:
192,192,57114,1,2,0:0:0:0:
320,192,57213,1,2,0:0:0:0:
64,192,57311,1,2,0:0:0:0:
192,192,57311,1,4,0:0:0:0:
448,192,57410,1,2,0:0:0:0:
64,192,57508,1,2,0:0:0:0:
192,192,57607,1,4,0:0:0:0:
320,192,57607,1,2,0:0:0:0:
448,192,57705,1,2,0:0:0:0:
320,192,57804,1,2,0:0:0:0:
64,192,57902,1,2,0:0:0:0:
192,192,57902,1,4,0:0:0:0:
320,192,58346,1,2,0:0:0:0:
192,192,58420,1,2,0:0:0:0:
320,192,58493,1,2,0:0:0:0:
448,192,58493,1,4,0:0:0:0:
64,192,58789,1,0,0:0:0:70:tom01.wav
448,192,58863,1,0,0:0:0:70:tom02.wav
320,192,58937,1,0,0:0:0:70:tom03.wav
192,192,59011,1,0,0:0:0:70:tom04.wav
64,192,59085,1,2,0:0:0:0:
448,192,59085,1,4,0:0:0:0:
320,192,59232,1,0,0:0:0:0:
192,192,59306,1,0,0:0:0:0:
320,192,59380,1,0,0:0:0:0:
448,192,59528,1,2,0:0:0:0:
320,192,59676,1,0,0:0:0:0:
192,192,59823,1,2,0:0:0:0:
448,192,59971,1,2,0:0:0:0:
64,192,60119,1,2,0:0:0:0:
192,192,60267,1,6,0:0:0:0:
64,192,60341,1,0,0:0:0:0:
320,192,60415,1,0,0:0:0:0:
192,192,60488,1,0,0:0:0:0:
448,192,60562,1,2,0:0:0:0:
64,192,60636,1,0,0:0:0:0:
192,192,60710,1,0,0:0:0:0:
320,192,60784,1,0,0:0:0:0:
448,192,60858,1,2,0:0:0:0:
64,192,60932,1,0,0:0:0:0:
192,192,61006,1,0,0:0:0:0:
448,192,61080,1,0,0:0:0:0:
320,192,61153,1,0,0:0:0:70:VEC4 Snares 151.wav
64,192,61227,1,0,0:0:0:0:
192,192,61301,1,0,0:0:0:0:
448,192,61375,1,0,0:0:0:0:
64,192,61449,1,2,0:0:0:0:
320,192,61449,1,4,0:0:0:0:
192,192,61745,1,10,0:0:0:0:
64,192,61892,1,0,0:0:0:0:
192,192,62188,1,0,0:0:0:0:
320,192,62484,1,0,0:0:0:0:
448,192,62779,1,0,0:0:0:0:
320,192,63075,1,0,0:0:0:0:
64,192,63518,1,0,0:0:0:0:
192,192,63592,1,0,0:0:0:0:
320,192,63666,1,0,0:0:0:0:
448,192,63740,1,0,0:0:0:0:
192,192,63814,1,6,0:0:0:0:
64,192,63887,1,0,0:0:0:0:
448,192,63961,1,2,0:0:0:0:
320,192,64035,1,0,0:0:0:0:
64,192,64109,1,10,0:0:0:0:
448,192,64183,1,0,0:0:0:0:
192,192,64257,1,0,0:0:0:0:
64,192,64331,1,0,0:0:0:0:
320,192,64405,1,2,0:0:0:0:
64,192,64553,1,0,0:0:0:0:
192,192,64700,1,10,0:0:0:0:
448,192,64848,1,0,0:0:0:0:
320,192,64996,1,2,0:0:0:0:
192,192,65070,1,0,0:0:0:0:
448,192,65144,1,0,0:0:0:0:
64,192,65218,1,0,0:0:0:0:
320,192,65291,1,10,0:0:0:0:
192,192,65365,1,0,0:0:0:0:
64,192,65439,1,0,0:0:0:0:
320,192,65587,1,2,0:0:0:0:
448,192,65661,1,8,0:0:0:0:
192,192,65735,1,0,0:0:0:0:
320,192,65809,1,8,0:0:0:0:
64,192,65883,1,8,0:0:0:0:
448,192,66030,1,6,0:0:0:0:
64,192,66178,1,2,0:0:0:0:
192,192,66178,1,4,0:0:0:0:
320,192,66252,1,2,0:0:0:0:
192,192,66326,1,2,0:0:0:0:
448,192,66400,1,2,0:0:0:0:
64,192,66474,1,2,0:0:0:0:
320,192,66548,1,2,0:0:0:0:
192,192,66621,1,2,0:0:0:0:
448,192,66695,1,2,0:0:0:0:
64,192,66769,1,2,0:0:0:0:
320,192,66843,1,2,0:0:0:0:
192,192,66917,1,2,0:0:0:0:
448,192,66991,1,2,0:0:0:0:
64,192,67213,1,6,0:0:0:0:
320,192,67360,1,2,0:0:0:0:
448,192,67360,1,4,0:0:0:0:
192,192,67434,1,2,0:0:0:0:
448,192,67508,1,2,0:0:0:0:
64,192,67582,1,2,0:0:0:0:
320,192,67656,1,2,0:0:0:0:
192,192,67730,1,2,0:0:0:0:
448,192,67804,1,2,0:0:0:0:
64,192,67878,1,2,0:0:0:0:
320,192,67952,1,2,0:0:0:0:
192,192,68025,1,2,0:0:0:0:
448,192,68099,1,2,0:0:0:0:
64,192,68173,1,2,0:0:0:0:
192,192,68247,1,0,0:0:0:70:tom01.wav
320,192,68321,1,0,0:0:0:70:tom02.wav
64,192,68395,1,0,0:0:0:70:tom03.wav
448,192,68469,1,0,0:0:0:70:tom04.wav
192,192,68543,1,0,0:0:0:70:amenbreak_kick2.wav
320,192,68690,1,0,0:0:0:0:
192,192,68764,1,0,0:0:0:0:
320,192,68838,1,0,0:0:0:100:amenbreak_snare2.wav
448,192,68986,1,0,0:0:0:70:amenbreak_kick2.wav
192,192,69134,1,0,0:0:0:0:
64,192,69282,1,0,0:0:0:100:amenbreak_snare2.wav
320,192,69429,1,0,0:0:0:70:amenbreak_kick2.wav
64,192,69577,1,0,0:0:0:0:
448,192,69725,1,0,0:0:0:70:amenbreak_kick2.wav
192,192,69799,1,0,0:0:0:0:
320,192,69873,1,0,0:0:0:0:
448,192,69947,1,0,0:0:0:70:amenbreak_kick2.wav
64,192,70020,1,0,0:0:0:100:amenbreak_snare2.wav
320,192,70094,1,0,0:0:0:0:
192,192,70168,1,0,0:0:0:70:amenbreak_kick2.wav
448,192,70242,1,0,0:0:0:0:
320,192,70316,1,0,0:0:0:70:amenbreak_kick2.wav
64,192,70464,1,0,0:0:0:70:amenbreak_kick2.wav
192,192,70612,1,0,0:0:0:70:VEC4 Snares 151.wav
320,192,70907,1,2,0:0:0:0:
448,192,70907,1,4,0:0:0:0:
192,192,71203,1,10,0:0:0:0:
64,192,71351,1,0,0:0:0:0:
192,192,71646,1,0,0:0:0:0:
320,192,71942,1,0,0:0:0:0:
192,192,72237,1,0,0:0:0:0:
448,192,72533,1,0,0:0:0:0:
64,192,72976,1,0,0:0:0:70:tom01.wav
320,192,73050,1,0,0:0:0:70:tom02.wav
192,192,73124,1,0,0:0:0:70:tom03.wav
448,192,73198,1,0,0:0:0:70:tom04.wav
64,192,73272,1,14,0:0:0:0:
192,192,73420,1,0,0:0:0:0:
448,192,73493,1,8,0:0:0:0:
320,192,73567,1,0,0:0:0:0:
64,192,73641,1,0,0:0:0:0:
192,192,73715,1,8,0:0:0:0:
320,192,73789,1,0,0:0:0:0:
448,192,73863,1,8,0:0:0:0:
64,192,74011,1,0,0:0:0:0:
448,192,74085,1,8,0:0:0:0:
320,192,74158,1,2,0:0:0:0:
192,192,74306,1,2,0:0:0:0:
320,192,74380,1,2,0:0:0:0:
64,192,74454,1,14,0:0:0:0:
192,192,74602,1,0,0:0:0:0:
448,192,74676,1,8,0:0:0:0:
192,192,74823,1,0,0:0:0:0:
320,192,74897,1,8,0:0:0:0:
448,192,75045,1,10,0:0:0:0:
320,192,75119,1,0,0:0:0:0:
64,192,75193,1,0,0:0:0:0:
192,192,75267,1,10,0:0:0:0:
448,192,75341,1,8,0:0:0:0:
192,192,75488,1,10,0:0:0:0:
320,192,75636,1,2,0:0:0:0:
448,192,75636,1,4,0:0:0:0:
64,192,75710,1,2,0:0:0:0:
320,192,75784,1,2,0:0:0:0:
192,192,75858,1,2,0:0:0:0:
448,192,75932,1,2,0:0:0:0:
64,192,76006,1,2,0:0:0:0:
320,192,76080,1,2,0:0:0:0:
192,192,76153,1,2,0:0:0:0:
448,192,76227,1,2,0:0:0:0:
64,192,76301,1,2,0:0:0:0:
320,192,76375,1,2,0:0:0:0:
192,192,76449,1,2,0:0:0:0:
448,192,76523,1,2,0:0:0:0:
64,192,76597,1,2,0:0:0:0:
192,192,76671,1,2,0:0:0:0:
320,192,76671,1,4,0:0:0:0:
64,192,76819,1,2,0:0:0:0:
448,192,76819,1,4,0:0:0:0:
192,192,76966,1,0,0:0:0:0:
448,192,77040,1,0,0:0:0:0:
320,192,77114,1,0,0:0:0:0:
64,192,77262,1,0,0:0:0:0:
192,192,77410,1,0,0:0:0:0:
64,192,77557,1,0,0:0:0:0:
320,192,77705,1,0,0:0:0:70:tom01.wav
192,192,77779,1,0,0:0:0:70:tom02.wav
448,192,77853,1,0,0:0:0:70:tom03.wav
64,192,77927,1,0,0:0:0:70:tom04.wav
192,192,78001,1,4,0:0:0:0:
320,192,78001,1,0,0:0:0:0:
448,192,78099,1,0,0:0:0:0:
64,192,78198,1,0,0:0:0:0:
320,192,78296,1,0,0:0:0:0:
192,192,78395,1,0,0:0:0:0:
448,192,78493,1,0,0:0:0:0:
64,192,78592,1,0,0:0:0:70:Clap.wav
320,192,78690,1,0,0:0:0:0:
192,192,78789,1,0,0:0:0:0:
64,192,78887,1,0,0:0:0:0:
320,192,78986,1,0,0:0:0:0:
448,192,79085,1,0,0:0:0:0:
192,192,79183,1,0,0:0:0:0:
64,192,79282,1,0,0:0:0:0:
320,192,79380,1,0,0:0:0:0:
64,192,79479,1,2,0:0:0:0:
192,192,79577,1,0,0:0:0:0:
448,192,79676,1,0,0:0:0:0:
320,192,79774,1,0,0:0:0:70:Clap.wav
64,192,79873,1,0,0:0:0:0:
320,192,79971,1,0,0:0:0:0:
448,192,80070,1,0,0:0:0:0:
192,192,80168,1,0,0:0:0:0:
320,192,80267,1,0,0:0:0:0:
64,192,80365,1,2,0:0:0:0:
448,192,80464,1,0,0:0:0:0:
320,192,80562,1,0,0:0:0:0:
192,192,80661,1,0,0:0:0:0:
320,192,80759,1,0,0:0:0:0:
64,192,80858,1,0,0:0:0:0:
192,192,80956,1,0,0:0:0:70:Clap.wav
64,192,81055,1,0,0:0:0:0:
320,192,81153,1,0,0:0:0:0:
448,192,81252,1,2,0:0:0:0:
192,192,81351,1,0,0:0:0:0:
320,192,81449,1,0,0:0:0:0:
64,192,81548,1,0,0:0:0:0:
192,192,81646,1,0,0:0:0:0:
448,192,81745,1,0,0:0:0:0:
320,192,81843,1,0,0:0:0:0:
192,192,81942,1,0,0:0:0:0:
448,192,82040,1,0,0:0:0:0:
64,192,82139,1,0,0:0:0:70:Clap.wav
192,192,82237,1,0,0:0:0:0:
320,192,82336,1,0,0:0:0:0:
192,192,82434,1,0,0:0:0:0:
320,192,82533,1,0,0:0:0:0:
448,192,82631,1,0,0:0:0:0:
64,192,82730,1,0,0:0:0:0:
320,192,82828,1,0,0:0:0:0:
192,192,82927,1,0,0:0:0:0:
448,192,83025,1,0,0:0:0:0:
320,192,83124,1,0,0:0:0:0:
448,192,83222,1,0,0:0:0:0:
192,192,83321,1,0,0:0:0:70:Clap.wav
320,192,83420,1,0,0:0:0:0:
64,192,83518,1,0,0:0:0:0:
320,192,83617,1,0,0:0:0:0:
192,192,83715,1,0,0:0:0:0:
448,192,83814,1,0,0:0:0:0:
64,192,83912,1,0,0:0:0:0:
320,192,84011,1,0,0:0:0:0:
192,192,84109,1,0,0:0:0:0:
64,192,84208,1,2,0:0:0:0:
320,192,84306,1,0,0:0:0:0:
448,192,84405,1,0,0:0:0:0:
320,192,84503,1,0,0:0:0:70:Clap.wav
64,192,84602,1,0,0:0:0:0:
192,192,84700,1,0,0:0:0:0:
448,192,84799,1,0,0:0:0:0:
64,192,84897,1,0,0:0:0:0:
320,192,84996,1,0,0:0:0:0:
192,192,85094,1,2,0:0:0:0:
64,192,85193,1,0,0:0:0:0:
320,192,85291,1,0,0:0:0:0:
192,192,85390,1,0,0:0:0:0:
448,192,85488,1,0,0:0:0:0:
64,192,85587,1,0,0:0:0:0:
320,192,85686,1,0,0:0:0:70:Clap.wav
192,192,85784,1,0,0:0:0:0:
320,192,85883,1,0,0:0:0:0:
448,192,85981,1,2,0:0:0:0:
64,192,86080,1,0,0:0:0:0:
192,192,86178,1,0,0:0:0:0:
320,192,86277,1,0,0:0:0:0:
448,192,86868,1,0,0:0:0:70:tom01.wav
320,192,86942,1,0,0:0:0:70:tom01.wav
192,192,87016,1,0,0:0:0:70:tom02.wav
64,192,87089,1,0,0:0:0:70:tom02.wav
448,192,87163,1,0,0:0:0:70:tom03.wav
192,192,87237,1,0,0:0:0:70:tom03.wav
320,192,87311,1,0,0:0:0:70:tom04.wav
64,192,87385,1,0,0:0:0:70:tom04.wav
192,192,87459,1,2,0:0:0:0:
448,192,87459,1,4,0:0:0:0:
320,192,87607,1,0,0:0:0:0:
64,192,87681,1,0,0:0:0:0:
448,192,87828,1,0,0:0:0:0:
448,192,88124,1,0,0:0:0:0:
64,192,88198,1,0,0:0:0:0:
320,192,88272,1,0,0:0:0:0:
64,192,88420,1,0,0:0:0:0:
192,192,88493,1,0,0:0:0:0:
448,192,88715,1,0,0:0:0:0:
192,192,88789,1,0,0:0:0:0:
320,192,88863,1,0,0:0:0:0:
64,192,89011,1,0,0:0:0:0:
448,192,89085,1,0,0:0:0:0:
64,192,89158,1,0,0:0:0:0:
448,192,89232,1,0,0:0:0:70:Clap.wav
192,192,89528,1,0,0:0:0:70:Clap.wav
320,192,89823,1,0,0:0:0:70:Clap.wav
64,192,89971,1,0,0:0:0:0:
192,192,90119,1,0,0:0:0:70:Clap.wav
320,192,90267,1,0,0:0:0:0:
64,192,90415,1,0,0:0:0:70:Clap.wav
448,192,90562,1,0,0:0:0:0:
192,192,90710,1,0,0:0:0:70:Clap.wav
320,192,90858,1,0,0:0:0:0:
64,192,91006,1,8,0:0:0:0:
448,192,91006,1,0,0:0:0:0:
192,192,91153,1,8,0:0:0:0:
448,192,91301,1,8,0:0:0:0:
64,192,91449,1,8,0:0:0:0:
320,192,91597,1,8,0:0:0:0:
192,192,91745,1,0,0:0:0:0:
448,192,91892,1,8,0:0:0:0:
64,192,92040,1,8,0:0:0:0:
192,192,92188,1,4,0:0:0:0:
320,192,92188,1,8,0:0:0:0:
64,192,92336,1,4,0:0:0:0:
448,192,92336,1,8,0:0:0:0:
192,192,92410,1,0,0:0:0:0:
320,192,92484,1,0,0:0:0:0:
320,192,92779,1,10,0:0:0:0:
64,192,92927,1,8,0:0:0:0:
192,192,93001,1,8,0:0:0:0:
64,192,93149,1,8,0:0:0:0:
320,192,93222,1,8,0:0:0:0:
192,192,93370,1,10,0:0:0:0:
448,192,93370,1,4,0:0:0:0:
64,192,93518,1,8,0:0:0:0:
320,192,93518,1,4,0:0:0:0:
448,192,93592,1,8,0:0:0:0:
192,192,93740,1,8,0:0:0:0:
320,192,93814,1,8,0:0:0:0:
64,192,93961,1,10,0:0:0:0:
192,192,94109,1,8,0:0:0:0:
448,192,94183,1,8,0:0:0:0:
64,192,94331,1,8,0:0:0:0:
192,192,94405,1,8,0:0:0:0:
320,192,94553,1,6,0:0:0:0:
448,192,94553,1,8,0:0:0:0:
64,192,94700,1,4,0:0:0:0:
192,192,94700,1,8,0:0:0:0:
448,192,94848,1,10,0:0:0:0:
320,192,94996,1,8,0:0:0:0:
64,192,95144,1,10,0:0:0:0:
320,192,95218,1,8,0:0:0:0:
192,192,95291,1,8,0:0:0:0:
448,192,95365,1,8,0:0:0:0:
64,192,95439,1,10,0:0:0:0:
192,192,95513,1,8,0:0:0:0:
320,192,95587,1,8,0:0:0:0:
448,192,95661,1,8,0:0:0:0:
64,192,95735,1,2,0:0:0:0:
192,192,95735,1,4,0:0:0:0:
320,192,95809,1,0,0:0:0:0:
64,192,95883,1,0,0:0:0:0:
448,192,96030,1,0,0:0:0:0:
192,192,96178,1,0,0:0:0:0:
320,192,96326,1,0,0:0:0:0:
64,192,96474,1,2,0:0:0:0:
192,192,96621,1,0,0:0:0:70:VEC4 Snares 151.wav
64,192,96769,1,0,0:0:0:0:
192,192,96917,1,2,0:0:0:0:
448,192,96917,1,4,0:0:0:0:
64,192,97065,1,0,0:0:0:0:
192,192,97139,1,2,0:0:0:0:
320,192,97213,1,0,0:0:0:0:
448,192,97360,1,2,0:0:0:0:
64,192,97508,1,2,0:0:0:0:
320,192,97656,1,0,0:0:0:0:
192,192,97804,1,0,0:0:0:0:
64,192,97952,1,2,0:0:0:0:
192,192,98099,1,2,0:0:0:0:
64,192,98173,1,0,0:0:0:0:
320,192,98247,1,8,0:0:0:0:
192,192,98321,1,2,0:0:0:0:
448,192,98395,1,0,0:0:0:0:
64,192,98469,1,8,0:0:0:0:
192,192,98543,1,2,0:0:0:0:
448,192,98617,1,0,0:0:0:0:
320,192,98690,1,2,0:0:0:0:
64,192,98764,1,0,0:0:0:0:
192,192,98838,1,2,0:0:0:0:
320,192,98912,1,0,0:0:0:0:
64,192,98986,1,0,0:0:0:70:VEC4 Snares 151.wav
448,192,98986,1,0,0:0:0:0:
192,192,99282,1,6,0:0:0:0:
320,192,99282,1,0,0:0:0:100:Clap Drum.wav
64,192,99429,1,0,0:0:0:0:
320,192,99503,1,0,0:0:0:0:
192,192,99651,1,0,0:0:0:0:
448,192,99725,1,0,0:0:0:0:
320,192,99873,1,2,0:0:0:0:
448,192,100020,1,0,0:0:0:0:
64,192,100094,1,0,0:0:0:0:
192,192,100242,1,0,0:0:0:0:
320,192,100316,1,0,0:0:0:0:
448,192,100464,1,2,0:0:0:0:
64,192,100612,1,0,0:0:0:0:
320,192,100686,1,0,0:0:0:0:
448,192,100833,1,0,0:0:0:0:
192,192,100907,1,0,0:0:0:0:
64,192,101055,1,2,0:0:0:0:
448,192,101203,1,0,0:0:0:0:
192,192,101277,1,0,0:0:0:0:
64,192,101424,1,0,0:0:0:0:
320,192,101498,1,0,0:0:0:0:
448,192,101646,1,2,0:0:0:0:
192,192,101720,1,0,0:0:0:0:
320,192,101794,1,2,0:0:0:0:
64,192,101868,1,0,0:0:0:0:
448,192,101942,1,10,0:0:0:0:
320,192,102016,1,0,0:0:0:0:
192,192,102089,1,0,0:0:0:0:
64,192,102163,1,0,0:0:0:0:
320,192,102237,1,2,0:0:0:0:
448,192,102385,1,0,0:0:0:0:
64,192,102533,1,10,0:0:0:0:
192,192,102681,1,0,0:0:0:0:
448,192,102828,1,2,0:0:0:0:
320,192,102902,1,0,0:0:0:0:
192,192,102976,1,0,0:0:0:0:
64,192,103050,1,0,0:0:0:0:
448,192,103124,1,10,0:0:0:0:
192,192,103198,1,0,0:0:0:0:
320,192,103272,1,0,0:0:0:0:
64,192,103346,1,0,0:0:0:0:
192,192,103420,1,2,0:0:0:0:
448,192,103567,1,0,0:0:0:0:
64,192,103715,1,10,0:0:0:0:
320,192,103863,1,0,0:0:0:0:
192,192,104011,1,10,0:0:0:0:
320,192,104158,1,8,0:0:0:0:
64,192,104232,1,0,0:0:0:0:
192,192,104380,1,0,0:0:0:0:
448,192,104454,1,8,0:0:0:0:
320,192,104602,1,10,0:0:0:0:
448,192,104750,1,8,0:0:0:0:
64,192,104823,1,8,0:0:0:0:
192,192,104971,1,8,0:0:0:0:
320,192,105045,1,8,0:0:0:0:
64,192,105193,1,2,0:0:0:0:
448,192,105193,1,4,0:0:0:0:
192,192,105341,1,8,0:0:0:0:
320,192,105415,1,2,0:0:0:0:
448,192,105415,1,4,0:0:0:0:
64,192,105562,1,8,0:0:0:0:
192,192,105636,1,2,0:0:0:0:
320,192,105636,1,4,0:0:0:0:
448,192,105784,1,2,0:0:0:0:
64,192,105858,1,0,0:0:0:0:
320,192,105932,1,8,0:0:0:0:
192,192,106006,1,0,0:0:0:0:
448,192,106080,1,0,0:0:0:70:tom01.wav
192,192,106375,1,2,0:0:0:0:
320,192,106375,1,4,0:0:0:0:
64,192,106523,1,6,0:0:0:0:
192,192,106597,1,0,0:0:0:0:
320,192,106671,1,0,0:0:0:100:amenbreak_snare2.wav
64,192,106819,1,0,0:0:0:70:amenbreak_kick2.wav
448,192,106966,1,0,0:0:0:0:
320,192,107114,1,0,0:0:0:100:amenbreak_snare2.wav
192,192,107262,1,0,0:0:0:70:amenbreak_kick2.wav
64,192,107410,1,0,0:0:0:0:
448,192,107557,1,0,0:0:0:70:amenbreak_kick2.wav
64,192,107631,1,0,0:0:0:0:
192,192,107705,1,0,0:0:0:0:
320,192,107779,1,0,0:0:0:70:amenbreak_kick2.wav
64,192,107853,1,0,0:0:0:100:amenbreak_snare2.wav
448,192,107927,1,0,0:0:0:0:
192,192,108001,1,0,0:0:0:70:amenbreak_kick2.wav
320,192,108075,1,0,0:0:0:0:
64,192,108149,1,2,0:0:0:0:
320,192,108296,1,0,0:0:0:70:amenbreak_kick2.wav
448,192,108444,1,0,0:0:0:0:
192,192,108740,1,2,0:0:0:0:
320,192,108740,1,4,0:0:0:0:
448,192,108814,1,2,0:0:0:0:
64,192,108887,1,2,0:0:0:0:
192,192,108961,1,2,0:0:0:0:
320,192,109035,1,10,0:0:0:0:
64,192,109183,1,0,0:0:0:0:
320,192,109257,1,0,0:0:0:0:
448,192,109331,1,2,0:0:0:0:
192,192,109479,1,0,0:0:0:0:
64,192,109626,1,10,0:0:0:0:
448,192,109700,1,0,0:0:0:0:
192,192,109774,1,0,0:0:0:0:
320,192,109848,1,0,0:0:0:0:
448,192,109922,1,2,0:0:0:0:
64,192,110070,1,0,0:0:0:0:
192,192,110144,1,0,0:0:0:0:
320,192,110291,1,0,0:0:0:0:
64,192,110365,1,0,0:0:0:0:
192,192,110513,1,2,0:0:0:0:
448,192,110661,1,0,0:0:0:0:
320,192,110735,1,0,0:0:0:0:
64,192,110883,1,0,0:0:0:0:
448,192,110956,1,0,0:0:0:0:
64,192,111030,1,0,0:0:0:0:
448,192,111104,1,14,0:0:0:0:
64,192,111326,1,0,0:0:0:0:
320,192,111400,1,10,0:0:0:0:
192,192,111474,1,0,0:0:0:0:
448,192,111548,1,0,0:0:0:0:
64,192,111621,1,0,0:0:0:0:
192,192,111695,1,10,0:0:0:0:
448,192,111843,1,0,0:0:0:0:
64,192,111917,1,0,0:0:0:0:
320,192,111991,1,10,0:0:0:0:
192,192,112139,1,0,0:0:0:0:
448,192,112213,1,0,0:0:0:0:
64,192,112287,1,2,0:0:0:0:
320,192,112434,1,0,0:0:0:0:
448,192,112508,1,0,0:0:0:0:
64,192,112656,1,0,0:0:0:0:
192,192,112730,1,0,0:0:0:0:
448,192,112878,1,10,0:0:0:0:
320,192,112952,1,0,0:0:0:0:
192,192,113025,1,0,0:0:0:0:
64,192,113099,1,0,0:0:0:0:
448,192,113173,1,10,0:0:0:0:
192,192,113247,1,0,0:0:0:0:
320,192,113321,1,0,0:0:0:0:
64,192,113395,1,0,0:0:0:0:
192,192,113469,1,2,0:0:0:0:
448,192,113469,1,4,0:0:0:0:
64,192,113617,1,2,0:0:0:0:
320,192,113690,1,10,0:0:0:0:
192,192,113838,1,0,0:0:0:0:
448,192,113912,1,2,0:0:0:0:
64,192,114060,1,2,0:0:0:0:
320,192,114060,1,4,0:0:0:0:
448,192,114208,1,2,0:0:0:0:
320,192,114282,1,10,0:0:0:0:
64,192,114429,1,0,0:0:0:0:
192,192,114503,1,2,0:0:0:0:
320,192,114651,1,0,0:0:0:70:amenbreak_kick2.wav
64,192,114799,1,0,0:0:0:0:
448,192,114873,1,0,0:0:0:0:
192,192,114947,1,0,0:0:0:100:amenbreak_snare2.wav
64,192,115020,1,0,0:0:0:0:
320,192,115094,1,0,0:0:0:70:amenbreak_kick2.wav
448,192,115242,1,0,0:0:0:0:
64,192,115316,1,0,0:0:0:0:
320,192,115390,1,0,0:0:0:100:amenbreak_snare2.wav
192,192,115464,1,0,0:0:0:0:
448,192,115538,1,0,0:0:0:70:amenbreak_kick2.wav
192,192,115833,1,12,0:0:0:0:
320,192,115833,1,2,0:0:0:0:
64,192,117016,1,8,0:0:0:0:
192,192,117311,1,8,0:0:0:0:
320,192,117607,1,0,0:0:0:70:tom01.wav
448,192,117902,128,0,118050:0:0:0:70:tom03.wav
64,192,118198,1,6,0:0:0:0:
320,192,118198,1,0,0:0:0:100:Clap Drum.wav
448,192,118272,1,0,0:0:0:0:
192,192,118346,1,0,0:0:0:0:
320,192,118420,1,0,0:0:0:0:
64,192,118493,1,10,0:0:0:0:
448,192,118567,1,0,0:0:0:0:
192,192,118641,1,0,0:0:0:0:
320,192,118715,1,0,0:0:0:0:
448,192,118789,1,2,0:0:0:0:
64,192,118863,1,0,0:0:0:0:
320,192,118937,1,0,0:0:0:0:
192,192,119011,1,0,0:0:0:0:
448,192,119085,1,10,0:0:0:0:
64,192,119158,1,0,0:0:0:0:
320,192,119232,1,0,0:0:0:0:
192,192,119306,1,0,0:0:0:0:
64,192,119380,1,2,0:0:0:0:
448,192,119454,1,0,0:0:0:0:
192,192,119528,1,0,0:0:0:0:
320,192,119602,1,0,0:0:0:0:
64,192,119676,1,10,0:0:0:0:
448,192,119750,1,0,0:0:0:0:
192,192,119823,1,0,0:0:0:0:
320,192,119897,1,0,0:0:0:0:
448,192,119971,1,2,0:0:0:0:
64,192,120045,1,0,0:0:0:0:
320,192,120119,1,0,0:0:0:0:
192,192,120193,1,0,0:0:0:0:
448,192,120267,1,10,0:0:0:0:
64,192,120341,1,0,0:0:0:0:
320,192,120415,1,0,0:0:0:0:
192,192,120488,1,0,0:0:0:0:
448,192,120562,1,2,0:0:0:0:
320,192,120784,1,0,0:0:0:0:
192,192,121006,1,0,0:0:0:0:
64,192,121153,1,2,0:0:0:0:
192,192,121301,1,0,0:0:0:0:
448,192,121449,1,10,0:0:0:0:
320,192,121597,1,0,0:0:0:0:
448,192,122040,1,10,0:0:0:0:
192,192,122114,1,0,0:0:0:0:
320,192,122188,1,0,0:0:0:0:
448,192,122262,1,0,0:0:0:0:
64,192,122336,1,2,0:0:0:0:
64,192,122484,1,0,0:0:0:0:
320,192,122631,1,10,0:0:0:0:
320,192,122779,1,0,0:0:0:0:
192,192,122927,1,2,0:0:0:0:
448,192,123001,1,0,0:0:0:0:
192,192,123075,1,0,0:0:0:0:
448,192,123149,1,0,0:0:0:0:
320,192,123222,1,10,0:0:0:0:
192,192,123370,1,0,0:0:0:0:
64,192,123666,1,0,0:0:0:0:
448,192,123814,1,10,0:0:0:0:
192,192,123887,1,0,0:0:0:0:
320,192,123961,1,0,0:0:0:0:
64,192,124035,1,0,0:0:0:0:
448,192,124109,1,2,0:0:0:0:
192,192,124183,1,0,0:0:0:0:
320,192,124257,1,0,0:0:0:0:
64,192,124331,1,0,0:0:0:0:
448,192,124405,1,10,0:0:0:0:
192,192,124503,1,0,0:0:0:0:
320,192,124602,1,0,0:0:0:0:
448,192,124700,1,2,0:0:0:0:
320,192,124774,1,0,0:0:0:0:
192,192,124848,1,0,0:0:0:0:
448,192,124922,1,0,0:0:0:0:
64,192,124996,1,10,0:0:0:0:
320,192,125070,1,0,0:0:0:0:
192,192,125144,1,0,0:0:0:0:
448,192,125218,1,0,0:0:0:0:
320,192,125291,1,2,0:0:0:0:
192,192,125365,1,0,0:0:0:0:
64,192,125439,1,0,0:0:0:0:
448,192,125513,1,0,0:0:0:0:
192,192,125587,1,10,0:0:0:0:
320,192,125661,1,0,0:0:0:0:
64,192,125735,1,0,0:0:0:0:
192,192,125809,1,0,0:0:0:0:
448,192,125883,1,2,0:0:0:0:
320,192,126104,1,0,0:0:0:0:
192,192,126326,1,0,0:0:0:0:
64,192,126474,1,2,0:0:0:0:
448,192,126474,1,4,0:0:0:0:
320,192,126548,1,0,0:0:0:0:
192,192,126621,1,0,0:0:0:0:
64,192,126695,1,2,0:0:0:0:
448,192,126769,1,0,0:0:0:0:
192,192,126843,1,0,0:0:0:0:
320,192,126917,1,2,0:0:0:0:
64,192,126991,1,0,0:0:0:0:
448,192,127065,1,2,0:0:0:0:
192,192,127139,1,0,0:0:0:0:
320,192,127213,1,2,0:0:0:0:
64,192,127287,1,0,0:0:0:0:
192,192,127360,1,0,0:0:0:70:tom01.wav
64,192,127656,1,6,0:0:0:0:
448,192,127656,1,0,0:0:0:100:Clap Drum.wav
320,192,127730,1,0,0:0:0:0:
192,192,127804,1,0,0:0:0:0:
448,192,127878,1,0,0:0:0:0:
64,192,127952,1,10,0:0:0:0:
320,192,128099,1,0,0:0:0:0:
192,192,128173,1,0,0:0:0:0:
448,192,128247,1,2,0:0:0:0:
320,192,128321,1,0,0:0:0:0:
64,192,128395,1,0,0:0:0:0:
448,192,128543,1,10,0:0:0:0:
320,192,128617,1,0,0:0:0:0:
192,192,128690,1,0,0:0:0:0:
448,192,128764,1,0,0:0:0:0:
64,192,128838,1,2,0:0:0:0:
320,192,128986,1,0,0:0:0:0:
192,192,129060,1,0,0:0:0:0:
448,192,129134,1,10,0:0:0:0:
320,192,129208,1,0,0:0:0:0:
64,192,129282,1,0,0:0:0:0:
192,192,129429,1,2,0:0:0:0:
320,192,129503,1,0,0:0:0:0:
448,192,129577,1,0,0:0:0:0:
64,192,129651,1,0,0:0:0:0:
192,192,129725,1,10,0:0:0:0:
320,192,129799,1,0,0:0:0:0:
448,192,129873,1,0,0:0:0:0:
320,192,130020,1,2,0:0:0:0:
192,192,130094,1,0,0:0:0:0:
448,192,130168,1,0,0:0:0:0:
320,192,130242,1,0,0:0:0:0:
64,192,130316,1,10,0:0:0:0:
448,192,130464,1,0,0:0:0:0:
320,192,130538,1,0,0:0:0:0:
192,192,130612,1,2,0:0:0:0:
448,192,130686,1,0,0:0:0:0:
64,192,130759,1,0,0:0:0:0:
320,192,130907,1,10,0:0:0:0:
192,192,130981,1,0,0:0:0:0:
448,192,131055,1,0,0:0:0:0:
320,192,131129,1,0,0:0:0:0:
64,192,131203,1,2,0:0:0:0:
192,192,131203,1,4,0:0:0:0:
448,192,131351,1,0,0:0:0:0:
64,192,131424,1,0,0:0:0:0:
320,192,131498,1,0,0:0:0:0:
192,192,131572,1,0,0:0:0:0:
64,192,131646,1,0,0:0:0:0:
448,192,131794,1,0,0:0:0:70:tom01.wav
320,192,131868,1,0,0:0:0:70:tom02.wav
192,192,131942,1,0,0:0:0:70:tom03.wav
64,192,132016,1,0,0:0:0:70:tom04.wav
448,192,132089,1,2,0:0:0:0:
320,192,132163,1,2,0:0:0:0:
192,192,132237,1,2,0:0:0:0:
320,192,132385,1,2,0:0:0:0:
448,192,132385,1,4,0:0:0:0:
64,192,132459,1,2,0:0:0:0:
192,192,132607,1,2,0:0:0:0:
320,192,132607,1,0,0:0:0:0:
448,192,132681,1,2,0:0:0:0:
64,192,132828,1,2,0:0:0:0:
192,192,132828,1,0,0:0:0:0:
320,192,132902,1,2,0:0:0:0:
64,192,133050,1,2,0:0:0:0:
448,192,133050,1,0,0:0:0:0:
192,192,133124,1,2,0:0:0:0:
64,192,133272,1,2,0:0:0:0:
320,192,133272,1,0,0:0:0:0:
448,192,133346,1,0,0:0:0:0:
64,192,133567,1,2,0:0:0:0:
192,192,133567,1,4,0:0:0:0:
320,192,133641,1,2,0:0:0:0:
64,192,133789,1,2,0:0:0:0:
448,192,133789,1,0,0:0:0:0:
192,192,133863,1,2,0:0:0:0:
320,192,134011,1,2,0:0:0:0:
448,192,134011,1,0,0:0:0:0:
64,192,134085,1,2,0:0:0:0:
192,192,134232,1,2,0:0:0:0:
320,192,134232,1,0,0:0:0:0:
448,192,134306,1,2,0:0:0:0:
64,192,134454,1,2,0:0:0:0:
320,192,134528,1,0,0:0:0:0:
192,192,134602,1,8,0:0:0:0:
448,192,134676,1,8,0:0:0:0:
64,192,134750,1,2,0:0:0:0:
320,192,134750,1,4,0:0:0:0:
448,192,134823,1,2,0:0:0:0:
64,192,134971,1,2,0:0:0:0:
192,192,134971,1,0,0:0:0:0:
320,192,135045,1,2,0:0:0:0:
192,192,135193,1,2,0:0:0:0:
448,192,135193,1,0,0:0:0:0:
64,192,135267,1,2,0:0:0:0:
320,192,135415,1,2,0:0:0:0:
448,192,135415,1,0,0:0:0:0:
192,192,135488,1,2,0:0:0:0:
64,192,135636,1,2,0:0:0:0:
448,192,135636,1,0,0:0:0:0:
320,192,135710,1,0,0:0:0:0:
192,192,135784,1,0,0:0:0:0:
64,192,135858,1,0,0:0:0:0:
320,192,135932,1,8,0:0:0:0:
448,192,135932,1,4,0:0:0:0:
192,192,136080,1,0,0:0:0:0:
320,192,136153,1,0,0:0:0:0:
192,192,136227,1,0,0:0:0:0:
64,192,136375,1,0,0:0:0:0:
448,192,136523,1,0,0:0:0:0:
192,192,136671,1,0,0:0:0:0:
320,192,136819,1,0,0:0:0:0:
