osu file format v14

[General]
AudioFilename: tenshikourin.ogg
AudioLeadIn: 0
PreviewTime: 1154
Countdown: 0
SampleSet: Normal
StackLeniency: 0.7
Mode: 3
LetterboxInBreaks: 0
SpecialStyle: 0
WidescreenStoryboard: 0

[Editor]
DistanceSpacing: 0.8
BeatDivisor: 4
GridSize: 32
TimelineZoom: 2.4

[Metadata]
Title:Tenshi Kourin
TitleUnicode:天使光輪
Artist:REDALiCE & cosMo@BousouP
ArtistUnicode:REDALiCE & cosMo@暴走P
Creator:AutotelicBrown
Version:Hard
Source:WACCA S
Tags:FAMoss ANGEL HALO 大熊まい TOHRU MiTSUHASHi electronic hardcore techno tano*c j-core jcore Tokyo WACCA video game instrumental
BeatmapID:3156251
BeatmapSetID:1544167

[Difficulty]
HPDrainRate:7.5
CircleSize:4
OverallDifficulty:7.5
ApproachRate:5
SliderMultiplier:1.4
SliderTickRate:1

[Events]
//Background and Video events
0,0,"bg.jpg",0,0
//Break Periods
//Storyboard Layer 0 (Background)
//Storyboard Layer 1 (Fail)
//Storyboard Layer 2 (Pass)
//Storyboard Layer 3 (Foreground)
//Storyboard Layer 4 (Overlay)
//Storyboard Sound Samples
Sample,92040,0,"tom01.wav",70

[TimingPoints]
1154,295.566502,4,1,1,60,1,0
30858,-100,4,1,1,40,0,0
35439,-100,4,1,1,50,0,0
40316,-100,4,1,1,40,0,0
40612,-100,4,1,1,50,0,0
40907,-100,4,1,1,60,0,0
41351,-100,4,1,1,60,0,1
49626,-100,4,1,1,40,0,0
51991,-100,4,1,1,50,0,0
54355,-100,4,1,1,60,0,0
78001,-100,4,1,1,30,0,0
86277,-100,4,1,1,40,0,0
86868,-100,4,1,1,50,0,0
92188,-100,4,1,1,30,0,0
92779,-100,4,1,1,35,0,0
93370,-100,4,1,1,40,0,0
93961,-100,4,1,1,45,0,0
94553,-100,4,1,1,50,0,0
95144,-100,4,1,1,60,0,0
118198,-100,4,1,1,60,0,1
135932,-100,4,1,1,60,0,0

[HitObjects]
64,192,1154,5,2,0:0:0:0:
320,192,1154,1,4,0:0:0:0:
192,192,1301,1,2,0:0:0:0:
64,192,2188,1,2,0:0:0:0:
320,192,2484,1,2,0:0:0:0:
192,192,3518,1,2,0:0:0:0:
448,192,3666,1,2,0:0:0:0:
320,192,4700,1,2,0:0:0:0:
64,192,4996,1,8,0:0:0:0:
320,192,5144,1,8,0:0:0:0:
192,192,5291,1,2,0:0:0:0:
448,192,5439,128,0,5883:0:0:0:70:tom02.wav
64,192,5883,1,6,0:0:0:0:
192,192,6030,1,2,0:0:0:0:
448,192,6104,1,8,0:0:0:0:
64,192,6178,1,2,0:0:0:0:
320,192,6178,1,8,0:0:0:0:
448,192,6474,1,10,0:0:0:0:
64,192,6695,1,8,0:0:0:0:
192,192,6769,1,2,0:0:0:0:
320,192,6769,1,8,0:0:0:0:
448,192,7065,1,10,0:0:0:0:
320,192,7213,1,2,0:0:0:0:
64,192,7287,1,8,0:0:0:0:
192,192,7360,1,2,0:0:0:0:
448,192,7360,1,8,0:0:0:0:
64,192,7656,1,10,0:0:0:0:
192,192,7878,1,8,0:0:0:0:
320,192,7952,1,2,0:0:0:0:
448,192,7952,1,8,0:0:0:0:
64,192,8247,1,2,0:0:0:0:
192,192,8543,1,2,0:0:0:0:
320,192,8838,1,2,0:0:0:0:
448,192,9134,1,2,0:0:0:0:
64,192,9429,1,2,0:0:0:0:
192,192,10316,1,0,0:0:0:70:VEC4 Snares 151.wav
320,192,10316,1,0,0:0:0:0:
448,192,10464,1,2,0:0:0:0:
64,192,10612,1,2,0:0:0:0:
192,192,10907,1,6,0:0:0:0:
448,192,10907,1,0,0:0:0:100:Clap Drum.wav
64,192,11203,1,2,0:0:0:0:
320,192,11498,1,2,0:0:0:0:
64,192,11794,1,2,0:0:0:0:
320,192,12089,1,2,0:0:0:0:
64,192,12385,1,2,0:0:0:0:
320,192,12681,1,2,0:0:0:0:
64,192,12976,1,2,0:0:0:0:
320,192,13272,1,2,0:0:0:0:
64,192,13567,1,2,0:0:0:0:
448,192,13863,1,10,0:0:0:0:
192,192,14011,1,8,0:0:0:0:
448,192,14085,1,8,0:0:0:0:
64,192,14158,1,2,0:0:0:0:
320,192,14158,1,0,0:0:0:100:Clap Drum.wav
64,192,14454,1,2,0:0:0:0:
192,192,14454,1,0,0:0:0:100:Clap Drum.wav
448,192,14750,1,2,0:0:0:0:
192,192,14823,1,2,0:0:0:0:
320,192,14897,1,2,0:0:0:0:
64,192,15045,1,0,0:0:0:70:VEC4 Snares 151.wav
448,192,15045,1,0,0:0:0:0:
192,192,15341,1,2,0:0:0:0:
192,192,15488,1,2,0:0:0:0:
320,192,15636,1,14,0:0:0:0:
448,192,15636,1,0,0:0:0:100:Clap Drum.wav
64,192,15932,1,2,0:0:0:0:
192,192,16227,1,2,0:0:0:0:
448,192,16227,1,8,0:0:0:0:
64,192,16523,1,2,0:0:0:0:
192,192,16819,1,2,0:0:0:0:
320,192,16819,1,8,0:0:0:0:
448,192,17114,1,2,0:0:0:0:
64,192,17410,1,2,0:0:0:0:
320,192,17410,1,8,0:0:0:0:
448,192,17557,1,8,0:0:0:0:
192,192,17705,1,2,0:0:0:0:
320,192,17779,1,8,0:0:0:0:
64,192,17927,1,2,0:0:0:0:
448,192,18001,1,8,0:0:0:0:
192,192,18149,1,2,0:0:0:0:
320,192,18222,1,8,0:0:0:0:
64,192,18370,1,2,0:0:0:0:
448,192,18444,1,8,0:0:0:0:
192,192,18518,1,2,0:0:0:0:
64,192,18592,1,2,0:0:0:0:
320,192,18666,1,8,0:0:0:0:
192,192,18740,1,2,0:0:0:0:
64,192,18887,1,2,0:0:0:0:
448,192,18887,1,4,0:0:0:0:
64,192,19479,1,0,0:0:0:70:tom01.wav
192,192,19553,1,0,0:0:0:70:tom01.wav
320,192,19626,1,0,0:0:0:70:tom02.wav
64,192,19700,1,0,0:0:0:70:tom02.wav
448,192,19774,1,0,0:0:0:70:tom03.wav
320,192,19848,1,0,0:0:0:70:tom03.wav
192,192,19922,1,0,0:0:0:70:tom04.wav
64,192,19996,1,0,0:0:0:70:tom04.wav
320,192,20070,1,2,0:0:0:0:
448,192,20070,1,4,0:0:0:0:
192,192,20365,1,10,0:0:0:0:
320,192,20365,1,0,0:0:0:100:Clap Drum.wav
448,192,20513,1,2,0:0:0:0:
64,192,20661,1,2,0:0:0:0:
320,192,20809,1,0,0:0:0:0:
192,192,20956,1,2,0:0:0:0:
448,192,20956,1,8,0:0:0:0:
64,192,21030,1,0,0:0:0:0:
320,192,21252,1,2,0:0:0:0:
64,192,21548,1,2,0:0:0:0:
192,192,21548,1,8,0:0:0:0:
448,192,21695,1,0,0:0:0:0:
64,192,21843,1,2,0:0:0:0:
320,192,21991,1,0,0:0:0:0:
192,192,22139,1,2,0:0:0:0:
448,192,22139,1,8,0:0:0:0:
64,192,22287,1,0,0:0:0:0:
320,192,22434,1,2,0:0:0:0:
64,192,22656,1,0,0:0:0:0:
448,192,22730,1,10,0:0:0:0:
192,192,22878,1,0,0:0:0:0:
320,192,23025,1,2,0:0:0:0:
64,192,23099,1,0,0:0:0:0:
448,192,23321,1,10,0:0:0:0:
320,192,23395,1,8,0:0:0:0:
192,192,23469,1,8,0:0:0:0:
64,192,23543,1,8,0:0:0:0:
320,192,23617,1,2,0:0:0:0:
448,192,23617,1,0,0:0:0:100:Clap Drum.wav
64,192,23912,1,2,0:0:0:0:
192,192,23912,1,0,0:0:0:100:Clap Drum.wav
320,192,24208,1,2,0:0:0:0:
64,192,24503,1,0,0:0:0:70:VEC4 Snares 151.wav
448,192,24503,1,0,0:0:0:0:
192,192,24799,1,10,0:0:0:0:
320,192,24873,1,10,0:0:0:0:
64,192,24947,1,10,0:0:0:0:
192,192,25094,1,6,0:0:0:0:
320,192,25094,1,8,0:0:0:0:
448,192,25242,1,0,0:0:0:0:
64,192,25390,1,10,0:0:0:0:
320,192,25538,1,0,0:0:0:0:
192,192,25686,1,2,0:0:0:0:
448,192,25686,1,8,0:0:0:0:
64,192,25759,1,0,0:0:0:0:
320,192,25981,1,10,0:0:0:0:
448,192,26129,1,0,0:0:0:0:
64,192,26277,1,2,0:0:0:0:
192,192,26277,1,8,0:0:0:0:
320,192,26424,1,0,0:0:0:0:
64,192,26572,1,10,0:0:0:0:
448,192,26720,1,0,0:0:0:0:
192,192,26868,1,10,0:0:0:0:
320,192,26942,1,8,0:0:0:0:
64,192,27016,1,8,0:0:0:0:
448,192,27089,1,8,0:0:0:0:
192,192,27163,1,4,0:0:0:0:
320,192,27163,1,2,0:0:0:0:
64,192,27311,1,2,0:0:0:0:
448,192,27459,1,2,0:0:0:0:
320,192,27607,1,2,0:0:0:0:
192,192,27754,1,2,0:0:0:0:
64,192,27828,1,2,0:0:0:0:
448,192,27902,1,2,0:0:0:0:
192,192,27976,1,2,0:0:0:0:
320,192,28050,1,2,0:0:0:0:
64,192,28124,1,2,0:0:0:0:
448,192,28198,1,2,0:0:0:0:
320,192,28272,1,2,0:0:0:0:
64,192,28346,1,2,0:0:0:0:
192,192,28346,1,4,0:0:0:0:
320,192,28937,1,8,0:0:0:0:
192,192,29085,1,2,0:0:0:0:
448,192,29232,1,8,0:0:0:0:
320,192,29380,1,2,0:0:0:0:
64,192,29528,1,2,0:0:0:0:
192,192,29971,1,2,0:0:0:0:
448,192,30119,1,0,0:0:0:70:VEC4 Snares 151.wav
320,192,30415,1,0,0:0:0:0:
64,192,30710,1,6,0:0:0:0:
448,192,30710,1,0,0:0:0:100:Clap Drum.wav
192,192,31153,1,2,0:0:0:0:
320,192,31301,1,0,0:0:0:0:
448,192,31892,1,2,0:0:0:0:
64,192,32336,1,2,0:0:0:0:
320,192,32484,1,0,0:0:0:0:
192,192,32927,1,2,0:0:0:0:
448,192,33075,1,2,0:0:0:0:
320,192,33518,1,2,0:0:0:0:
64,192,33961,1,0,0:0:0:0:
192,192,34109,1,0,0:0:0:0:
448,192,34257,1,0,0:0:0:0:
64,192,34405,1,2,0:0:0:0:
64,192,34553,1,2,0:0:0:0:
320,192,34700,1,0,0:0:0:0:
192,192,34848,1,0,0:0:0:70:h06.wav
448,192,35144,1,0,0:0:0:70:tom01.wav
320,192,35218,1,0,0:0:0:70:tom02.wav
192,192,35291,1,0,0:0:0:70:tom03.wav
64,192,35365,1,0,0:0:0:70:tom04.wav
320,192,35439,1,6,0:0:0:0:
448,192,35439,1,0,0:0:0:100:Clap Drum.wav
192,192,35883,1,2,0:0:0:0:
64,192,36030,1,8,0:0:0:0:
448,192,36030,1,0,0:0:0:0:
320,192,36178,1,2,0:0:0:0:
192,192,36326,1,0,0:0:0:0:
448,192,36621,1,0,0:0:0:0:
64,192,36769,1,2,0:0:0:0:
64,192,36917,1,2,0:0:0:0:
320,192,37065,1,0,0:0:0:0:
192,192,37213,1,8,0:0:0:0:
448,192,37213,1,0,0:0:0:0:
64,192,37508,1,0,0:0:0:0:
320,192,37582,1,0,0:0:0:0:
192,192,37656,1,2,0:0:0:0:
448,192,37730,1,0,0:0:0:0:
64,192,37804,1,2,0:0:0:0:
192,192,38247,1,2,0:0:0:0:
64,192,38395,1,8,0:0:0:0:
448,192,38395,1,0,0:0:0:0:
320,192,38543,1,2,0:0:0:0:
64,192,38690,1,0,0:0:0:0:
448,192,38986,1,0,0:0:0:0:
64,192,39134,1,2,0:0:0:0:
320,192,39282,1,8,0:0:0:0:
448,192,39282,1,2,0:0:0:0:
192,192,39429,1,0,0:0:0:0:
320,192,39725,1,8,0:0:0:0:
448,192,39799,1,8,0:0:0:0:
192,192,39873,1,8,0:0:0:0:
320,192,40020,1,8,0:0:0:0:
64,192,40168,1,6,0:0:0:0:
448,192,40612,1,8,0:0:0:0:
192,192,40759,1,8,0:0:0:0:
320,192,40833,1,8,0:0:0:0:
64,192,40907,1,8,0:0:0:0:
448,192,40981,1,8,0:0:0:0:
192,192,41055,1,0,0:0:0:70:VEC4 Snares 151.wav
320,192,41055,1,0,0:0:0:0:
64,192,41351,1,2,0:0:0:0:
448,192,41351,1,4,0:0:0:0:
320,192,41646,1,2,0:0:0:0:
448,192,41646,1,8,0:0:0:0:
64,192,41942,1,2,0:0:0:0:
192,192,42237,1,8,0:0:0:0:
320,192,42237,1,2,0:0:0:0:
448,192,42533,1,2,0:0:0:0:
64,192,42828,1,8,0:0:0:0:
192,192,42828,1,2,0:0:0:0:
448,192,43124,1,2,0:0:0:0:
64,192,43420,1,2,0:0:0:0:
320,192,43420,1,8,0:0:0:0:
192,192,43715,1,2,0:0:0:0:
320,192,44011,1,8,0:0:0:0:
448,192,44011,1,2,0:0:0:0:
192,192,44306,1,2,0:0:0:0:
448,192,44602,1,0,0:0:0:70:tom01.wav
320,192,44676,1,0,0:0:0:70:tom02.wav
192,192,44750,1,0,0:0:0:70:tom03.wav
64,192,44823,1,0,0:0:0:70:tom04.wav
448,192,44897,1,2,0:0:0:0:
448,192,45045,1,2,0:0:0:0:
64,192,45193,1,8,0:0:0:0:
448,192,45193,1,2,0:0:0:0:
192,192,45488,1,2,0:0:0:0:
64,192,45784,1,2,0:0:0:0:
320,192,45784,1,8,0:0:0:0:
448,192,46080,1,2,0:0:0:0:
192,192,46153,1,2,0:0:0:0:
320,192,46227,1,2,0:0:0:0:
64,192,46301,1,2,0:0:0:0:
192,192,46375,1,2,0:0:0:0:
448,192,46375,1,8,0:0:0:0:
320,192,46671,1,2,0:0:0:0:
64,192,46966,1,8,0:0:0:0:
192,192,46966,1,2,0:0:0:0:
448,192,47262,1,2,0:0:0:0:
448,192,47410,1,2,0:0:0:0:
192,192,47557,1,2,0:0:0:0:
320,192,47557,1,8,0:0:0:0:
64,192,47705,1,2,0:0:0:0:
448,192,47853,1,2,0:0:0:0:
64,192,48001,1,8,0:0:0:0:
320,192,48001,1,0,0:0:0:0:
192,192,48149,1,2,0:0:0:0:
320,192,48222,1,2,0:0:0:0:
64,192,48296,1,2,0:0:0:0:
448,192,48370,1,2,0:0:0:0:
192,192,48444,1,2,0:0:0:0:
448,192,49035,1,0,0:0:0:70:tom01.wav
192,192,49109,1,0,0:0:0:70:tom01.wav
320,192,49183,1,0,0:0:0:70:tom02.wav
64,192,49257,1,0,0:0:0:70:tom02.wav
448,192,49331,1,0,0:0:0:70:tom03.wav
320,192,49405,1,0,0:0:0:70:tom03.wav
192,192,49479,1,0,0:0:0:70:tom04.wav
64,192,49553,1,0,0:0:0:70:tom04.wav
320,192,49626,1,6,0:0:0:0:
448,192,49626,1,0,0:0:0:100:Clap Drum.wav
192,192,49922,1,0,0:0:0:0:
448,192,50218,1,0,0:0:0:0:
192,192,50513,1,0,0:0:0:0:
320,192,50809,1,0,0:0:0:0:
64,192,51104,1,2,0:0:0:0:
320,192,51400,1,0,0:0:0:0:
64,192,51695,1,0,0:0:0:0:
192,192,51991,1,0,0:0:0:0:
320,192,52287,1,0,0:0:0:0:
192,192,52582,1,0,0:0:0:0:
320,192,52878,1,2,0:0:0:0:
64,192,53173,1,0,0:0:0:0:
448,192,53469,1,0,0:0:0:0:
320,192,53764,1,2,0:0:0:0:
448,192,54060,1,0,0:0:0:0:
64,192,54355,1,2,0:0:0:0:
192,192,54355,1,4,0:0:0:0:
320,192,54947,1,2,0:0:0:0:
448,192,55020,1,2,0:0:0:0:
192,192,55094,1,2,0:0:0:0:
320,192,55242,1,2,0:0:0:0:
64,192,55316,1,2,0:0:0:0:
192,192,55390,1,2,0:0:0:0:
64,192,55538,1,4,0:0:0:0:
448,192,55538,1,2,0:0:0:0:
320,192,56129,1,2,0:0:0:0:
192,192,56203,1,2,0:0:0:0:
448,192,56277,1,2,0:0:0:0:
64,192,56424,1,2,0:0:0:0:
320,192,56498,1,2,0:0:0:0:
192,192,56572,1,2,0:0:0:0:
448,192,56720,1,6,0:0:0:0:
64,192,56819,1,2,0:0:0:0:
320,192,56917,1,2,0:0:0:0:
192,192,57016,1,6,0:0:0:0:
448,192,57114,1,2,0:0:0:0:
64,192,57213,1,2,0:0:0:0:
320,192,57311,1,6,0:0:0:0:
192,192,57410,1,2,0:0:0:0:
448,192,57508,1,2,0:0:0:0:
64,192,57607,1,6,0:0:0:0:
320,192,57705,1,2,0:0:0:0:
192,192,57804,1,2,0:0:0:0:
64,192,57902,1,6,0:0:0:0:
320,192,58346,1,2,0:0:0:0:
64,192,58420,1,2,0:0:0:0:
192,192,58493,1,6,0:0:0:0:
448,192,58789,1,0,0:0:0:70:tom01.wav
320,192,58863,1,0,0:0:0:70:tom02.wav
192,192,58937,1,0,0:0:0:70:tom03.wav
64,192,59011,1,0,0:0:0:70:tom04.wav
320,192,59085,1,2,0:0:0:0:
448,192,59085,1,4,0:0:0:0:
192,192,59528,1,2,0:0:0:0:
192,192,59823,1,2,0:0:0:0:
320,192,59971,1,2,0:0:0:0:
192,192,60045,1,2,0:0:0:0:
448,192,60119,1,2,0:0:0:0:
64,192,60193,1,2,0:0:0:0:
192,192,60267,1,2,0:0:0:0:
320,192,60267,1,4,0:0:0:0:
448,192,60562,1,2,0:0:0:0:
192,192,60858,1,2,0:0:0:0:
64,192,61153,1,0,0:0:0:70:VEC4 Snares 151.wav
320,192,61153,1,0,0:0:0:0:
192,192,61449,1,2,0:0:0:0:
448,192,61449,1,4,0:0:0:0:
64,192,61745,1,2,0:0:0:0:
448,192,61745,1,8,0:0:0:0:
320,192,62040,1,2,0:0:0:0:
64,192,62336,1,8,0:0:0:0:
192,192,62336,1,2,0:0:0:0:
448,192,62631,1,2,0:0:0:0:
192,192,62927,1,8,0:0:0:0:
320,192,62927,1,2,0:0:0:0:
64,192,63222,1,2,0:0:0:0:
448,192,63222,1,8,0:0:0:0:
320,192,63370,1,8,0:0:0:0:
64,192,63814,1,2,0:0:0:0:
192,192,63814,1,4,0:0:0:0:
64,192,63961,1,2,0:0:0:0:
64,192,64109,1,10,0:0:0:0:
320,192,64405,1,2,0:0:0:0:
192,192,64700,1,2,0:0:0:0:
448,192,64700,1,8,0:0:0:0:
64,192,64996,1,2,0:0:0:0:
320,192,65291,1,8,0:0:0:0:
448,192,65291,1,2,0:0:0:0:
64,192,65587,1,2,0:0:0:0:
192,192,65661,1,8,0:0:0:0:
320,192,65661,1,0,0:0:0:0:
448,192,65809,1,8,0:0:0:0:
64,192,65883,1,8,0:0:0:0:
320,192,65883,1,0,0:0:0:0:
192,192,66030,1,6,0:0:0:0:
64,192,66178,1,2,0:0:0:0:
448,192,66178,128,4,67065:0:0:0:0:
320,192,67213,1,6,0:0:0:0:
64,192,67360,128,2,68247:0:0:0:0:
192,192,67360,1,4,0:0:0:0:
448,192,68247,1,0,0:0:0:70:tom01.wav
320,192,68321,1,0,0:0:0:70:tom02.wav
192,192,68395,1,0,0:0:0:70:tom03.wav
64,192,68469,1,0,0:0:0:70:tom04.wav
448,192,68543,1,0,0:0:0:70:amenbreak_kick2.wav
192,192,68838,1,0,0:0:0:100:amenbreak_snare2.wav
448,192,68986,1,0,0:0:0:70:amenbreak_kick2.wav
192,192,69282,1,0,0:0:0:100:amenbreak_snare2.wav
448,192,69429,1,0,0:0:0:70:amenbreak_kick2.wav
64,192,69725,1,0,0:0:0:70:amenbreak_kick2.wav
64,192,69947,1,0,0:0:0:70:amenbreak_kick2.wav
320,192,70020,1,0,0:0:0:100:amenbreak_snare2.wav
64,192,70168,1,0,0:0:0:70:amenbreak_kick2.wav
448,192,70316,1,0,0:0:0:70:amenbreak_kick2.wav
448,192,70464,1,0,0:0:0:70:amenbreak_kick2.wav
192,192,70612,1,0,0:0:0:70:VEC4 Snares 151.wav
64,192,70907,1,2,0:0:0:0:
320,192,70907,1,4,0:0:0:0:
64,192,71203,1,8,0:0:0:0:
192,192,71203,1,2,0:0:0:0:
448,192,71498,1,2,0:0:0:0:
192,192,71794,1,2,0:0:0:0:
320,192,71794,1,8,0:0:0:0:
64,192,72089,1,2,0:0:0:0:
320,192,72385,1,2,0:0:0:0:
448,192,72385,1,8,0:0:0:0:
192,192,72681,1,2,0:0:0:0:
64,192,72976,1,0,0:0:0:70:tom01.wav
192,192,73050,1,0,0:0:0:70:tom02.wav
320,192,73124,1,0,0:0:0:70:tom03.wav
448,192,73198,1,0,0:0:0:70:tom04.wav
64,192,73272,1,6,0:0:0:0:
192,192,73272,1,8,0:0:0:0:
64,192,73493,1,8,0:0:0:0:
64,192,73715,1,8,0:0:0:0:
448,192,73863,1,8,0:0:0:0:
448,192,74085,1,8,0:0:0:0:
192,192,74158,1,2,0:0:0:0:
320,192,74306,1,2,0:0:0:0:
64,192,74380,1,2,0:0:0:0:
192,192,74454,1,10,0:0:0:0:
448,192,74454,1,4,0:0:0:0:
192,192,74676,1,8,0:0:0:0:
192,192,74897,1,8,0:0:0:0:
320,192,75045,1,2,0:0:0:0:
448,192,75045,1,8,0:0:0:0:
64,192,75267,1,10,0:0:0:0:
320,192,75341,1,8,0:0:0:0:
192,192,75415,1,8,0:0:0:0:
448,192,75488,1,10,0:0:0:0:
64,192,75562,1,8,0:0:0:0:
192,192,75636,128,2,76671:0:0:0:0:
320,192,75636,1,4,0:0:0:0:
448,192,76671,1,6,0:0:0:0:
64,192,76819,1,6,0:0:0:0:
448,192,77705,1,0,0:0:0:70:tom01.wav
320,192,77779,1,0,0:0:0:70:tom02.wav
192,192,77853,1,0,0:0:0:70:tom03.wav
64,192,77927,1,0,0:0:0:70:tom04.wav
320,192,78001,1,4,0:0:0:0:
448,192,78001,1,0,0:0:0:0:
64,192,78592,1,0,0:0:0:70:Clap.wav
192,192,78592,1,0,0:0:0:0:
448,192,79183,1,0,0:0:0:0:
192,192,79774,1,0,0:0:0:70:Clap.wav
320,192,79774,1,0,0:0:0:0:
448,192,80070,1,0,0:0:0:0:
64,192,80365,1,2,0:0:0:0:
192,192,80956,1,0,0:0:0:70:Clap.wav
448,192,80956,1,0,0:0:0:0:
320,192,81548,1,0,0:0:0:0:
448,192,81843,1,0,0:0:0:0:
64,192,82139,1,0,0:0:0:70:Clap.wav
320,192,82139,1,0,0:0:0:0:
192,192,82434,1,0,0:0:0:0:
320,192,82730,1,0,0:0:0:0:
64,192,83321,1,0,0:0:0:70:Clap.wav
448,192,83321,1,0,0:0:0:0:
320,192,83912,1,0,0:0:0:0:
64,192,84503,1,0,0:0:0:70:Clap.wav
192,192,84503,1,0,0:0:0:0:
320,192,84799,1,0,0:0:0:0:
448,192,85094,1,2,0:0:0:0:
64,192,85686,1,0,0:0:0:70:Clap.wav
320,192,86277,1,0,0:0:0:0:
448,192,86868,1,0,0:0:0:70:tom01.wav
192,192,86942,1,0,0:0:0:70:tom01.wav
320,192,87016,1,0,0:0:0:70:tom02.wav
64,192,87089,1,0,0:0:0:70:tom02.wav
448,192,87163,1,0,0:0:0:70:tom03.wav
320,192,87237,1,0,0:0:0:70:tom03.wav
192,192,87311,1,0,0:0:0:70:tom04.wav
64,192,87385,1,0,0:0:0:70:tom04.wav
320,192,87459,1,2,0:0:0:0:
448,192,87459,1,4,0:0:0:0:
448,192,87754,1,0,0:0:0:70:Clap.wav
448,192,88050,1,0,0:0:0:70:Clap.wav
448,192,88346,1,0,0:0:0:70:Clap.wav
192,192,88641,1,0,0:0:0:70:Clap.wav
192,192,88937,1,0,0:0:0:70:Clap.wav
192,192,89232,1,0,0:0:0:70:Clap.wav
192,192,89528,1,0,0:0:0:70:Clap.wav
64,192,89823,1,0,0:0:0:70:Clap.wav
64,192,90119,1,0,0:0:0:70:Clap.wav
320,192,90415,1,0,0:0:0:70:Clap.wav
320,192,90710,1,0,0:0:0:70:Clap.wav
192,192,91006,1,8,0:0:0:0:
320,192,91080,1,8,0:0:0:0:
64,192,91153,1,8,0:0:0:0:
448,192,91301,1,8,0:0:0:0:
192,192,91449,1,8,0:0:0:0:
64,192,91523,1,8,0:0:0:0:
320,192,91597,1,8,0:0:0:0:
192,192,91819,1,8,0:0:0:0:
448,192,91892,1,8,0:0:0:0:
64,192,92040,1,8,0:0:0:0:
192,192,92188,1,4,0:0:0:0:
320,192,92188,1,8,0:0:0:0:
192,192,92336,1,4,0:0:0:0:
448,192,92336,1,8,0:0:0:0:
64,192,93370,1,10,0:0:0:0:
320,192,93370,1,4,0:0:0:0:
192,192,93518,1,8,0:0:0:0:
320,192,93518,1,4,0:0:0:0:
64,192,94553,1,6,0:0:0:0:
448,192,94553,1,8,0:0:0:0:
192,192,94700,1,4,0:0:0:0:
448,192,94700,1,8,0:0:0:0:
320,192,95735,1,2,0:0:0:0:
448,192,95735,1,4,0:0:0:0:
192,192,96474,1,2,0:0:0:0:
320,192,96548,1,2,0:0:0:0:
64,192,96621,1,0,0:0:0:70:VEC4 Snares 151.wav
192,192,96917,1,2,0:0:0:0:
448,192,96917,1,4,0:0:0:0:
448,192,97139,1,2,0:0:0:0:
448,192,97360,1,2,0:0:0:0:
64,192,97434,1,2,0:0:0:0:
192,192,97508,1,2,0:0:0:0:
192,192,97730,1,2,0:0:0:0:
192,192,97952,1,2,0:0:0:0:
448,192,98025,1,2,0:0:0:0:
320,192,98099,1,2,0:0:0:0:
320,192,98321,1,2,0:0:0:0:
320,192,98543,1,2,0:0:0:0:
64,192,98690,1,2,0:0:0:0:
64,192,98838,1,2,0:0:0:0:
320,192,98986,1,0,0:0:0:70:VEC4 Snares 151.wav
448,192,98986,1,0,0:0:0:0:
64,192,99282,1,6,0:0:0:0:
192,192,99282,1,0,0:0:0:100:Clap Drum.wav
64,192,99577,1,8,0:0:0:0:
320,192,99577,1,2,0:0:0:0:
448,192,99873,1,2,0:0:0:0:
192,192,100168,1,2,0:0:0:0:
320,192,100168,1,8,0:0:0:0:
64,192,100464,1,2,0:0:0:0:
192,192,100759,1,2,0:0:0:0:
448,192,100759,1,8,0:0:0:0:
320,192,101055,1,2,0:0:0:0:
64,192,101351,1,8,0:0:0:0:
448,192,101351,1,2,0:0:0:0:
192,192,101646,1,2,0:0:0:0:
192,192,101794,1,2,0:0:0:0:
320,192,101942,1,2,0:0:0:0:
448,192,101942,1,8,0:0:0:0:
64,192,102237,1,2,0:0:0:0:
192,192,102533,1,2,0:0:0:0:
448,192,102533,1,8,0:0:0:0:
320,192,102828,1,2,0:0:0:0:
64,192,103124,1,2,0:0:0:0:
448,192,103124,1,8,0:0:0:0:
192,192,103420,1,2,0:0:0:0:
64,192,103715,1,2,0:0:0:0:
320,192,103715,1,8,0:0:0:0:
448,192,104011,1,10,0:0:0:0:
192,192,104158,1,8,0:0:0:0:
320,192,104306,1,8,0:0:0:0:
448,192,104306,1,2,0:0:0:0:
192,192,104454,1,8,0:0:0:0:
64,192,104602,1,10,0:0:0:0:
320,192,104676,1,8,0:0:0:0:
192,192,104750,1,8,0:0:0:0:
448,192,104823,1,8,0:0:0:0:
64,192,104897,1,10,0:0:0:0:
192,192,104971,1,8,0:0:0:0:
320,192,105045,1,8,0:0:0:0:
448,192,105119,1,8,0:0:0:0:
64,192,105193,1,2,0:0:0:0:
192,192,105193,1,4,0:0:0:0:
448,192,105341,1,8,0:0:0:0:
320,192,105415,1,6,0:0:0:0:
64,192,105562,1,8,0:0:0:0:
192,192,105636,1,6,0:0:0:0:
320,192,105784,1,2,0:0:0:0:
64,192,105932,1,8,0:0:0:0:
448,192,106080,1,0,0:0:0:70:tom01.wav
320,192,106153,1,0,0:0:0:70:tom02.wav
192,192,106227,1,0,0:0:0:70:tom03.wav
64,192,106301,1,0,0:0:0:70:tom04.wav
320,192,106375,1,2,0:0:0:0:
448,192,106375,1,4,0:0:0:0:
448,192,106523,1,6,0:0:0:0:
192,192,106671,1,0,0:0:0:100:amenbreak_snare2.wav
320,192,106819,1,0,0:0:0:70:amenbreak_kick2.wav
64,192,106966,1,0,0:0:0:0:
448,192,107114,1,0,0:0:0:100:amenbreak_snare2.wav
192,192,107262,1,0,0:0:0:70:amenbreak_kick2.wav
64,192,107410,1,0,0:0:0:0:
320,192,107557,1,0,0:0:0:70:amenbreak_kick2.wav
320,192,107779,1,0,0:0:0:70:amenbreak_kick2.wav
320,192,108001,1,0,0:0:0:70:amenbreak_kick2.wav
64,192,108149,1,2,0:0:0:0:
448,192,108296,1,0,0:0:0:70:amenbreak_kick2.wav
64,192,108370,1,2,0:0:0:0:
448,192,108518,1,8,0:0:0:0:
64,192,108592,1,2,0:0:0:0:
320,192,108740,1,6,0:0:0:0:
192,192,108814,1,2,0:0:0:0:
448,192,108887,1,2,0:0:0:0:
64,192,108961,1,2,0:0:0:0:
192,192,109035,1,10,0:0:0:0:
320,192,109035,1,0,0:0:0:100:Clap Drum.wav
64,192,109331,1,2,0:0:0:0:
320,192,109626,1,8,0:0:0:0:
448,192,109626,1,2,0:0:0:0:
192,192,109922,1,2,0:0:0:0:
64,192,110218,1,8,0:0:0:0:
320,192,110218,1,2,0:0:0:0:
448,192,110513,1,2,0:0:0:0:
192,192,110809,1,2,0:0:0:0:
320,192,110809,1,8,0:0:0:0:
64,192,111104,1,10,0:0:0:0:
448,192,111104,1,4,0:0:0:0:
448,192,111252,1,10,0:0:0:0:
448,192,111400,1,10,0:0:0:0:
64,192,111695,1,10,0:0:0:0:
192,192,111991,1,2,0:0:0:0:
448,192,111991,1,8,0:0:0:0:
320,192,112287,1,2,0:0:0:0:
64,192,112582,1,2,0:0:0:0:
192,192,112582,1,8,0:0:0:0:
448,192,112878,1,10,0:0:0:0:
64,192,113173,1,2,0:0:0:0:
320,192,113173,1,8,0:0:0:0:
192,192,113321,1,0,0:0:0:0:
64,192,113469,1,2,0:0:0:0:
448,192,113469,1,4,0:0:0:0:
320,192,113617,1,2,0:0:0:0:
192,192,113690,1,10,0:0:0:0:
320,192,113912,1,2,0:0:0:0:
192,192,114060,1,2,0:0:0:0:
448,192,114060,1,4,0:0:0:0:
64,192,114208,1,2,0:0:0:0:
320,192,114282,1,10,0:0:0:0:
192,192,114503,1,2,0:0:0:0:
448,192,114651,1,0,0:0:0:70:amenbreak_kick2.wav
64,192,115094,1,0,0:0:0:70:amenbreak_kick2.wav
192,192,115538,1,0,0:0:0:70:amenbreak_kick2.wav
320,192,115833,1,12,0:0:0:0:
448,192,115833,1,2,0:0:0:0:
64,192,116129,1,8,0:0:0:0:
448,192,116424,1,8,0:0:0:0:
64,192,116720,1,8,0:0:0:0:
320,192,116942,1,8,0:0:0:0:
192,192,117163,1,8,0:0:0:0:
320,192,117311,1,8,0:0:0:0:
64,192,117459,1,8,0:0:0:0:
448,192,117607,1,0,0:0:0:70:tom01.wav
192,192,117681,1,0,0:0:0:70:tom01.wav
320,192,117754,1,0,0:0:0:70:tom02.wav
64,192,117828,1,0,0:0:0:70:tom02.wav
448,192,117902,1,0,0:0:0:70:tom03.wav
320,192,117976,1,0,0:0:0:70:tom03.wav
192,192,118050,1,0,0:0:0:70:tom04.wav
64,192,118124,1,0,0:0:0:70:tom04.wav
320,192,118198,1,6,0:0:0:0:
448,192,118198,1,0,0:0:0:100:Clap Drum.wav
192,192,118346,1,0,0:0:0:0:
448,192,118493,1,10,0:0:0:0:
320,192,118641,1,0,0:0:0:0:
64,192,118789,1,2,0:0:0:0:
192,192,118937,1,0,0:0:0:0:
320,192,119085,1,10,0:0:0:0:
64,192,119232,1,0,0:0:0:0:
192,192,119380,1,2,0:0:0:0:
320,192,119380,1,0,0:0:0:0:
448,192,119528,1,0,0:0:0:0:
192,192,119676,1,10,0:0:0:0:
320,192,119823,1,0,0:0:0:0:
64,192,119971,1,2,0:0:0:0:
320,192,120119,1,0,0:0:0:0:
192,192,120267,1,10,0:0:0:0:
64,192,120415,1,0,0:0:0:0:
192,192,120562,1,2,0:0:0:0:
448,192,120562,1,0,0:0:0:0:
320,192,120784,1,0,0:0:0:0:
192,192,121006,1,0,0:0:0:0:
64,192,121153,1,2,0:0:0:0:
192,192,121301,1,0,0:0:0:0:
448,192,121449,1,10,0:0:0:0:
320,192,121597,1,0,0:0:0:0:
64,192,121745,1,2,0:0:0:0:
448,192,122040,1,10,0:0:0:0:
192,192,122114,1,0,0:0:0:0:
320,192,122188,1,0,0:0:0:0:
448,192,122262,1,0,0:0:0:0:
64,192,122336,1,2,0:0:0:0:
64,192,122484,1,0,0:0:0:0:
192,192,122631,1,10,0:0:0:0:
192,192,122779,1,0,0:0:0:0:
320,192,122927,1,2,0:0:0:0:
448,192,122927,1,0,0:0:0:0:
64,192,123001,1,0,0:0:0:0:
192,192,123075,1,0,0:0:0:0:
448,192,123149,1,0,0:0:0:0:
320,192,123222,1,10,0:0:0:0:
64,192,123370,1,0,0:0:0:0:
192,192,123666,1,0,0:0:0:0:
448,192,123814,1,10,0:0:0:0:
320,192,123887,1,0,0:0:0:0:
64,192,123961,1,0,0:0:0:0:
192,192,124109,1,2,0:0:0:0:
320,192,124109,1,0,0:0:0:0:
64,192,124257,1,0,0:0:0:0:
448,192,124331,1,0,0:0:0:0:
320,192,124405,1,10,0:0:0:0:
64,192,124503,1,0,0:0:0:0:
192,192,124602,1,0,0:0:0:0:
448,192,124700,1,2,0:0:0:0:
320,192,124774,1,0,0:0:0:0:
192,192,124848,1,0,0:0:0:0:
64,192,124996,1,10,0:0:0:0:
320,192,125144,1,0,0:0:0:0:
192,192,125291,1,2,0:0:0:0:
448,192,125291,1,0,0:0:0:0:
64,192,125365,1,0,0:0:0:0:
320,192,125439,1,0,0:0:0:0:
192,192,125587,1,10,0:0:0:0:
320,192,125661,1,0,0:0:0:0:
64,192,125735,1,0,0:0:0:0:
448,192,125883,1,2,0:0:0:0:
320,192,126104,1,0,0:0:0:0:
192,192,126326,1,0,0:0:0:0:
64,192,126474,1,2,0:0:0:0:
448,192,126474,1,4,0:0:0:0:
448,192,126695,1,2,0:0:0:0:
192,192,126917,1,2,0:0:0:0:
192,192,127065,1,2,0:0:0:0:
192,192,127213,1,2,0:0:0:0:
448,192,127360,1,0,0:0:0:70:tom01.wav
320,192,127434,1,0,0:0:0:70:tom02.wav
192,192,127508,1,0,0:0:0:70:tom03.wav
64,192,127582,1,0,0:0:0:70:tom04.wav
320,192,127656,1,6,0:0:0:0:
448,192,127656,1,0,0:0:0:100:Clap Drum.wav
192,192,127804,1,0,0:0:0:0:
320,192,127878,1,0,0:0:0:0:
64,192,127952,1,10,0:0:0:0:
448,192,128099,1,0,0:0:0:0:
192,192,128247,1,2,0:0:0:0:
320,192,128321,1,0,0:0:0:0:
64,192,128395,1,0,0:0:0:0:
448,192,128543,1,10,0:0:0:0:
192,192,128690,1,0,0:0:0:0:
320,192,128764,1,0,0:0:0:0:
64,192,128838,1,2,0:0:0:0:
448,192,128986,1,0,0:0:0:0:
192,192,129134,1,10,0:0:0:0:
320,192,129208,1,0,0:0:0:0:
64,192,129282,1,0,0:0:0:0:
192,192,129429,1,2,0:0:0:0:
320,192,129503,1,0,0:0:0:0:
448,192,129577,1,0,0:0:0:0:
64,192,129725,1,10,0:0:0:0:
192,192,129799,1,0,0:0:0:0:
320,192,129873,1,0,0:0:0:0:
448,192,130020,1,2,0:0:0:0:
192,192,130168,1,0,0:0:0:0:
320,192,130242,1,0,0:0:0:0:
64,192,130316,1,10,0:0:0:0:
448,192,130464,1,0,0:0:0:0:
192,192,130612,1,2,0:0:0:0:
320,192,130686,1,0,0:0:0:0:
64,192,130759,1,0,0:0:0:0:
448,192,130907,1,10,0:0:0:0:
192,192,131055,1,0,0:0:0:0:
320,192,131129,1,0,0:0:0:0:
64,192,131203,1,2,0:0:0:0:
448,192,131203,1,4,0:0:0:0:
448,192,131794,1,0,0:0:0:70:tom01.wav
320,192,131868,1,0,0:0:0:70:tom02.wav
64,192,131942,1,0,0:0:0:70:tom03.wav
448,192,132016,1,0,0:0:0:70:tom04.wav
192,192,132089,1,2,0:0:0:0:
320,192,132163,1,2,0:0:0:0:
64,192,132237,1,2,0:0:0:0:
320,192,132385,1,2,0:0:0:0:
448,192,132385,1,4,0:0:0:0:
192,192,132459,1,2,0:0:0:0:
64,192,132607,1,2,0:0:0:0:
448,192,132681,1,2,0:0:0:0:
192,192,132828,1,2,0:0:0:0:
320,192,132902,1,2,0:0:0:0:
448,192,133050,1,2,0:0:0:0:
64,192,133124,1,2,0:0:0:0:
320,192,133272,1,2,0:0:0:0:
192,192,133346,1,0,0:0:0:0:
64,192,133567,1,2,0:0:0:0:
448,192,133567,1,4,0:0:0:0:
320,192,133641,1,2,0:0:0:0:
192,192,133789,1,2,0:0:0:0:
448,192,133863,1,2,0:0:0:0:
320,192,134011,1,2,0:0:0:0:
64,192,134085,1,2,0:0:0:0:
448,192,134232,1,2,0:0:0:0:
192,192,134306,1,2,0:0:0:0:
64,192,134454,1,2,0:0:0:0:
192,192,134528,1,0,0:0:0:0:
320,192,134602,1,8,0:0:0:0:
448,192,134676,1,8,0:0:0:0:
64,192,134750,1,2,0:0:0:0:
192,192,134750,1,4,0:0:0:0:
320,192,134823,1,2,0:0:0:0:
192,192,134971,1,2,0:0:0:0:
448,192,135045,1,2,0:0:0:0:
320,192,135193,1,2,0:0:0:0:
64,192,135267,1,2,0:0:0:0:
192,192,135415,1,2,0:0:0:0:
320,192,135488,1,2,0:0:0:0:
448,192,135636,1,2,0:0:0:0:
320,192,135710,1,0,0:0:0:0:
192,192,135784,1,0,0:0:0:0:
64,192,135858,1,0,0:0:0:0:
320,192,135932,1,8,0:0:0:0:
448,192,135932,1,4,0:0:0:0:
192,192,136080,1,0,0:0:0:0:
320,192,136153,1,0,0:0:0:0:
192,192,136227,1,0,0:0:0:0:
64,192,136375,1,0,0:0:0:0:
448,192,136523,1,0,0:0:0:0:
192,192,136671,1,0,0:0:0:0:
320,192,136819,1,0,0:0:0:0:
