osu file format v14

[General]
AudioFilename: audio.mp3
AudioLeadIn: 0
PreviewTime: 97608
Countdown: 0
SampleSet: Soft
StackLeniency: 0.7
Mode: 3
LetterboxInBreaks: 0
SpecialStyle: 0
WidescreenStoryboard: 0

[Editor]
DistanceSpacing: 0.8
BeatDivisor: 4
GridSize: 32
TimelineZoom: 0.9000007

[Metadata]
Title:Sweet Requiem
TitleUnicode:Sweet Requiem
Artist:REDALiCE & aran
ArtistUnicode:REDALiCE & aran
Creator:Syadow-
Version:Normal
Source:東方永夜抄 ~ Imperishable Night.
Tags:東方Project Touhou ZUN 太田順也 Oota Junya Team Shanghai Alice 上海アリス幻樂団 Eternal Night Vignette Eiyashou 少女綺想曲 ~ Dream Battle Maiden's Capriccio Reimu 博麗 霊夢 AECD-046 Annual Hakurei Shrine Grand Festival 博麗神社例大祭 Jinja Reitaisai 14 SOUND VOLTEX IV HEAVENLY HAVEN sdvx selections 2017 alice's emotion Kanon Matsubara
BeatmapID:2138607
BeatmapSetID:1022130

[Difficulty]
HPDrainRate:7.5
CircleSize:4
OverallDifficulty:7.5
ApproachRate:5
SliderMultiplier:1.4
SliderTickRate:1

[Events]
//Background and Video events
0,0,"reimu.jpg",0,0
//Break Periods
//Storyboard Layer 0 (Background)
//Storyboard Layer 1 (Fail)
//Storyboard Layer 2 (Pass)
//Storyboard Layer 3 (Foreground)
//Storyboard Layer 4 (Overlay)
//Storyboard Sound Samples
Sample,11555,0,"Snare.wav",45
Sample,31529,0,"Cymbal short.wav",45
Sample,31765,0,"Cymbal short.wav",45
Sample,32555,0,"Clap.wav",70
Sample,33818,0,"Clap.wav",70
Sample,34450,0,"Clap.wav",40
Sample,35081,0,"Clap.wav",70
Sample,36344,0,"Clap.wav",70
Sample,66897,0,"Cymbal short.wav",60
Sample,67134,0,"Cymbal short.wav",60
Sample,81344,0,"Cymbal short.wav",55
Sample,81502,0,"Cymbal short.wav",55
Sample,95397,0,"Cymbal short.wav",50
Sample,95713,0,"Cymbal short.wav",50
Sample,96029,0,"Cymbal short.wav",50

[TimingPoints]
1608,315.789473684211,4,2,1,65,1,0
21818,-100,4,2,1,40,0,0
26871,-100,4,2,1,55,0,0
42029,-100,4,2,1,50,0,0
47081,-100,4,2,1,55,0,0
57186,-100,4,2,1,70,0,1
67292,-100,4,2,1,40,0,0
76134,-100,4,2,1,60,0,0
87502,-100,4,2,1,55,0,0
97608,-100,4,2,1,65,0,0
100134,-100,4,2,1,70,0,1
117818,-100,4,2,1,45,0,0

[HitObjects]
448,192,344,5,2,0:0:0:0:
64,192,344,1,0,0:0:0:55:Cymbal short.wav
320,192,818,1,0,0:0:0:0:
192,192,976,1,0,0:0:0:0:
448,192,1134,1,0,0:0:0:0:
64,192,1292,1,8,0:0:0:0:
192,192,1292,1,0,0:0:0:0:
64,192,1608,1,2,0:0:0:0:
448,192,1608,1,4,0:0:0:0:
192,192,1765,1,0,0:0:0:0:
320,192,1923,1,8,0:0:0:0:
448,192,1923,1,0,0:0:0:0:
64,192,2081,1,0,0:0:0:0:
192,192,2239,1,2,0:0:0:0:
448,192,2397,1,0,0:0:0:0:
320,192,2555,1,8,0:0:0:0:
64,192,2555,1,0,0:0:0:0:
192,192,2713,1,0,0:0:0:0:
320,192,2871,1,2,0:0:0:0:
64,192,3029,1,0,0:0:0:0:
192,192,3186,1,8,0:0:0:0:
448,192,3186,1,0,0:0:0:0:
320,192,3344,1,0,0:0:0:0:
64,192,3502,1,2,0:0:0:0:
192,192,3660,1,0,0:0:0:0:
448,192,3818,1,8,0:0:0:0:
320,192,3818,1,0,0:0:0:0:
64,192,3976,1,0,0:0:0:0:
448,192,4134,1,2,0:0:0:0:
448,192,4292,1,2,0:0:0:0:
192,192,4450,1,8,0:0:0:0:
64,192,4450,1,2,0:0:0:0:
320,192,4608,1,0,0:0:0:0:
192,192,4765,1,2,0:0:0:0:
448,192,4923,1,0,0:0:0:0:
64,192,5081,1,8,0:0:0:0:
320,192,5081,1,0,0:0:0:0:
192,192,5239,1,2,0:0:0:0:
192,192,5397,1,2,0:0:0:0:
320,192,5555,1,0,0:0:0:0:
448,192,5713,1,8,0:0:0:0:
64,192,5713,1,0,0:0:0:0:
192,192,5871,1,0,0:0:0:0:
320,192,6029,1,2,0:0:0:0:
192,192,6186,1,0,0:0:0:0:
448,192,6344,1,8,0:0:0:0:
64,192,6344,1,0,0:0:0:0:
320,192,6502,1,0,0:0:0:0:
192,192,6660,1,2,0:0:0:0:
64,192,6660,1,4,0:0:0:0:
448,192,6818,1,0,0:0:0:0:
320,192,6976,1,8,0:0:0:0:
192,192,6976,1,0,0:0:0:0:
64,192,7134,1,0,0:0:0:0:
320,192,7292,1,2,0:0:0:0:
448,192,7450,1,0,0:0:0:0:
64,192,7608,1,8,0:0:0:0:
192,192,7608,1,0,0:0:0:0:
320,192,7765,1,0,0:0:0:0:
192,192,7923,1,2,0:0:0:0:
448,192,8081,1,0,0:0:0:0:
320,192,8239,1,8,0:0:0:0:
64,192,8239,1,0,0:0:0:0:
192,192,8397,1,0,0:0:0:0:
320,192,8555,1,2,0:0:0:0:
192,192,8713,1,0,0:0:0:0:
448,192,8871,1,8,0:0:0:0:
64,192,8871,1,0,0:0:0:0:
320,192,9029,1,0,0:0:0:0:
192,192,9186,1,2,0:0:0:0:
64,192,9186,1,8,0:0:0:50:
448,192,9344,1,8,0:0:0:50:
320,192,9502,1,8,0:0:0:50:
192,192,9502,1,2,0:0:0:0:
64,192,9660,1,8,0:0:0:50:
448,192,9818,1,8,0:0:0:50:
320,192,9818,1,2,0:0:0:0:
192,192,9976,1,8,0:0:0:50:
64,192,10134,1,8,0:0:0:50:
448,192,10134,1,2,0:0:0:0:
320,192,10292,1,8,0:0:0:50:
192,192,10450,1,8,0:0:0:50:
64,192,10450,1,2,0:0:0:0:
320,192,10608,1,8,0:0:0:50:
448,192,10765,128,8,11081:0:0:0:50:
64,192,10765,1,2,0:0:0:0:
320,192,10923,128,8,11081:0:0:0:50:
192,192,11081,1,0,0:0:0:0:
64,192,11397,1,0,0:0:0:45:Snare.wav
192,192,11476,1,0,0:0:0:45:Snare.wav
448,192,11555,1,2,0:0:0:0:
320,192,11713,1,2,0:0:0:0:
448,192,11713,1,4,0:0:0:0:
192,192,11871,1,0,0:0:0:0:
64,192,12029,1,8,0:0:0:0:
448,192,12029,1,0,0:0:0:0:
320,192,12186,1,0,0:0:0:0:
192,192,12344,1,2,0:0:0:0:
320,192,12502,1,0,0:0:0:0:
192,192,12660,1,8,0:0:0:0:
64,192,12660,1,0,0:0:0:0:
448,192,12818,1,0,0:0:0:0:
320,192,12976,1,2,0:0:0:0:
64,192,13134,1,0,0:0:0:0:
192,192,13292,1,8,0:0:0:0:
448,192,13292,1,0,0:0:0:0:
320,192,13450,1,0,0:0:0:0:
192,192,13608,1,2,0:0:0:0:
448,192,13765,1,0,0:0:0:0:
320,192,13923,1,8,0:0:0:0:
64,192,13923,1,0,0:0:0:0:
192,192,14081,1,0,0:0:0:0:
448,192,14239,128,2,14555:0:0:0:45:
192,192,14555,1,8,0:0:0:0:
64,192,14555,1,2,0:0:0:45:
320,192,14713,1,2,0:0:0:0:
320,192,14871,1,2,0:0:0:0:
64,192,15029,1,0,0:0:0:0:
448,192,15186,1,8,0:0:0:0:
320,192,15186,1,2,0:0:0:0:
192,192,15344,1,2,0:0:0:0:
192,192,15502,1,2,0:0:0:0:
320,192,15660,1,0,0:0:0:0:
448,192,15818,1,8,0:0:0:0:
64,192,15818,1,0,0:0:0:0:
192,192,15976,1,0,0:0:0:0:
320,192,16134,1,2,0:0:0:0:
192,192,16292,1,0,0:0:0:0:
448,192,16450,1,8,0:0:0:0:
64,192,16450,1,0,0:0:0:0:
320,192,16608,1,0,0:0:0:0:
192,192,16765,1,2,0:0:0:0:
64,192,16765,1,8,0:0:0:50:
448,192,16923,1,8,0:0:0:50:
320,192,17081,1,8,0:0:0:50:
192,192,17081,1,2,0:0:0:0:
64,192,17239,1,8,0:0:0:50:
320,192,17397,1,8,0:0:0:50:
448,192,17397,1,2,0:0:0:0:
192,192,17555,1,8,0:0:0:50:
64,192,17713,1,8,0:0:0:50:
448,192,17713,1,2,0:0:0:0:
320,192,17871,1,8,0:0:0:50:
192,192,18029,1,8,0:0:0:50:
64,192,18029,1,2,0:0:0:0:
320,192,18186,1,8,0:0:0:50:
448,192,18344,1,8,0:0:0:50:
64,192,18344,1,2,0:0:0:0:
192,192,18502,1,8,0:0:0:50:
320,192,18660,1,8,0:0:0:50:
448,192,18660,1,2,0:0:0:0:
64,192,18818,1,8,0:0:0:50:
192,192,18976,1,8,0:0:0:50:
320,192,18976,1,2,0:0:0:0:
448,192,19134,1,8,0:0:0:50:
192,192,19292,1,8,0:0:0:50:
64,192,19292,1,2,0:0:0:0:
64,192,19450,1,10,0:0:0:50:
320,192,19608,1,8,0:0:0:50:
448,192,19608,1,2,0:0:0:0:
320,192,19765,1,10,0:0:0:50:
192,192,19923,1,8,0:0:0:50:
64,192,19923,1,2,0:0:0:0:
192,192,20081,1,10,0:0:0:50:
448,192,20239,1,8,0:0:0:50:
320,192,20239,1,2,0:0:0:0:
448,192,20397,1,10,0:0:0:50:
64,192,20555,128,8,20713:0:0:0:50:
192,192,20555,1,2,0:0:0:0:
320,192,20713,128,8,20871:0:0:0:50:
192,192,20871,128,8,21029:0:0:0:50:
64,192,21029,128,8,21186:0:0:0:50:
448,192,21186,128,8,21344:0:0:0:50:
320,192,21344,128,8,21502:0:0:0:50:
192,192,21502,128,8,21660:0:0:0:50:
64,192,21660,128,8,21818:0:0:0:50:
448,192,21818,1,0,0:0:0:60:Boom.wav
320,192,21818,1,8,0:0:0:50:
320,192,22292,1,0,0:0:0:0:
192,192,22450,1,0,0:0:0:0:
448,192,23081,1,0,0:0:0:0:
192,192,23555,128,0,23713:0:0:0:0:
320,192,23713,1,0,0:0:0:0:
64,192,23871,1,0,0:0:0:0:
448,192,24029,1,0,0:0:0:0:
192,192,24186,1,0,0:0:0:0:
320,192,24344,1,0,0:0:0:0:
192,192,24818,1,0,0:0:0:0:
320,192,24976,1,0,0:0:0:0:
64,192,25608,1,0,0:0:0:0:
448,192,26871,1,2,0:0:0:0:
320,192,26871,1,4,0:0:0:0:
192,192,27344,1,0,0:0:0:0:
320,192,27502,1,0,0:0:0:0:
64,192,28134,1,2,0:0:0:0:
192,192,28134,1,4,0:0:0:0:
320,192,28608,128,0,28765:0:0:0:0:
192,192,28765,1,0,0:0:0:0:
448,192,28923,1,0,0:0:0:0:
64,192,29081,128,2,29239:0:0:0:0:
320,192,29239,128,2,29397:0:0:0:0:
448,192,29397,1,2,0:0:0:0:
192,192,29397,1,4,0:0:0:0:
192,192,29555,1,6,0:0:0:0:
64,192,29871,128,2,30029:0:0:0:0:
320,192,30029,1,2,0:0:0:0:
448,192,30029,1,4,0:0:0:0:
320,192,30186,1,6,0:0:0:0:
448,192,30660,128,2,30818:0:0:0:0:
320,192,30818,1,2,0:0:0:0:
64,192,30818,1,4,0:0:0:0:
64,192,30976,1,6,0:0:0:0:
448,192,31292,1,2,0:0:0:0:
192,192,31292,1,0,0:0:0:45:Cymbal short.wav
192,192,31529,1,2,0:0:0:0:
192,192,31765,1,2,0:0:0:0:
448,192,31923,1,0,0:0:0:70:Clap.wav
320,192,31923,1,6,0:0:0:0:
64,192,32239,1,0,0:0:0:70:Clap.wav
192,192,32555,1,2,0:0:0:0:
320,192,32792,1,0,0:0:0:70:Clap.wav
192,192,33029,1,0,0:0:0:70:Clap.wav
448,192,33186,1,2,0:0:0:0:
320,192,33344,1,0,0:0:0:70:Clap.wav
192,192,33502,1,0,0:0:0:70:Clap.wav
64,192,33818,1,2,0:0:0:0:
320,192,34055,1,0,0:0:0:70:Clap.wav
192,192,34292,1,0,0:0:0:70:Clap.wav
448,192,34450,1,2,0:0:0:0:
64,192,34765,1,0,0:0:0:70:Clap.wav
320,192,35081,1,2,0:0:0:0:
192,192,35318,1,0,0:0:0:70:Clap.wav
320,192,35555,1,0,0:0:0:70:Clap.wav
64,192,35713,1,2,0:0:0:0:
192,192,35871,1,0,0:0:0:70:Clap.wav
320,192,36029,1,0,0:0:0:70:Clap.wav
448,192,36344,1,2,0:0:0:0:
64,192,36581,1,0,0:0:0:70:Clap.wav
448,192,36818,1,0,0:0:0:70:Clap.wav
192,192,36976,1,6,0:0:0:0:
64,192,36976,1,0,0:0:0:70:Clap.wav
320,192,37134,1,2,0:0:0:0:
192,192,37292,1,10,0:0:0:0:
448,192,37450,1,2,0:0:0:0:
64,192,37608,1,10,0:0:0:0:
448,192,37765,1,2,0:0:0:0:
192,192,37923,1,10,0:0:0:0:
320,192,38081,1,2,0:0:0:0:
64,192,38239,1,6,0:0:0:0:
448,192,38239,1,0,0:0:0:70:Clap.wav
192,192,38397,1,2,0:0:0:0:
320,192,38555,1,10,0:0:0:0:
192,192,38713,1,2,0:0:0:0:
448,192,38871,1,10,0:0:0:0:
64,192,39029,1,2,0:0:0:0:
320,192,39186,1,10,0:0:0:0:
192,192,39344,1,2,0:0:0:0:
448,192,39502,128,2,39660:0:0:0:50:
64,192,39502,1,4,0:0:0:0:
320,192,39660,128,2,39818:0:0:0:50:
192,192,39818,128,2,39976:0:0:0:50:
64,192,39976,128,2,40134:0:0:0:50:
448,192,40134,128,2,40292:0:0:0:50:
320,192,40134,1,4,0:0:0:0:
192,192,40292,128,2,40450:0:0:0:50:
320,192,40450,128,2,40608:0:0:0:50:
64,192,40608,128,2,40765:0:0:0:50:
448,192,40765,1,6,0:0:0:0:
320,192,40871,1,2,0:0:0:0:
192,192,40976,1,2,0:0:0:0:
64,192,41081,1,6,0:0:0:0:
192,192,41186,1,2,0:0:0:0:
320,192,41292,1,2,0:0:0:0:
448,192,41397,1,6,0:0:0:0:
320,192,41502,1,2,0:0:0:0:
192,192,41608,1,2,0:0:0:0:
64,192,41713,1,8,0:0:0:0:
448,192,42029,128,6,42344:0:0:0:0:
64,192,42344,128,0,42660:0:0:0:65:Clap.wav
448,192,42660,128,0,42976:0:0:0:65:Clap.wav
64,192,42976,128,0,43292:0:0:0:65:Clap.wav
320,192,43292,128,0,43608:0:0:0:65:Clap.wav
192,192,43608,128,0,43923:0:0:0:65:Clap.wav
448,192,43923,128,0,44239:0:0:0:65:Clap.wav
320,192,43923,128,0,44239:0:0:0:0:
64,192,44239,128,0,44555:0:0:0:65:Clap.wav
192,192,44239,128,0,44555:0:0:0:0:
448,192,44555,1,0,0:0:0:65:Clap.wav
320,192,44765,1,0,0:0:0:65:Clap.wav
192,192,44976,1,0,0:0:0:65:Clap.wav
64,192,45186,1,0,0:0:0:65:Clap.wav
320,192,45397,1,0,0:0:0:65:Clap.wav
448,192,45608,1,0,0:0:0:65:Clap.wav
64,192,45818,1,0,0:0:0:65:Clap.wav
192,192,46029,1,0,0:0:0:65:Clap.wav
320,192,46239,1,0,0:0:0:65:Clap.wav
448,192,46450,1,0,0:0:0:45:Drop.wav
64,192,46450,1,0,0:0:0:0:
64,192,47081,1,2,0:0:0:0:
192,192,47081,1,4,0:0:0:0:
320,192,47713,1,8,0:0:0:0:
192,192,47713,1,4,0:0:0:0:
320,192,48344,1,4,0:0:0:0:
448,192,48344,1,0,0:0:0:0:
192,192,48660,1,2,0:0:0:0:
448,192,48976,1,8,0:0:0:0:
64,192,48976,1,4,0:0:0:0:
320,192,49608,1,2,0:0:0:0:
192,192,49608,1,4,0:0:0:0:
448,192,50239,1,8,0:0:0:0:
64,192,50239,1,4,0:0:0:0:
192,192,50871,1,4,0:0:0:0:
320,192,50871,1,2,0:0:0:0:
448,192,51344,1,2,0:0:0:0:
320,192,51502,1,8,0:0:0:0:
64,192,51502,1,4,0:0:0:0:
192,192,52134,1,4,0:0:0:0:
448,192,52134,1,2,0:0:0:0:
192,192,52450,1,6,0:0:0:0:
448,192,52765,1,8,0:0:0:0:
64,192,52765,1,4,0:0:0:0:
64,192,53397,1,4,0:0:0:0:
320,192,53397,1,0,0:0:0:0:
192,192,53713,1,2,0:0:0:0:
448,192,54029,1,8,0:0:0:0:
320,192,54029,1,4,0:0:0:0:
448,192,54344,1,8,0:0:0:0:
64,192,54344,1,0,0:0:0:0:
320,192,54502,1,2,0:0:0:0:
64,192,54660,1,2,0:0:0:0:
320,192,54660,1,4,0:0:0:0:
64,192,54818,1,0,0:0:0:45:Drop.wav
192,192,54976,1,8,0:0:0:0:
448,192,54976,1,0,0:0:0:0:
320,192,55450,1,2,0:0:0:0:
192,192,55608,1,8,0:0:0:0:
64,192,55608,1,0,0:0:0:0:
448,192,55765,1,2,0:0:0:0:
448,192,55923,1,2,0:0:0:0:
64,192,55923,1,4,0:0:0:0:
64,192,56081,1,0,0:0:0:0:
192,192,56239,1,2,0:0:0:0:
320,192,56239,1,8,0:0:0:0:
320,192,56397,1,0,0:0:0:0:
448,192,56555,1,2,0:0:0:0:
192,192,56555,1,0,0:0:0:0:
64,192,56713,1,8,0:0:0:0:
320,192,57029,128,0,57186:0:0:0:45:Snare.wav
192,192,57186,1,2,0:0:0:0:
64,192,57186,1,4,0:0:0:0:
448,192,57344,1,0,0:0:0:0:
320,192,57502,1,8,0:0:0:0:
192,192,57502,1,0,0:0:0:0:
64,192,57660,1,0,0:0:0:0:
448,192,57818,1,2,0:0:0:0:
192,192,57976,1,0,0:0:0:0:
320,192,58134,1,8,0:0:0:0:
448,192,58134,1,0,0:0:0:0:
64,192,58292,1,0,0:0:0:0:
192,192,58450,1,2,0:0:0:0:
320,192,58608,1,0,0:0:0:0:
448,192,58765,1,8,0:0:0:0:
192,192,58765,1,0,0:0:0:0:
64,192,58923,1,0,0:0:0:0:
448,192,59081,1,2,0:0:0:0:
320,192,59239,1,0,0:0:0:0:
192,192,59397,1,8,0:0:0:0:
64,192,59397,1,0,0:0:0:0:
320,192,59555,1,0,0:0:0:0:
448,192,59713,1,2,0:0:0:0:
64,192,59871,1,0,0:0:0:0:
192,192,60029,1,8,0:0:0:0:
448,192,60029,1,0,0:0:0:0:
320,192,60186,1,0,0:0:0:0:
192,192,60344,1,2,0:0:0:0:
448,192,60502,1,0,0:0:0:0:
320,192,60660,1,8,0:0:0:0:
64,192,60660,1,0,0:0:0:0:
192,192,60818,1,0,0:0:0:0:
320,192,60976,1,2,0:0:0:0:
320,192,61134,1,2,0:0:0:0:
192,192,61292,1,8,0:0:0:0:
64,192,61292,1,2,0:0:0:0:
448,192,61450,1,0,0:0:0:0:
320,192,61608,1,2,0:0:0:0:
64,192,61765,1,0,0:0:0:0:
192,192,61844,1,2,0:0:0:0:
448,192,61923,1,8,0:0:0:0:
320,192,61923,1,0,0:0:0:0:
192,192,62081,1,2,0:0:0:0:
192,192,62239,1,2,0:0:0:0:
448,192,62239,1,4,0:0:0:0:
320,192,62397,1,0,0:0:0:0:
192,192,62555,1,8,0:0:0:0:
64,192,62555,1,0,0:0:0:0:
448,192,62713,1,0,0:0:0:0:
64,192,62871,1,2,0:0:0:0:
192,192,63029,1,0,0:0:0:0:
320,192,63186,1,8,0:0:0:0:
448,192,63186,1,0,0:0:0:0:
192,192,63344,1,8,0:0:0:0:
448,192,63502,1,2,0:0:0:0:
64,192,63502,1,8,0:0:0:0:
320,192,63660,1,0,0:0:0:0:
448,192,63818,1,8,0:0:0:0:
64,192,63818,1,2,0:0:0:0:
192,192,63976,1,0,0:0:0:0:
448,192,64134,1,8,0:0:0:0:
64,192,64134,1,2,0:0:0:0:
320,192,64292,1,0,0:0:0:0:
448,192,64450,1,8,0:0:0:0:
64,192,64450,1,2,0:0:0:0:
192,192,64608,1,8,0:0:0:0:
448,192,64765,1,8,0:0:0:50:
64,192,64765,1,2,0:0:0:0:
320,192,64923,1,8,0:0:0:50:
192,192,65081,1,8,0:0:0:50:
320,192,65239,1,8,0:0:0:50:
448,192,65397,1,8,0:0:0:50:
64,192,65555,1,8,0:0:0:50:
192,192,65713,1,8,0:0:0:50:
320,192,65871,1,8,0:0:0:50:
448,192,66029,128,8,66186:0:0:0:50:
192,192,66186,128,8,66344:0:0:0:50:
320,192,66344,128,8,66502:0:0:0:50:
64,192,66502,128,8,66660:0:0:0:50:
192,192,66660,1,2,0:0:0:0:
448,192,66660,1,0,0:0:0:60:Cymbal short.wav
192,192,66897,1,2,0:0:0:0:
192,192,67134,1,2,0:0:0:0:
64,192,67292,1,0,0:0:0:60:Boom.wav
448,192,67292,1,0,0:0:0:0:
320,192,67450,1,0,0:0:0:0:
192,192,67608,1,0,0:0:0:0:
448,192,67765,1,0,0:0:0:0:
320,192,67923,1,0,0:0:0:0:
192,192,68081,1,0,0:0:0:0:
64,192,68239,1,0,0:0:0:0:
320,192,68397,1,0,0:0:0:0:
448,192,68555,1,0,0:0:0:0:
64,192,68713,1,0,0:0:0:0:
192,192,68871,1,0,0:0:0:0:
320,192,69029,1,0,0:0:0:0:
448,192,69186,1,0,0:0:0:0:
192,192,69344,1,0,0:0:0:0:
64,192,69502,1,0,0:0:0:0:
448,192,69660,1,0,0:0:0:0:
320,192,69818,1,0,0:0:0:0:
192,192,69976,1,0,0:0:0:0:
320,192,70134,1,0,0:0:0:0:
64,192,70292,1,0,0:0:0:0:
192,192,70450,1,0,0:0:0:0:
320,192,70608,1,0,0:0:0:0:
448,192,70765,1,0,0:0:0:0:
192,192,70923,1,0,0:0:0:0:
64,192,71081,1,0,0:0:0:0:
320,192,71239,1,0,0:0:0:0:
192,192,71397,1,0,0:0:0:0:
448,192,71555,1,0,0:0:0:0:
320,192,71713,1,0,0:0:0:0:
64,192,71871,1,0,0:0:0:0:
192,192,72029,1,0,0:0:0:0:
320,192,72186,1,0,0:0:0:0:
64,192,72344,1,0,0:0:0:0:
192,192,72502,1,0,0:0:0:0:
448,192,72581,1,0,0:0:0:0:
192,192,72739,1,0,0:0:0:0:
320,192,72897,1,0,0:0:0:0:
64,192,72976,1,0,0:0:0:0:
448,192,73134,1,0,0:0:0:0:
64,192,73292,1,0,0:0:0:0:
192,192,73450,1,0,0:0:0:0:
448,192,73608,1,0,0:0:0:0:
320,192,73765,1,0,0:0:0:0:
192,192,73923,1,0,0:0:0:0:
64,192,74081,1,0,0:0:0:0:
320,192,74239,1,0,0:0:0:0:
448,192,74397,1,0,0:0:0:0:
64,192,74555,1,0,0:0:0:0:
192,192,74713,1,0,0:0:0:0:
320,192,74871,1,0,0:0:0:0:
448,192,75029,1,0,0:0:0:0:
192,192,75186,1,0,0:0:0:0:
64,192,75344,1,0,0:0:0:0:
448,192,75502,1,0,0:0:0:0:
320,192,75660,1,0,0:0:0:0:
192,192,75818,1,0,0:0:0:0:
64,192,75976,1,0,0:0:0:0:
320,192,76134,1,2,0:0:0:0:
448,192,76134,1,4,0:0:0:0:
64,192,76450,5,0,0:0:0:0:
192,192,76765,1,0,0:0:0:0:
320,192,77002,1,0,0:0:0:0:
448,192,77239,1,0,0:0:0:0:
64,192,77397,5,2,0:0:0:0:
192,192,77397,1,0,0:0:0:55:Cymbal short.wav
64,192,77713,1,2,0:0:0:0:
192,192,77713,1,0,0:0:0:55:Cymbal short.wav
64,192,78029,1,2,0:0:0:0:
448,192,78029,1,0,0:0:0:55:Cymbal short.wav
64,192,78265,1,2,0:0:0:0:
448,192,78265,1,0,0:0:0:55:Cymbal short.wav
64,192,78502,1,2,0:0:0:0:
448,192,78502,1,0,0:0:0:55:Cymbal short.wav
320,192,78818,1,2,0:0:0:0:
448,192,78818,1,0,0:0:0:55:Cymbal short.wav
320,192,78976,1,2,0:0:0:0:
448,192,78976,1,0,0:0:0:55:Cymbal short.wav
192,192,79292,1,2,0:0:0:0:
64,192,79292,1,0,0:0:0:55:Cymbal short.wav
192,192,79529,1,2,0:0:0:0:
64,192,79529,1,0,0:0:0:55:Cymbal short.wav
192,192,79765,1,2,0:0:0:0:
64,192,79765,1,0,0:0:0:55:Cymbal short.wav
448,192,79923,1,2,0:0:0:0:
320,192,79923,1,0,0:0:0:55:Cymbal short.wav
448,192,80239,1,2,0:0:0:0:
192,192,80239,1,0,0:0:0:55:Cymbal short.wav
448,192,80555,1,2,0:0:0:0:
64,192,80555,1,0,0:0:0:55:Cymbal short.wav
448,192,80792,1,2,0:0:0:0:
64,192,80792,1,0,0:0:0:55:Cymbal short.wav
448,192,81029,1,2,0:0:0:0:
64,192,81029,1,0,0:0:0:55:Cymbal short.wav
320,192,81344,1,2,0:0:0:0:
64,192,81423,1,2,0:0:0:0:
320,192,81502,1,2,0:0:0:0:
320,192,81818,1,2,0:0:0:0:
64,192,81818,1,0,0:0:0:55:Cymbal short.wav
320,192,82055,1,2,0:0:0:0:
64,192,82055,1,0,0:0:0:55:Cymbal short.wav
320,192,82292,1,2,0:0:0:0:
64,192,82292,1,0,0:0:0:55:Cymbal short.wav
64,192,82450,1,2,0:0:0:0:
448,192,82450,1,0,0:0:0:55:Cymbal short.wav
192,192,82765,1,2,0:0:0:0:
448,192,82765,1,0,0:0:0:55:Cymbal short.wav
192,192,83081,1,2,0:0:0:0:
320,192,83081,1,0,0:0:0:55:Cymbal short.wav
192,192,83318,1,2,0:0:0:0:
320,192,83318,1,0,0:0:0:55:Cymbal short.wav
192,192,83555,1,2,0:0:0:0:
320,192,83555,1,0,0:0:0:55:Cymbal short.wav
448,192,83871,1,2,0:0:0:0:
64,192,83871,1,0,0:0:0:55:Cymbal short.wav
448,192,84029,1,2,0:0:0:0:
64,192,84029,1,0,0:0:0:55:Cymbal short.wav
448,192,84344,1,2,0:0:0:0:
320,192,84344,1,0,0:0:0:55:Cymbal short.wav
448,192,84581,1,2,0:0:0:0:
320,192,84581,1,0,0:0:0:55:Cymbal short.wav
448,192,84818,1,2,0:0:0:0:
320,192,84818,1,0,0:0:0:55:Cymbal short.wav
192,192,84976,1,2,0:0:0:0:
64,192,84976,1,0,0:0:0:55:Cymbal short.wav
448,192,85292,1,2,0:0:0:0:
320,192,85292,1,0,0:0:0:55:Cymbal short.wav
192,192,85608,1,2,0:0:0:0:
64,192,85608,1,0,0:0:0:55:Cymbal short.wav
192,192,85844,1,2,0:0:0:0:
64,192,85844,1,0,0:0:0:55:Cymbal short.wav
192,192,86081,1,2,0:0:0:0:
64,192,86081,1,0,0:0:0:55:Cymbal short.wav
448,192,86239,1,6,0:0:0:0:
320,192,86344,1,2,0:0:0:0:
192,192,86450,1,2,0:0:0:0:
64,192,86555,1,6,0:0:0:0:
320,192,86660,1,2,0:0:0:0:
448,192,86765,1,2,0:0:0:0:
64,192,86871,1,6,0:0:0:0:
192,192,86976,1,2,0:0:0:0:
320,192,87081,1,2,0:0:0:0:
448,192,87186,1,8,0:0:0:0:
192,192,87502,128,6,87818:0:0:0:0:
320,192,87818,128,0,88134:0:0:0:55:Clap.wav
192,192,88134,128,0,88450:0:0:0:55:Clap.wav
448,192,88450,1,0,0:0:0:55:Clap.wav
64,192,88765,128,0,89081:0:0:0:55:Clap.wav
448,192,89081,128,0,89397:0:0:0:55:Clap.wav
64,192,89397,128,0,89713:0:0:0:55:Clap.wav
320,192,89713,1,0,0:0:0:55:Clap.wav
448,192,90029,128,0,90344:0:0:0:55:Clap.wav
320,192,90344,128,0,90660:0:0:0:55:Clap.wav
448,192,90660,128,0,90976:0:0:0:55:Clap.wav
192,192,90976,1,0,0:0:0:55:Clap.wav
64,192,91292,128,0,91608:0:0:0:55:Clap.wav
192,192,91608,128,0,91923:0:0:0:55:Clap.wav
64,192,91923,128,0,92239:0:0:0:55:Clap.wav
320,192,92239,1,0,0:0:0:55:Clap.wav
448,192,92555,1,0,0:0:0:55:Clap.wav
320,192,92555,1,0,0:0:0:55:Cymbal short.wav
192,192,92765,1,0,0:0:0:0:
320,192,92976,1,0,0:0:0:0:
64,192,93186,1,0,0:0:0:55:Clap.wav
448,192,93186,1,0,0:0:0:55:Cymbal short.wav
192,192,93397,1,0,0:0:0:0:
320,192,93608,1,0,0:0:0:0:
192,192,93818,1,0,0:0:0:55:Clap.wav
64,192,93818,1,0,0:0:0:55:Cymbal short.wav
448,192,94029,1,0,0:0:0:0:
64,192,94239,1,0,0:0:0:0:
320,192,94450,1,0,0:0:0:55:Clap.wav
448,192,94450,1,0,0:0:0:55:Cymbal short.wav
192,192,94660,1,0,0:0:0:0:
320,192,94871,1,0,0:0:0:0:
64,192,95081,1,0,0:0:0:55:Clap.wav
448,192,95081,1,0,0:0:0:55:Cymbal short.wav
192,192,95186,1,0,0:0:0:0:
320,192,95292,1,0,0:0:0:0:
448,192,95397,1,0,0:0:0:55:Clap.wav
64,192,95502,1,0,0:0:0:0:
192,192,95608,1,0,0:0:0:0:
320,192,95713,1,0,0:0:0:55:Clap.wav
448,192,95818,1,0,0:0:0:0:
64,192,95923,1,0,0:0:0:0:
192,192,96029,1,0,0:0:0:55:Clap.wav
320,192,96134,1,0,0:0:0:0:
448,192,96239,1,0,0:0:0:0:
64,192,96344,128,0,96976:0:0:0:0:
320,192,96976,128,0,97292:0:0:0:0:
192,192,97292,1,0,0:0:0:45:Drop.wav
64,192,97608,1,2,0:0:0:0:
448,192,97608,1,4,0:0:0:0:
192,192,97765,1,0,0:0:0:0:
320,192,98081,1,0,0:0:0:0:
64,192,98239,1,2,0:0:0:0:
448,192,98239,1,4,0:0:0:0:
192,192,98397,1,0,0:0:0:0:
320,192,98713,1,0,0:0:0:0:
448,192,98871,1,2,0:0:0:0:
64,192,98871,1,4,0:0:0:0:
192,192,99029,1,0,0:0:0:0:
320,192,99344,1,0,0:0:0:0:
192,192,99502,1,2,0:0:0:0:
64,192,99502,1,4,0:0:0:0:
448,192,99660,1,0,0:0:0:0:
320,192,99739,1,2,0:0:0:0:
192,192,99818,1,12,0:0:0:0:
64,192,99976,1,2,0:0:0:0:
64,192,100134,1,2,0:0:0:0:
448,192,100134,128,4,100450:0:0:0:0:
320,192,100292,1,0,0:0:0:0:
192,192,100450,1,8,0:0:0:0:
64,192,100450,1,0,0:0:0:0:
320,192,100608,128,0,100765:0:0:0:0:
64,192,100765,128,2,101397:0:0:0:0:
448,192,100923,1,0,0:0:0:0:
192,192,101081,1,8,0:0:0:0:
320,192,101239,1,0,0:0:0:0:
448,192,101397,128,2,102660:0:0:0:0:
192,192,101555,1,0,0:0:0:0:
64,192,101713,1,8,0:0:0:0:
320,192,101871,1,0,0:0:0:0:
192,192,102029,1,2,0:0:0:0:
64,192,102186,1,0,0:0:0:0:
320,192,102344,1,8,0:0:0:0:
320,192,102502,1,0,0:0:0:0:
192,192,102660,128,2,102976:0:0:0:0:
320,192,102818,1,0,0:0:0:0:
448,192,102976,1,8,0:0:0:0:
64,192,102976,1,0,0:0:0:0:
320,192,103134,128,0,103292:0:0:0:0:
64,192,103292,128,2,103923:0:0:0:0:
448,192,103450,1,0,0:0:0:0:
320,192,103608,1,8,0:0:0:0:
192,192,103765,1,0,0:0:0:0:
448,192,103923,128,2,104239:0:0:0:0:
320,192,104081,1,0,0:0:0:0:
64,192,104239,1,8,0:0:0:0:
192,192,104239,1,0,0:0:0:0:
320,192,104397,128,0,104555:0:0:0:0:
64,192,104555,128,2,104713:0:0:0:0:
448,192,104713,128,0,104871:0:0:0:0:
192,192,104871,128,8,105029:0:0:0:0:
64,192,104871,1,0,0:0:0:0:
320,192,105029,128,0,105186:0:0:0:0:
448,192,105186,128,2,105660:0:0:0:0:
64,192,105344,1,0,0:0:0:0:
320,192,105502,1,8,0:0:0:0:
192,192,105660,128,0,105818:0:0:0:0:
320,192,105818,128,2,106450:0:0:0:0:
64,192,105976,1,0,0:0:0:0:
448,192,106134,1,8,0:0:0:0:
192,192,106292,1,0,0:0:0:0:
64,192,106450,1,2,0:0:0:0:
448,192,106608,1,0,0:0:0:0:
320,192,106765,1,8,0:0:0:0:
64,192,106765,1,0,0:0:0:0:
192,192,106923,1,0,0:0:0:0:
320,192,107081,1,2,0:0:0:0:
448,192,107239,1,8,0:0:0:0:
64,192,107239,1,0,0:0:0:0:
64,192,107713,128,2,108029:0:0:0:0:
320,192,107713,1,4,0:0:0:0:
192,192,107871,1,0,0:0:0:0:
448,192,108029,1,8,0:0:0:0:
320,192,108029,1,0,0:0:0:0:
192,192,108186,128,0,108344:0:0:0:0:
320,192,108344,128,2,108976:0:0:0:0:
64,192,108502,1,0,0:0:0:0:
448,192,108660,1,8,0:0:0:0:
192,192,108818,1,0,0:0:0:0:
448,192,108976,128,2,109292:0:0:0:0:
192,192,109134,1,0,0:0:0:0:
64,192,109292,1,8,0:0:0:0:
320,192,109292,1,0,0:0:0:0:
192,192,109450,128,0,109608:0:0:0:0:
320,192,109608,128,2,109765:0:0:0:0:
64,192,109765,128,0,109923:0:0:0:0:
320,192,109923,1,8,0:0:0:0:
448,192,109923,128,0,110081:0:0:0:0:
192,192,110081,128,0,110239:0:0:0:0:
320,192,110239,128,2,110397:0:0:0:50:
448,192,110239,128,0,110397:0:0:0:0:
192,192,110397,128,2,110555:0:0:0:50:
64,192,110397,128,0,110555:0:0:0:0:
448,192,110555,1,10,0:0:0:50:
320,192,110713,1,0,0:0:0:0:
64,192,110871,128,2,111502:0:0:0:0:
192,192,111029,1,0,0:0:0:0:
320,192,111186,1,8,0:0:0:0:
448,192,111344,1,0,0:0:0:0:
192,192,111502,1,2,0:0:0:0:
320,192,111660,1,0,0:0:0:0:
192,192,111818,1,8,0:0:0:0:
64,192,111818,1,0,0:0:0:0:
448,192,111976,128,2,112134:0:0:0:0:
64,192,112134,1,2,0:0:0:0:
192,192,112292,1,0,0:0:0:0:
448,192,112450,1,8,0:0:0:0:
320,192,112450,1,0,0:0:0:0:
192,192,112608,1,0,0:0:0:0:
448,192,112765,128,2,113081:0:0:0:0:
64,192,112765,1,4,0:0:0:0:
320,192,112923,1,0,0:0:0:0:
192,192,113081,1,8,0:0:0:0:
64,192,113081,1,0,0:0:0:0:
320,192,113239,128,0,113397:0:0:0:0:
64,192,113397,128,2,113713:0:0:0:0:
192,192,113555,1,0,0:0:0:0:
448,192,113713,1,8,0:0:0:0:
320,192,113713,1,0,0:0:0:0:
448,192,113871,1,2,0:0:0:0:
64,192,114029,1,2,0:0:0:0:
448,192,114029,1,4,0:0:0:0:
64,192,114186,1,2,0:0:0:0:
64,192,114344,1,8,0:0:0:0:
320,192,114344,1,2,0:0:0:0:
192,192,114502,1,0,0:0:0:0:
64,192,114660,1,2,0:0:0:0:
448,192,114660,1,4,0:0:0:0:
320,192,114897,1,2,0:0:0:0:
64,192,114976,1,8,0:0:0:0:
192,192,114976,1,0,0:0:0:0:
448,192,115134,1,2,0:0:0:0:
448,192,115292,1,8,0:0:0:50:
64,192,115292,1,6,0:0:0:0:
192,192,115450,1,8,0:0:0:50:
320,192,115608,1,8,0:0:0:50:
192,192,115765,1,8,0:0:0:50:
64,192,115923,1,8,0:0:0:50:
448,192,116081,1,8,0:0:0:50:
192,192,116239,1,8,0:0:0:50:
320,192,116397,1,8,0:0:0:50:
448,192,116555,128,8,116713:0:0:0:50:
192,192,116713,1,8,0:0:0:50:
64,192,116713,128,2,116871:0:0:0:0:
320,192,116871,128,8,117029:0:0:0:50:
448,192,116871,1,2,0:0:0:0:
192,192,117029,128,10,117186:0:0:0:50:
448,192,117186,1,8,0:0:0:0:
64,192,117186,1,2,0:0:0:0:
448,192,117423,1,2,0:0:0:0:
64,192,117423,1,8,0:0:0:0:
448,192,117660,1,2,0:0:0:0:
64,192,117660,1,8,0:0:0:0:
192,192,117818,1,0,0:0:0:60:Boom.wav
