osu file format v14

[General]
AudioFilename: audio.mp3
AudioLeadIn: 0
PreviewTime: 97608
Countdown: 0
SampleSet: Soft
StackLeniency: 0.7
Mode: 3
LetterboxInBreaks: 0
SpecialStyle: 0
WidescreenStoryboard: 0

[Editor]
DistanceSpacing: 0.8
BeatDivisor: 4
GridSize: 32
TimelineZoom: 1.3

[Metadata]
Title:Sweet Requiem
TitleUnicode:Sweet Requiem
Artist:REDALiCE & aran
ArtistUnicode:REDALiCE & aran
Creator:Syadow-
Version:Beginner
Source:東方永夜抄 ~ Imperishable Night.
Tags:東方Project Touhou ZUN 太田順也 Oota Junya Team Shanghai Alice 上海アリス幻樂団 Eternal Night Vignette Eiyashou 少女綺想曲 ~ Dream Battle Maiden's Capriccio Reimu 博麗 霊夢 AECD-046 Annual Hakurei Shrine Grand Festival 博麗神社例大祭 Jinja Reitaisai 14 SOUND VOLTEX IV HEAVENLY HAVEN sdvx selections 2017 alice's emotion Kanon Matsubara
BeatmapID:2138605
BeatmapSetID:1022130

[Difficulty]
HPDrainRate:7
CircleSize:4
OverallDifficulty:7
ApproachRate:5
SliderMultiplier:1.4
SliderTickRate:1

[Events]
//Background and Video events
0,0,"reimu.jpg",0,0
//Break Periods
//Storyboard Layer 0 (Background)
//Storyboard Layer 1 (Fail)
//Storyboard Layer 2 (Pass)
//Storyboard Layer 3 (Foreground)
//Storyboard Layer 4 (Overlay)
//Storyboard Sound Samples

[TimingPoints]
1608,315.789473684211,4,2,1,65,1,0
21818,-100,4,2,1,40,0,0
26871,-100,4,2,1,55,0,0
42029,-100,4,2,1,50,0,0
47081,-100,4,2,1,55,0,0
57186,-100,4,2,1,70,0,1
67292,-100,4,2,1,40,0,0
76134,-100,4,2,1,60,0,0
87502,-100,4,2,1,55,0,0
97608,-100,4,2,1,65,0,0
100134,-100,4,2,1,70,0,1
117818,-100,4,2,1,45,0,0

[HitObjects]
448,192,344,5,2,0:0:0:0:
64,192,344,1,0,0:0:0:55:Cymbal short.wav
320,192,818,1,0,0:0:0:0:
192,192,976,1,0,0:0:0:0:
448,192,1134,1,0,0:0:0:0:
320,192,1292,1,8,0:0:0:0:
192,192,1608,1,2,0:0:0:0:
64,192,1608,1,4,0:0:0:0:
448,192,1923,1,8,0:0:0:0:
320,192,2239,1,2,0:0:0:0:
64,192,2555,1,8,0:0:0:0:
448,192,2871,1,2,0:0:0:0:
192,192,3186,1,8,0:0:0:0:
320,192,3502,1,2,0:0:0:0:
448,192,3818,1,8,0:0:0:0:
64,192,4134,1,2,0:0:0:0:
320,192,4292,1,2,0:0:0:0:
64,192,4450,1,10,0:0:0:0:
192,192,4765,1,2,0:0:0:0:
448,192,5081,1,8,0:0:0:0:
64,192,5239,1,2,0:0:0:0:
448,192,5397,1,2,0:0:0:0:
320,192,5713,1,8,0:0:0:0:
64,192,6029,1,2,0:0:0:0:
448,192,6344,1,8,0:0:0:0:
320,192,6502,1,0,0:0:0:0:
192,192,6660,1,2,0:0:0:0:
64,192,6660,1,4,0:0:0:0:
448,192,6976,1,8,0:0:0:0:
320,192,7292,1,2,0:0:0:0:
64,192,7608,1,8,0:0:0:0:
192,192,7923,1,2,0:0:0:0:
448,192,8239,1,8,0:0:0:0:
320,192,8555,1,2,0:0:0:0:
192,192,8871,1,8,0:0:0:0:
64,192,9186,1,10,0:0:0:0:
64,192,9502,1,10,0:0:0:0:
448,192,9818,1,10,0:0:0:0:
448,192,10134,1,10,0:0:0:0:
192,192,10450,128,10,10765:0:0:0:0:
320,192,10765,128,10,11081:0:0:0:0:
448,192,11081,1,0,0:0:0:0:
64,192,11397,1,0,0:0:0:45:Snare.wav
192,192,11555,1,2,0:0:0:0:
320,192,11713,1,2,0:0:0:0:
448,192,11713,1,4,0:0:0:0:
64,192,12029,1,8,0:0:0:0:
448,192,12344,1,2,0:0:0:0:
192,192,12660,1,8,0:0:0:0:
320,192,12976,1,2,0:0:0:0:
64,192,13292,1,8,0:0:0:0:
448,192,13608,1,2,0:0:0:0:
320,192,13923,1,8,0:0:0:0:
64,192,14239,128,2,14555:0:0:0:65:
448,192,14555,1,10,0:0:0:65:
192,192,14713,1,2,0:0:0:0:
320,192,14871,1,2,0:0:0:0:
64,192,15186,1,10,0:0:0:0:
320,192,15344,1,2,0:0:0:0:
192,192,15502,1,2,0:0:0:0:
448,192,15818,1,8,0:0:0:0:
64,192,16134,1,2,0:0:0:0:
320,192,16450,1,8,0:0:0:0:
448,192,16450,1,0,0:0:0:0:
192,192,16765,1,2,0:0:0:0:
64,192,16765,1,8,0:0:0:0:
320,192,17081,1,10,0:0:0:0:
192,192,17397,128,10,17713:0:0:0:0:
320,192,17713,128,10,18029:0:0:0:0:
64,192,18029,1,8,0:0:0:0:
448,192,18029,1,2,0:0:0:0:
192,192,18344,1,10,0:0:0:0:
320,192,18660,128,10,18976:0:0:0:0:
192,192,18976,128,10,19292:0:0:0:0:
448,192,19292,1,10,0:0:0:0:
448,192,19608,1,10,0:0:0:0:
320,192,19765,1,10,0:0:0:0:
64,192,19923,1,10,0:0:0:0:
64,192,20239,1,10,0:0:0:0:
192,192,20397,1,10,0:0:0:0:
448,192,20555,128,10,20871:0:0:0:0:
64,192,20871,128,8,21186:0:0:0:0:
320,192,21186,128,8,21502:0:0:0:0:
192,192,21502,128,8,21818:0:0:0:0:
448,192,21818,1,0,0:0:0:60:Boom.wav
64,192,21818,1,8,0:0:0:0:
320,192,22292,1,0,0:0:0:0:
192,192,22450,1,0,0:0:0:0:
448,192,23081,1,0,0:0:0:0:
192,192,23555,1,0,0:0:0:0:
320,192,23713,1,0,0:0:0:0:
192,192,24029,1,0,0:0:0:0:
64,192,24344,1,0,0:0:0:0:
448,192,24818,1,0,0:0:0:0:
64,192,24976,1,0,0:0:0:0:
320,192,25608,1,0,0:0:0:0:
192,192,26871,1,2,0:0:0:0:
64,192,26871,1,4,0:0:0:0:
320,192,27344,1,0,0:0:0:0:
192,192,27502,1,0,0:0:0:0:
448,192,28134,1,2,0:0:0:0:
320,192,28134,1,4,0:0:0:0:
192,192,28608,1,0,0:0:0:0:
448,192,28765,1,0,0:0:0:0:
320,192,29081,128,2,29397:0:0:0:0:
64,192,29397,1,6,0:0:0:0:
448,192,29555,1,6,0:0:0:0:
64,192,30029,1,6,0:0:0:0:
448,192,30186,1,6,0:0:0:0:
64,192,30818,1,6,0:0:0:0:
448,192,30976,1,6,0:0:0:0:
64,192,31292,1,2,0:0:0:0:
320,192,31529,1,2,0:0:0:0:
192,192,31765,1,2,0:0:0:0:
448,192,31923,1,2,0:0:0:0:
320,192,31923,1,4,0:0:0:0:
64,192,32555,1,2,0:0:0:0:
448,192,33186,1,2,0:0:0:0:
64,192,33818,1,2,0:0:0:0:
448,192,34450,1,2,0:0:0:0:
64,192,35081,1,2,0:0:0:0:
448,192,35713,1,2,0:0:0:0:
64,192,36344,1,2,0:0:0:0:
320,192,36976,1,2,0:0:0:0:
448,192,36976,1,4,0:0:0:0:
320,192,37292,1,10,0:0:0:0:
192,192,37608,1,10,0:0:0:0:
192,192,37923,1,10,0:0:0:0:
448,192,38239,1,2,0:0:0:0:
64,192,38239,1,4,0:0:0:0:
448,192,38555,1,10,0:0:0:0:
64,192,38871,1,10,0:0:0:0:
64,192,39186,1,10,0:0:0:0:
448,192,39502,128,2,40134:0:0:0:0:
192,192,39502,1,4,0:0:0:0:
320,192,39818,1,2,0:0:0:0:
64,192,40134,128,2,40765:0:0:0:0:
192,192,40134,1,4,0:0:0:0:
448,192,40450,1,2,0:0:0:0:
320,192,40765,128,6,41081:0:0:0:0:
192,192,41081,128,6,41397:0:0:0:0:
448,192,41397,128,6,41713:0:0:0:0:
64,192,41713,1,8,0:0:0:0:
320,192,42029,1,6,0:0:0:0:
192,192,42344,1,0,0:0:0:65:Clap.wav
320,192,42660,1,0,0:0:0:65:Clap.wav
192,192,42976,1,0,0:0:0:65:Clap.wav
448,192,43292,1,0,0:0:0:65:Clap.wav
64,192,43608,1,0,0:0:0:65:Clap.wav
448,192,43923,128,0,44239:0:0:0:65:Clap.wav
64,192,44239,128,0,44555:0:0:0:65:Clap.wav
320,192,44555,128,0,45186:0:0:0:65:Clap.wav
192,192,45186,128,0,45818:0:0:0:65:Clap.wav
448,192,45818,128,0,46450:0:0:0:65:Clap.wav
64,192,46450,1,0,0:0:0:45:Drop.wav
448,192,47081,1,2,0:0:0:0:
64,192,47081,1,4,0:0:0:0:
320,192,47713,1,12,0:0:0:0:
192,192,48344,1,4,0:0:0:0:
448,192,48660,1,2,0:0:0:0:
64,192,48976,1,12,0:0:0:0:
320,192,49608,1,2,0:0:0:0:
448,192,49608,1,4,0:0:0:0:
192,192,50239,1,12,0:0:0:0:
320,192,50871,1,6,0:0:0:0:
64,192,51344,1,2,0:0:0:0:
448,192,51502,1,12,0:0:0:0:
192,192,52134,1,6,0:0:0:0:
192,192,52450,1,6,0:0:0:0:
448,192,52765,1,12,0:0:0:0:
448,192,53397,1,4,0:0:0:0:
64,192,53713,1,2,0:0:0:0:
320,192,54029,1,12,0:0:0:0:
320,192,54344,1,8,0:0:0:0:
192,192,54502,1,2,0:0:0:0:
448,192,54660,1,6,0:0:0:0:
64,192,54818,1,0,0:0:0:45:Drop.wav
320,192,54976,1,8,0:0:0:0:
192,192,55450,1,2,0:0:0:0:
448,192,55608,1,8,0:0:0:0:
64,192,55765,1,2,0:0:0:0:
320,192,55923,1,6,0:0:0:0:
320,192,56239,1,10,0:0:0:0:
320,192,56555,1,2,0:0:0:0:
64,192,56713,1,8,0:0:0:0:
448,192,57029,1,0,0:0:0:45:Snare.wav
192,192,57186,1,2,0:0:0:0:
64,192,57186,1,4,0:0:0:0:
320,192,57502,1,8,0:0:0:0:
64,192,57818,1,2,0:0:0:0:
448,192,58134,1,8,0:0:0:0:
192,192,58450,1,2,0:0:0:0:
320,192,58765,1,8,0:0:0:0:
64,192,59081,1,2,0:0:0:0:
192,192,59397,1,8,0:0:0:0:
448,192,59713,1,2,0:0:0:0:
320,192,60029,1,8,0:0:0:0:
192,192,60344,1,2,0:0:0:0:
64,192,60660,1,8,0:0:0:0:
448,192,60976,1,2,0:0:0:0:
192,192,61134,1,2,0:0:0:0:
448,192,61292,1,10,0:0:0:0:
320,192,61608,1,2,0:0:0:0:
64,192,61923,1,8,0:0:0:0:
448,192,62081,1,2,0:0:0:0:
64,192,62239,1,6,0:0:0:0:
192,192,62555,1,8,0:0:0:0:
448,192,62871,1,2,0:0:0:0:
320,192,63186,1,8,0:0:0:0:
64,192,63502,1,10,0:0:0:0:
192,192,63818,1,10,0:0:0:0:
320,192,64134,1,10,0:0:0:0:
448,192,64450,1,10,0:0:0:0:
192,192,64765,1,8,0:0:0:0:
64,192,64765,1,2,0:0:0:0:
320,192,64923,1,8,0:0:0:0:
320,192,65239,1,8,0:0:0:0:
192,192,65555,1,8,0:0:0:0:
192,192,65871,1,8,0:0:0:0:
448,192,66029,128,8,66660:0:0:0:0:
64,192,66660,1,2,0:0:0:0:
320,192,66897,1,2,0:0:0:0:
192,192,67134,1,2,0:0:0:0:
448,192,67292,128,0,68555:0:0:0:60:Boom.wav
192,192,68555,128,0,69818:0:0:0:0:
320,192,69818,128,0,71081:0:0:0:0:
64,192,71081,128,0,72344:0:0:0:0:
448,192,72344,128,0,73608:0:0:0:0:
192,192,73608,128,0,74871:0:0:0:0:
320,192,74871,128,0,76134:0:0:0:0:
192,192,76134,128,2,77397:0:0:0:0:
64,192,76134,1,4,0:0:0:0:
448,192,77397,1,2,0:0:0:0:
64,192,77713,1,2,0:0:0:0:
448,192,78029,1,2,0:0:0:0:
192,192,78265,1,2,0:0:0:0:
320,192,78502,1,2,0:0:0:0:
64,192,78818,1,2,0:0:0:0:
448,192,78976,1,2,0:0:0:0:
192,192,79292,1,2,0:0:0:0:
320,192,79529,1,2,0:0:0:0:
64,192,79765,1,2,0:0:0:0:
448,192,79923,1,2,0:0:0:0:
192,192,80239,1,2,0:0:0:0:
448,192,80555,1,2,0:0:0:0:
320,192,80792,1,2,0:0:0:0:
192,192,81029,1,2,0:0:0:0:
64,192,81344,1,2,0:0:0:0:
448,192,81502,1,2,0:0:0:0:
320,192,81818,1,2,0:0:0:0:
192,192,82055,1,2,0:0:0:0:
448,192,82292,1,2,0:0:0:0:
64,192,82450,1,2,0:0:0:0:
320,192,82765,1,2,0:0:0:0:
192,192,83081,1,2,0:0:0:0:
448,192,83318,1,2,0:0:0:0:
64,192,83555,1,2,0:0:0:0:
320,192,83871,1,2,0:0:0:0:
192,192,84029,1,2,0:0:0:0:
64,192,84344,1,2,0:0:0:0:
448,192,84581,1,2,0:0:0:0:
192,192,84818,1,2,0:0:0:0:
320,192,84976,1,2,0:0:0:0:
64,192,85292,1,2,0:0:0:0:
192,192,85608,1,2,0:0:0:0:
448,192,85844,1,2,0:0:0:0:
64,192,86081,1,2,0:0:0:0:
320,192,86239,128,6,86555:0:0:0:0:
192,192,86555,128,6,86871:0:0:0:0:
448,192,86871,128,6,87186:0:0:0:0:
64,192,87186,1,8,0:0:0:0:
320,192,87502,1,6,0:0:0:0:
320,192,87818,1,0,0:0:0:55:Clap.wav
320,192,88134,1,0,0:0:0:55:Clap.wav
64,192,88450,1,0,0:0:0:55:Clap.wav
192,192,88765,1,0,0:0:0:55:Clap.wav
192,192,89081,1,0,0:0:0:55:Clap.wav
192,192,89397,1,0,0:0:0:55:Clap.wav
320,192,89713,1,0,0:0:0:55:Clap.wav
448,192,90029,1,0,0:0:0:55:Clap.wav
448,192,90344,1,0,0:0:0:55:Clap.wav
448,192,90660,1,0,0:0:0:55:Clap.wav
192,192,90976,1,0,0:0:0:55:Clap.wav
64,192,91292,1,0,0:0:0:55:Clap.wav
64,192,91608,1,0,0:0:0:55:Clap.wav
64,192,91923,1,0,0:0:0:55:Clap.wav
320,192,92239,1,0,0:0:0:55:Clap.wav
192,192,92555,1,0,0:0:0:55:Clap.wav
64,192,92555,1,0,0:0:0:55:Cymbal short.wav
320,192,92871,1,0,0:0:0:55:Clap.wav
448,192,93186,1,0,0:0:0:55:Clap.wav
64,192,93186,1,0,0:0:0:55:Cymbal short.wav
192,192,93502,1,0,0:0:0:55:Clap.wav
320,192,93818,1,0,0:0:0:55:Clap.wav
448,192,93818,1,0,0:0:0:55:Cymbal short.wav
64,192,94134,1,0,0:0:0:55:Clap.wav
320,192,94450,1,0,0:0:0:55:Clap.wav
192,192,94450,1,0,0:0:0:55:Cymbal short.wav
448,192,94765,1,0,0:0:0:55:Clap.wav
64,192,95081,128,0,95397:0:0:0:55:Clap.wav
192,192,95081,1,0,0:0:0:55:Cymbal short.wav
448,192,95397,128,0,95713:0:0:0:55:Clap.wav
320,192,95397,1,0,0:0:0:55:Cymbal short.wav
192,192,95713,128,0,96029:0:0:0:55:Clap.wav
64,192,95713,128,0,96029:0:0:0:55:Cymbal short.wav
320,192,96029,128,0,96344:0:0:0:55:Clap.wav
448,192,96029,128,0,96344:0:0:0:55:Cymbal short.wav
64,192,96344,1,0,0:0:0:0:
320,192,96976,128,0,97292:0:0:0:0:
192,192,97292,1,0,0:0:0:45:Drop.wav
448,192,97608,1,6,0:0:0:0:
448,192,98239,1,6,0:0:0:0:
64,192,98871,1,6,0:0:0:0:
64,192,99502,1,6,0:0:0:0:
448,192,99818,1,12,0:0:0:0:
320,192,99976,1,2,0:0:0:0:
192,192,100134,1,2,0:0:0:0:
64,192,100134,128,4,100450:0:0:0:0:
448,192,100450,1,8,0:0:0:0:
320,192,100608,1,0,0:0:0:0:
192,192,100765,128,2,101397:0:0:0:0:
320,192,101081,1,8,0:0:0:0:
448,192,101397,128,2,102660:0:0:0:0:
64,192,101713,1,8,0:0:0:0:
320,192,102029,1,2,0:0:0:0:
192,192,102344,1,8,0:0:0:0:
64,192,102660,128,2,102976:0:0:0:0:
320,192,102976,1,8,0:0:0:0:
448,192,103134,1,0,0:0:0:0:
192,192,103292,128,2,103923:0:0:0:0:
320,192,103608,1,8,0:0:0:0:
448,192,103923,128,2,104239:0:0:0:0:
192,192,104239,1,8,0:0:0:0:
64,192,104555,1,2,0:0:0:0:
192,192,104713,1,0,0:0:0:0:
320,192,104871,1,8,0:0:0:0:
448,192,105029,1,0,0:0:0:0:
64,192,105186,128,2,105502:0:0:0:0:
448,192,105502,1,8,0:0:0:0:
320,192,105660,1,0,0:0:0:0:
192,192,105818,128,2,106450:0:0:0:0:
448,192,106134,1,8,0:0:0:0:
320,192,106450,1,2,0:0:0:0:
192,192,106765,1,8,0:0:0:0:
64,192,107081,1,2,0:0:0:0:
448,192,107239,1,8,0:0:0:0:
320,192,107713,1,2,0:0:0:0:
448,192,107713,128,4,108029:0:0:0:0:
192,192,108029,1,8,0:0:0:0:
320,192,108186,1,0,0:0:0:0:
64,192,108344,128,2,108976:0:0:0:0:
320,192,108660,1,8,0:0:0:0:
448,192,108976,128,2,109292:0:0:0:0:
192,192,109292,1,8,0:0:0:0:
448,192,109608,1,2,0:0:0:0:
320,192,109765,1,0,0:0:0:0:
192,192,109923,1,8,0:0:0:0:
64,192,110081,1,0,0:0:0:0:
448,192,110239,128,2,110555:0:0:0:0:
320,192,110239,128,0,110555:0:0:0:0:
64,192,110555,1,10,0:0:0:0:
192,192,110713,1,0,0:0:0:0:
320,192,110871,128,2,111502:0:0:0:0:
192,192,111186,1,8,0:0:0:0:
448,192,111502,1,2,0:0:0:0:
64,192,111818,1,8,0:0:0:0:
320,192,111976,1,2,0:0:0:0:
192,192,112134,1,2,0:0:0:0:
448,192,112450,1,8,0:0:0:0:
192,192,112765,128,2,113081:0:0:0:0:
64,192,112765,1,4,0:0:0:0:
448,192,113081,1,8,0:0:0:0:
320,192,113239,1,0,0:0:0:0:
64,192,113397,128,2,114029:0:0:0:0:
448,192,113713,1,8,0:0:0:0:
320,192,113871,1,2,0:0:0:0:
192,192,114029,1,6,0:0:0:0:
448,192,114186,1,2,0:0:0:0:
64,192,114344,1,10,0:0:0:0:
320,192,114660,1,6,0:0:0:0:
64,192,114976,1,8,0:0:0:0:
192,192,115134,1,2,0:0:0:0:
320,192,115292,1,8,0:0:0:0:
448,192,115292,1,6,0:0:0:0:
64,192,115450,1,8,0:0:0:0:
64,192,115765,1,8,0:0:0:0:
320,192,116081,1,8,0:0:0:0:
320,192,116397,1,8,0:0:0:0:
448,192,116713,1,10,0:0:0:0:
192,192,116871,128,8,117186:0:0:0:0:
64,192,116871,128,2,117186:0:0:0:0:
448,192,117186,1,10,0:0:0:0:
320,192,117423,1,10,0:0:0:0:
192,192,117660,1,10,0:0:0:0:
448,192,117818,1,0,0:0:0:60:Boom.wav
