osu file format v14

[General]
AudioFilename: audio.mp3
AudioLeadIn: 0
PreviewTime: 97269
Countdown: 0
SampleSet: Normal
StackLeniency: 0.7
Mode: 1
LetterboxInBreaks: 0
WidescreenStoryboard: 0

[Editor]
Bookmarks: 11532,21637,31742,41848,77216,87321,97427,122058
DistanceSpacing: 0.8
BeatDivisor: 8
GridSize: 32
TimelineZoom: 1.7

[Metadata]
Title:Sweet Requiem
TitleUnicode:Sweet Requiem
Artist:REDALiCE & aran
ArtistUnicode:REDALiCE & aran
Creator:Marm
Version:Threnody
Source:東方永夜抄 ~ Imperishable Night.
Tags:東方Project Touhou ZUN 太田順也 Oota Junya Team Shanghai Alice 上海アリス幻樂団 Eternal Night Vignette Eiyashou 少女綺想曲 ~ Dream Battle Maiden's Capriccio Reimu 博麗 霊夢 AECD-046 Annual Hakurei Shrine Grand Festival 博麗神社例大祭 Jinja Reitaisai 14 gaston_2199
BeatmapID:1408434
BeatmapSetID:665521

[Difficulty]
HPDrainRate:4
CircleSize:2
OverallDifficulty:6.5
ApproachRate:0
SliderMultiplier:1.4
SliderTickRate:1

[Events]
//Background and Video events
0,0,"sweet requiem.jpg",0,-50
//Break Periods
//Storyboard Layer 0 (Background)
//Storyboard Layer 1 (Fail)
//Storyboard Layer 2 (Pass)
//Storyboard Layer 3 (Foreground)
//Storyboard Sound Samples

[TimingPoints]
1427,315.789473684211,4,1,0,100,1,0
22032,-133.333333333333,4,1,0,65,0,0
22190,-135.135135135135,4,1,0,65,0,0
22821,-140.845070422535,4,1,0,65,0,0
23295,-144.927536231884,4,1,0,65,0,0
23492,-147.058823529412,4,1,0,65,0,0
23611,-149.253731343284,4,1,0,65,0,0
23769,-151.515151515152,4,1,0,65,0,0
23927,-153.846153846154,4,1,0,65,0,0
24084,-156.25,4,1,0,65,0,0
24598,-158.730158730159,4,1,0,65,0,0
24716,-161.290322580645,4,1,0,65,0,0
25348,-166.666666666667,4,1,0,65,0,0
26532,-125,4,1,0,75,0,0
36913,-123.456790123457,4,1,0,75,0,0
37071,-121.951219512195,4,1,0,100,0,0
37229,-120.481927710843,4,1,0,100,0,0
37387,-119.047619047619,4,1,0,100,0,0
37545,-117.647058823529,4,1,0,100,0,0
37703,-116.279069767442,4,1,0,100,0,0
37861,-114.942528735632,4,1,0,100,0,0
38019,-113.636363636364,4,1,0,100,0,0
38177,-112.359550561798,4,1,0,100,0,0
38334,-111.111111111111,4,1,0,100,0,0
38492,-109.89010989011,4,1,0,100,0,0
38650,-108.695652173913,4,1,0,100,0,0
38808,-107.52688172043,4,1,0,100,0,0
38966,-106.382978723404,4,1,0,100,0,0
39124,-105.263157894737,4,1,0,100,0,0
39282,-104.166666666667,4,1,0,100,0,0
39361,-103.092783505155,4,1,0,100,0,0
39440,-102.040816326531,4,1,0,100,0,0
39519,-101.010101010101,4,1,0,100,0,0
39598,-100,4,1,0,100,0,0
39677,-99.009900990099,4,1,0,100,0,0
39755,-98.0392156862745,4,1,0,100,0,0
39834,-97.0873786407767,4,1,0,100,0,0
39913,-96.1538461538461,4,1,0,100,0,0
39992,-95.2380952380952,4,1,0,100,0,0
40071,-94.3396226415094,4,1,0,100,0,0
40150,-93.4579439252336,4,1,0,100,0,0
40229,-92.5925925925926,4,1,0,100,0,0
40308,-91.743119266055,4,1,0,100,0,0
40387,-90.9090909090909,4,1,0,100,0,0
40466,-90.0900900900901,4,1,0,100,0,0
40545,-89.2857142857143,4,1,0,100,0,0
44532,-91.743119266055,4,1,0,100,0,0
44742,-94.3396226415094,4,1,0,100,0,0
44953,-99.009900990099,4,1,0,100,0,0
45163,-102.040816326531,4,1,0,100,0,0
45374,-105.263157894737,4,1,0,100,0,0
45584,-108.695652173913,4,1,0,100,0,0
45795,-112.359550561798,4,1,0,100,0,0
46005,-116.279069767442,4,1,0,100,0,0
46216,-120.481927710843,4,1,0,100,0,0
46821,-133.333333333333,4,1,0,100,0,0
54124,-131.578947368421,4,1,0,100,0,0
54282,-129.87012987013,4,1,0,100,0,0
54440,-128.205128205128,4,1,0,100,0,0
54598,-126.582278481013,4,1,0,100,0,0
54755,-125,4,1,0,100,0,0
54913,-123.456790123457,4,1,0,100,0,0
55071,-121.951219512195,4,1,0,100,0,0
55229,-120.481927710843,4,1,0,100,0,0
55387,-119.047619047619,4,1,0,100,0,0
55545,-117.647058823529,4,1,0,100,0,0
55703,-116.279069767442,4,1,0,100,0,0
55861,-114.942528735632,4,1,0,100,0,0
56019,-113.636363636364,4,1,0,100,0,0
56177,-112.359550561798,4,1,0,100,0,0
56334,-111.111111111111,4,1,0,100,0,0
56492,-109.89010989011,4,1,0,100,0,0
56808,-100,4,1,0,100,0,0
57005,-100,4,1,0,100,0,1
67111,-100,4,1,0,100,0,0
75992,-99.009900990099,4,1,0,100,0,0
76308,-98.0392156862745,4,1,0,100,0,0
76545,-97.0873786407767,4,1,0,100,0,0
76782,-96.1538461538461,4,1,0,100,0,0
77019,-95.2380952380952,4,1,0,100,0,0
77177,-94.3396226415094,4,1,0,100,0,0
77453,-90.9090909090909,4,1,0,100,0,0
77769,-86.9565217391304,4,1,0,100,0,0
78005,-85.4700854700855,4,1,0,100,0,0
78242,-83.3333333333333,4,1,0,100,0,0
78558,-81.3008130081301,4,1,0,100,0,0
78716,-80,4,1,0,100,0,0
79032,-78.125,4,1,0,100,0,0
79269,-76.3358778625954,4,1,0,100,0,0
79505,-75.187969924812,4,1,0,100,0,0
79663,-76.9230769230769,4,1,0,100,0,0
79979,-80,4,1,0,100,0,0
80295,-83.3333333333333,4,1,0,100,0,0
80532,-85.4700854700855,4,1,0,100,0,0
80769,-86.9565217391304,4,1,0,100,0,0
81084,-90.9090909090909,4,1,0,100,0,0
81203,-91.743119266055,4,1,0,100,0,0
81282,-92.5925925925926,4,1,0,100,0,0
81558,-94.3396226415094,4,1,0,100,0,0
81795,-96.1538461538461,4,1,0,100,0,0
82032,-98.0392156862745,4,1,0,100,0,0
82190,-99.009900990099,4,1,0,100,0,0
82427,-100,4,1,0,100,0,0
87374,-99.009900990099,4,1,0,100,0,0
87584,-98.0392156862745,4,1,0,100,0,0
87900,-97.0873786407767,4,1,0,100,0,0
88005,-98.0392156862745,4,1,0,100,0,0
88111,-99.009900990099,4,1,0,100,0,0
88216,-100,4,1,0,100,0,0
88742,-99.009900990099,4,1,0,100,0,0
88953,-98.0392156862745,4,1,0,100,0,0
89163,-97.0873786407767,4,1,0,100,0,0
89269,-98.0392156862745,4,1,0,100,0,0
89374,-99.009900990099,4,1,0,100,0,0
89479,-100,4,1,0,100,0,0
90005,-99.009900990099,4,1,0,100,0,0
90321,-98.0392156862745,4,1,0,100,0,0
90427,-97.0873786407767,4,1,0,100,0,0
90532,-98.0392156862745,4,1,0,100,0,0
90637,-99.009900990099,4,1,0,100,0,0
90742,-100,4,1,0,100,0,0
91163,-99.009900990099,4,1,0,100,0,0
91479,-98.0392156862745,4,1,0,100,0,0
91690,-97.0873786407767,4,1,0,100,0,0
91795,-98.0392156862745,4,1,0,100,0,0
91900,-99.009900990099,4,1,0,100,0,0
92005,-100,4,1,0,100,0,0
92427,-99.009900990099,4,1,0,100,0,0
92742,-98.0392156862745,4,1,0,100,0,0
93058,-97.0873786407767,4,1,0,100,0,0
93374,-96.1538461538461,4,1,0,100,0,0
93690,-95.2380952380952,4,1,0,100,0,0
94005,-94.3396226415094,4,1,0,100,0,0
94321,-93.4579439252336,4,1,0,100,0,0
94637,-92.5925925925926,4,1,0,100,0,0
94953,-91.743119266055,4,1,0,100,0,0
95269,-90.9090909090909,4,1,0,100,0,0
95374,-90.0900900900901,4,1,0,100,0,0
95479,-89.2857142857143,4,1,0,100,0,0
95584,-88.4955752212389,4,1,0,100,0,0
95690,-87.719298245614,4,1,0,100,0,0
95795,-86.9565217391304,4,1,0,100,0,0
95900,-86.2068965517241,4,1,0,100,0,0
96005,-85.4700854700855,4,1,0,100,0,0
96111,-84.7457627118644,4,1,0,100,0,0
96637,-125,4,1,0,100,0,0
96953,-120.481927710843,4,1,0,100,0,0
97269,-117.647058823529,4,1,0,100,0,0
97742,-113.636363636364,4,1,0,100,0,0
97979,-112.359550561798,4,1,0,100,0,0
98571,-108.695652173913,4,1,0,100,0,0
98966,-107.52688172043,4,1,0,100,0,0
99124,-106.382978723404,4,1,0,100,0,0
99282,-105.263157894737,4,1,0,100,0,0
99440,-104.166666666667,4,1,0,100,0,0
99519,-103.092783505155,4,1,0,100,0,0
99598,-102.040816326531,4,1,0,100,0,0
99755,-101.010101010101,4,1,0,100,0,0
99953,-100,4,1,0,100,0,1
117637,-100,4,1,0,100,0,0

[HitObjects]
256,192,163,5,0,0:0:0:0:
256,192,321,1,8,0:0:0:0:
256,192,637,1,8,0:0:0:0:
256,192,795,1,8,0:0:0:0:
256,192,953,1,0,0:0:0:0:
256,192,1032,1,0,0:0:0:0:
256,192,1111,1,8,0:0:0:0:
256,192,1427,1,0,0:0:0:0:
256,192,1584,1,8,0:0:0:0:
256,192,1742,1,0,0:0:0:0:
256,192,1821,1,0,0:0:0:0:
256,192,1900,1,8,0:0:0:0:
256,192,2058,1,8,0:0:0:0:
256,192,2137,1,0,0:0:0:0:
256,192,2216,1,8,0:0:0:0:
256,192,2295,1,8,0:0:0:0:
256,192,2374,1,0,0:0:0:0:
256,192,2532,1,8,0:0:0:0:
256,192,2848,1,8,0:0:0:0:
256,192,3005,1,0,0:0:0:0:
256,192,3084,1,0,0:0:0:0:
256,192,3163,1,8,0:0:0:0:
256,192,3321,1,8,0:0:0:0:
256,192,3479,1,8,0:0:0:0:
256,192,3558,1,0,0:0:0:0:
256,192,3637,1,8,0:0:0:0:
256,192,3795,1,0,0:0:0:0:
256,192,3953,1,0,0:0:0:0:
256,192,4111,1,0,0:0:0:0:
256,192,4269,1,8,0:0:0:0:
256,192,4348,1,8,0:0:0:0:
256,192,4427,1,0,0:0:0:0:
256,192,4584,1,8,0:0:0:0:
256,192,4663,1,8,0:0:0:0:
256,192,4742,1,0,0:0:0:0:
256,192,4821,1,0,0:0:0:0:
256,192,4900,1,8,0:0:0:0:
256,192,5058,1,8,0:0:0:0:
256,192,5216,1,0,0:0:0:0:
256,192,5374,1,8,0:0:0:0:
256,192,5453,1,8,0:0:0:0:
256,192,5532,1,0,0:0:0:0:
256,192,5690,1,8,0:0:0:0:
256,192,5769,1,8,0:0:0:0:
256,192,5848,1,0,0:0:0:0:
256,192,5927,1,0,0:0:0:0:
256,192,6005,1,8,0:0:0:0:
256,192,6084,1,0,0:0:0:0:
256,192,6163,1,8,0:0:0:0:
256,192,6242,1,0,0:0:0:0:
256,192,6321,1,8,0:0:0:0:
256,192,6400,1,8,0:0:0:0:
256,192,6479,1,0,0:0:0:0:
256,192,6637,1,8,0:0:0:0:
256,192,6795,1,8,0:0:0:0:
256,192,6953,1,0,0:0:0:0:
256,192,7032,1,8,0:0:0:0:
256,192,7111,1,0,0:0:0:0:
256,192,7269,1,8,0:0:0:0:
256,192,7427,1,8,0:0:0:0:
256,192,7505,1,0,0:0:0:0:
256,192,7584,1,0,0:0:0:0:
256,192,7742,1,8,0:0:0:0:
256,192,7821,1,8,0:0:0:0:
256,192,7900,1,0,0:0:0:0:
256,192,8058,1,8,0:0:0:0:
256,192,8137,1,0,0:0:0:0:
256,192,8216,1,8,0:0:0:0:
256,192,8295,1,8,0:0:0:0:
256,192,8374,1,0,0:0:0:0:
256,192,8532,1,8,0:0:0:0:
256,192,8611,1,0,0:0:0:0:
256,192,8690,1,8,0:0:0:0:
256,192,8848,1,0,0:0:0:0:
256,192,8927,1,0,0:0:0:0:
256,192,9005,1,8,0:0:0:0:
256,192,9084,1,8,0:0:0:0:
256,192,9163,1,0,0:0:0:0:
256,192,9321,1,8,0:0:0:0:
256,192,9400,1,0,0:0:0:0:
256,192,9479,1,8,0:0:0:0:
256,192,9558,1,8,0:0:0:0:
256,192,9637,1,0,0:0:0:0:
256,192,9795,1,8,0:0:0:0:
256,192,9874,1,0,0:0:0:0:
256,192,9953,1,8,0:0:0:0:
256,192,10032,1,8,0:0:0:0:
256,192,10111,1,8,0:0:0:0:
256,192,10190,1,0,0:0:0:0:
256,192,10269,1,8,0:0:0:0:
256,192,10348,1,8,0:0:0:0:
256,192,10427,1,0,0:0:0:0:
256,192,10505,1,0,0:0:0:0:
256,192,10584,1,8,0:0:0:0:
256,192,10663,1,0,0:0:0:0:
256,192,10742,1,8,0:0:0:0:
256,192,10821,1,8,0:0:0:0:
256,192,10900,1,0,0:0:0:0:
256,192,11216,5,8,0:0:0:0:
256,192,11295,1,8,0:0:0:0:
256,192,11374,1,8,0:0:0:0:
256,192,11453,1,8,0:0:0:0:
256,192,11532,1,0,0:0:0:0:
256,192,11690,1,8,0:0:0:0:
256,192,11848,1,0,0:0:0:0:
256,192,11927,1,8,0:0:0:0:
256,192,12005,1,8,0:0:0:0:
256,192,12084,1,0,0:0:0:0:
256,192,12163,1,8,0:0:0:0:
256,192,12321,1,8,0:0:0:0:
256,192,12479,1,0,0:0:0:0:
256,192,12637,1,8,0:0:0:0:
256,192,12716,1,8,0:0:0:0:
256,192,12795,1,0,0:0:0:0:
256,192,12953,1,8,0:0:0:0:
256,192,13111,1,0,0:0:0:0:
256,192,13190,1,0,0:0:0:0:
256,192,13269,1,8,0:0:0:0:
256,192,13348,1,0,0:0:0:0:
256,192,13427,1,8,0:0:0:0:
256,192,13584,1,8,0:0:0:0:
256,192,13742,1,0,0:0:0:0:
256,192,13900,1,8,0:0:0:0:
256,192,14058,1,8,0:0:0:0:
256,192,14137,1,8,0:0:0:0:
256,192,14216,1,8,0:0:0:0:
256,192,14295,1,0,0:0:0:0:
256,192,14374,1,8,0:0:0:0:
256,192,14532,1,0,0:0:0:0:
256,192,14690,1,8,0:0:0:0:
256,192,14848,1,0,0:0:0:0:
256,192,14927,1,0,0:0:0:0:
256,192,15005,1,8,0:0:0:0:
256,192,15163,1,8,0:0:0:0:
256,192,15321,1,8,0:0:0:0:
256,192,15400,1,0,0:0:0:0:
256,192,15479,1,8,0:0:0:0:
256,192,15558,1,8,0:0:0:0:
256,192,15637,1,0,0:0:0:0:
256,192,15795,1,0,0:0:0:0:
256,192,15953,1,8,0:0:0:0:
256,192,16111,1,8,0:0:0:0:
256,192,16190,1,8,0:0:0:0:
256,192,16269,1,0,0:0:0:0:
256,192,16427,1,8,0:0:0:0:
256,192,16584,1,0,0:0:0:0:
256,192,16663,1,0,0:0:0:0:
256,192,16742,1,8,0:0:0:0:
256,192,16900,1,8,0:0:0:0:
256,192,17058,1,0,0:0:0:0:
256,192,17137,1,8,0:0:0:0:
256,192,17216,1,8,0:0:0:0:
256,192,17295,1,0,0:0:0:0:
256,192,17374,1,8,0:0:0:0:
256,192,17532,1,8,0:0:0:0:
256,192,17690,1,0,0:0:0:0:
256,192,17848,1,8,0:0:0:0:
256,192,17927,1,0,0:0:0:0:
256,192,18005,1,8,0:0:0:0:
256,192,18163,1,8,0:0:0:0:
256,192,18242,1,0,0:0:0:0:
256,192,18321,1,8,0:0:0:0:
256,192,18400,1,8,0:0:0:0:
256,192,18479,1,0,0:0:0:0:
256,192,18637,1,8,0:0:0:0:
256,192,18716,1,0,0:0:0:0:
256,192,18795,1,8,0:0:0:0:
256,192,18953,1,0,0:0:0:0:
256,192,19111,1,8,0:0:0:0:
256,192,19190,1,8,0:0:0:0:
256,192,19269,1,0,0:0:0:0:
256,192,19348,1,0,0:0:0:0:
256,192,19427,1,8,0:0:0:0:
256,192,19505,1,0,0:0:0:0:
256,192,19584,1,8,0:0:0:0:
256,192,19663,1,0,0:0:0:0:
256,192,19742,1,0,0:0:0:0:
256,192,19821,1,8,0:0:0:0:
256,192,19900,1,0,0:0:0:0:
256,192,19979,1,0,0:0:0:0:
256,192,20058,1,8,0:0:0:0:
256,192,20137,1,8,0:0:0:0:
256,192,20216,1,0,0:0:0:0:
256,192,20295,1,0,0:0:0:0:
256,192,20374,1,8,0:0:0:0:
256,192,20453,1,0,0:0:0:0:
256,192,20532,1,8,0:0:0:0:
256,192,20611,1,0,0:0:0:0:
256,192,20690,1,0,0:0:0:0:
256,192,20769,1,0,0:0:0:0:
256,192,20848,1,8,0:0:0:0:
256,192,20927,1,8,0:0:0:0:
256,192,21005,1,0,0:0:0:0:
256,192,21084,1,8,0:0:0:0:
256,192,21163,1,0,0:0:0:0:
256,192,21242,1,8,0:0:0:0:
256,192,21321,1,0,0:0:0:0:
256,192,21400,1,0,0:0:0:0:
256,192,21479,1,8,0:0:0:0:
256,192,21558,1,8,0:0:0:0:
256,192,21637,1,0,0:0:0:0:
256,192,22111,1,8,0:0:0:0:
256,192,22269,1,0,0:0:0:0:
256,192,22900,1,8,0:0:0:0:
256,192,23374,1,8,0:0:0:0:
256,192,23453,1,0,0:0:0:0:
256,192,23532,1,8,0:0:0:0:
256,192,23690,1,0,0:0:0:0:
256,192,23848,1,8,0:0:0:0:
256,192,24005,1,8,0:0:0:0:
256,192,24163,1,0,0:0:0:0:
256,192,24637,1,8,0:0:0:0:
256,192,24795,1,0,0:0:0:0:
256,192,25427,1,8,0:0:0:0:
256,192,26690,1,4,0:0:0:0:
256,192,27163,1,8,0:0:0:0:
256,192,27321,1,0,0:0:0:0:
256,192,27953,1,12,0:0:0:0:
256,192,28427,1,8,0:0:0:0:
256,192,28505,1,0,0:0:0:0:
256,192,28584,1,0,0:0:0:0:
256,192,28742,1,8,0:0:0:0:
256,192,28900,1,0,0:0:0:0:
256,192,28979,1,0,0:0:0:0:
256,192,29058,1,8,0:0:0:0:
256,192,29216,1,4,0:0:0:0:
256,192,29374,1,4,0:0:0:0:
256,192,29690,1,8,0:0:0:0:
256,192,29848,1,4,0:0:0:0:
256,192,30005,1,4,0:0:0:0:
256,192,30321,1,8,0:0:0:0:
256,192,30637,1,4,0:0:0:0:
256,192,30795,1,4,0:0:0:0:
256,192,31111,1,4,0:0:0:0:
256,192,31348,1,4,0:0:0:0:
256,192,31584,1,4,0:0:0:0:
256,192,31742,1,12,0:0:0:0:
256,192,32058,1,0,0:0:0:0:
256,192,32216,1,8,0:0:0:0:
256,192,32374,1,4,0:0:0:0:
256,192,32690,1,0,0:0:0:0:
256,192,33005,1,12,0:0:0:0:
256,192,33321,1,0,0:0:0:0:
256,192,33479,1,8,0:0:0:0:
256,192,33637,1,4,0:0:0:0:
256,192,33953,1,8,0:0:0:0:
256,192,34269,1,12,0:0:0:0:
256,192,34427,1,0,0:0:0:0:
256,192,34742,1,0,0:0:0:0:
256,192,34900,1,12,0:0:0:0:
256,192,35216,1,0,0:0:0:0:
256,192,35532,1,12,0:0:0:0:
256,192,35848,1,0,0:0:0:0:
256,192,36005,1,0,0:0:0:0:
256,192,36163,1,12,0:0:0:0:
256,192,36479,1,0,0:0:0:0:
256,192,36795,1,8,0:0:0:0:
256,192,36953,1,8,0:0:0:0:
256,192,37111,1,0,0:0:0:0:
256,192,37269,1,0,0:0:0:0:
256,192,37427,1,8,0:0:0:0:
256,192,37584,1,8,0:0:0:0:
256,192,37742,1,0,0:0:0:0:
256,192,37900,1,0,0:0:0:0:
256,192,38058,1,8,0:0:0:0:
256,192,38216,1,0,0:0:0:0:
256,192,38374,1,8,0:0:0:0:
256,192,38532,1,8,0:0:0:0:
256,192,38690,1,0,0:0:0:0:
256,192,38848,1,8,0:0:0:0:
256,192,39005,1,0,0:0:0:0:
256,192,39163,1,0,0:0:0:0:
256,192,39321,1,8,0:0:0:0:
256,192,39400,1,0,0:0:0:0:
256,192,39479,1,0,0:0:0:0:
256,192,39558,1,0,0:0:0:0:
256,192,39637,1,8,0:0:0:0:
256,192,39716,1,8,0:0:0:0:
256,192,39795,1,0,0:0:0:0:
256,192,39874,1,0,0:0:0:0:
256,192,39953,1,8,0:0:0:0:
256,192,40032,1,0,0:0:0:0:
256,192,40111,1,0,0:0:0:0:
256,192,40190,1,8,0:0:0:0:
256,192,40269,1,0,0:0:0:0:
256,192,40348,1,0,0:0:0:0:
256,192,40427,1,8,0:0:0:0:
256,192,40505,1,0,0:0:0:0:
256,192,40584,1,8,0:0:0:0:
256,192,40690,1,0,0:0:0:0:
256,192,40795,1,0,0:0:0:0:
256,192,40900,1,8,0:0:0:0:
256,192,41005,1,8,0:0:0:0:
256,192,41111,1,0,0:0:0:0:
256,192,41163,1,0,0:0:0:0:
256,192,41216,1,8,0:0:0:0:
256,192,41321,1,0,0:0:0:0:
256,192,41427,1,0,0:0:0:0:
256,192,41532,1,8,0:0:0:0:
256,192,41848,1,0,0:0:0:0:
256,192,42163,1,8,0:0:0:0:
256,192,42479,1,8,0:0:0:0:
256,192,42795,1,8,0:0:0:0:
256,192,43111,1,0,0:0:0:0:
256,192,43427,1,8,0:0:0:0:
256,192,43742,1,0,0:0:0:0:
256,192,44058,1,8,0:0:0:0:
256,192,44374,1,0,0:0:0:0:
256,192,44584,1,8,0:0:0:0:
256,192,44795,1,8,0:0:0:0:
256,192,45005,1,0,0:0:0:0:
256,192,45216,1,8,0:0:0:0:
256,192,45427,1,8,0:0:0:0:
256,192,45637,1,0,0:0:0:0:
256,192,45848,1,8,0:0:0:0:
256,192,46058,1,8,0:0:0:0:
256,192,46269,1,0,0:0:0:0:
256,192,46900,1,4,0:0:0:0:
256,192,47532,1,12,0:0:0:0:
256,192,48163,1,8,0:0:0:0:
256,192,48479,1,0,0:0:0:0:
256,192,48795,1,12,0:0:0:0:
256,192,49427,1,4,0:0:0:0:
256,192,50058,1,12,0:0:0:0:
256,192,50690,1,4,0:0:0:0:
256,192,51163,1,0,0:0:0:0:
256,192,51321,1,12,0:0:0:0:
256,192,51953,1,4,0:0:0:0:
256,192,52269,1,4,0:0:0:0:
256,192,52584,1,12,0:0:0:0:
256,192,53216,1,12,0:0:0:0:
256,192,53532,1,4,0:0:0:0:
256,192,53848,1,12,0:0:0:0:
256,192,54163,1,0,0:0:0:0:
256,192,54321,1,8,0:0:0:0:
256,192,54479,1,0,0:0:0:0:
256,192,54637,1,0,0:0:0:0:
256,192,54795,1,8,0:0:0:0:
256,192,54953,1,0,0:0:0:0:
256,192,55032,1,8,0:0:0:0:
256,192,55111,1,0,0:0:0:0:
256,192,55190,1,8,0:0:0:0:
256,192,55269,1,0,0:0:0:0:
256,192,55427,1,8,0:0:0:0:
256,192,55584,1,8,0:0:0:0:
256,192,55742,1,0,0:0:0:0:
256,192,55900,1,0,0:0:0:0:
256,192,56058,1,8,0:0:0:0:
256,192,56216,1,8,0:0:0:0:
256,192,56374,1,0,0:0:0:0:
256,192,56532,1,8,0:0:0:0:
256,192,56848,1,0,0:0:0:0:
256,192,56927,1,0,0:0:0:0:
256,192,57005,1,8,0:0:0:0:
256,192,57163,1,0,0:0:0:0:
256,192,57321,1,8,0:0:0:0:
256,192,57400,1,0,0:0:0:0:
256,192,57479,1,8,0:0:0:0:
256,192,57558,1,8,0:0:0:0:
256,192,57637,1,0,0:0:0:0:
256,192,57795,1,0,0:0:0:0:
256,192,57953,1,8,0:0:0:0:
256,192,58111,1,0,0:0:0:0:
256,192,58190,1,8,0:0:0:0:
256,192,58269,1,8,0:0:0:0:
256,192,58427,1,0,0:0:0:0:
256,192,58584,1,8,0:0:0:0:
256,192,58742,1,0,0:0:0:0:
256,192,58821,1,0,0:0:0:0:
256,192,58900,1,8,0:0:0:0:
256,192,58979,1,0,0:0:0:0:
256,192,59058,1,8,0:0:0:0:
256,192,59137,1,8,0:0:0:0:
256,192,59216,1,0,0:0:0:0:
256,192,59295,1,0,0:0:0:0:
256,192,59374,1,8,0:0:0:0:
256,192,59453,1,0,0:0:0:0:
256,192,59532,1,8,0:0:0:0:
256,192,59690,1,0,0:0:0:0:
256,192,59848,1,8,0:0:0:0:
256,192,60005,1,8,0:0:0:0:
256,192,60084,1,0,0:0:0:0:
256,192,60163,1,8,0:0:0:0:
256,192,60242,1,8,0:0:0:0:
256,192,60321,1,0,0:0:0:0:
256,192,60479,1,8,0:0:0:0:
256,192,60558,1,8,0:0:0:0:
256,192,60637,1,0,0:0:0:0:
256,192,60795,1,8,0:0:0:0:
256,192,60953,1,8,0:0:0:0:
256,192,61032,1,0,0:0:0:0:
256,192,61111,1,8,0:0:0:0:
256,192,61269,1,8,0:0:0:0:
256,192,61348,1,0,0:0:0:0:
256,192,61427,1,8,0:0:0:0:
256,192,61505,1,8,0:0:0:0:
256,192,61584,1,0,0:0:0:0:
256,192,61663,1,8,0:0:0:0:
256,192,61742,1,0,0:0:0:0:
256,192,61821,1,0,0:0:0:0:
256,192,61900,1,8,0:0:0:0:
256,192,61979,1,0,0:0:0:0:
256,192,62058,1,8,0:0:0:0:
256,192,62216,1,0,0:0:0:0:
256,192,62374,1,8,0:0:0:0:
256,192,62532,1,8,0:0:0:0:
256,192,62611,1,8,0:0:0:0:
256,192,62690,1,0,0:0:0:0:
256,192,62848,1,0,0:0:0:0:
256,192,63005,1,8,0:0:0:0:
256,192,63084,1,0,0:0:0:0:
256,192,63163,1,0,0:0:0:0:
256,192,63242,1,8,0:0:0:0:
256,192,63321,1,0,0:0:0:0:
256,192,63558,1,0,0:0:0:0:
256,192,63637,1,8,0:0:0:0:
256,192,63795,1,8,0:0:0:0:
256,192,63874,1,0,0:0:0:0:
256,192,63953,1,8,0:0:0:0:
256,192,64111,1,0,0:0:0:0:
256,192,64269,1,8,0:0:0:0:
256,192,64427,1,8,0:0:0:0:
256,192,64505,1,8,0:0:0:0:
256,192,64584,1,0,0:0:0:0:
256,192,64742,1,8,0:0:0:0:
256,192,64900,1,0,0:0:0:0:
256,192,65058,1,8,0:0:0:0:
256,192,65216,1,0,0:0:0:0:
256,192,65374,1,8,0:0:0:0:
256,192,65532,1,0,0:0:0:0:
256,192,65690,1,8,0:0:0:0:
256,192,65848,1,0,0:0:0:0:
256,192,65927,1,0,0:0:0:0:
256,192,66005,1,8,0:0:0:0:
256,192,66084,1,8,0:0:0:0:
256,192,66163,1,8,0:0:0:0:
256,192,66242,1,0,0:0:0:0:
256,192,66321,1,8,0:0:0:0:
256,192,66400,1,0,0:0:0:0:
256,192,66479,1,8,0:0:0:0:
256,192,66558,1,0,0:0:0:0:
256,192,66637,1,0,0:0:0:0:
256,192,66716,1,8,0:0:0:0:
256,192,66795,1,0,0:0:0:0:
256,192,66874,1,0,0:0:0:0:
256,192,66953,1,8,0:0:0:0:
256,192,67032,1,0,0:0:0:0:
256,192,67111,1,8,0:0:0:0:
256,192,67269,1,0,0:0:0:0:
256,192,67427,1,8,0:0:0:0:
256,192,67584,1,8,0:0:0:0:
256,192,67742,1,8,0:0:0:0:
256,192,67821,1,8,0:0:0:0:
256,192,67900,1,0,0:0:0:0:
256,192,67979,1,8,0:0:0:0:
256,192,68058,1,0,0:0:0:0:
256,192,68137,1,8,0:0:0:0:
256,192,68216,1,0,0:0:0:0:
256,192,68295,1,8,0:0:0:0:
256,192,68374,1,0,0:0:0:0:
256,192,68453,1,0,0:0:0:0:
256,192,68532,1,8,0:0:0:0:
256,192,68611,1,0,0:0:0:0:
256,192,68690,1,8,0:0:0:0:
256,192,68769,1,8,0:0:0:0:
256,192,68848,1,0,0:0:0:0:
256,192,68927,1,8,0:0:0:0:
256,192,69005,1,0,0:0:0:0:
256,192,69084,1,0,0:0:0:0:
256,192,69163,1,8,0:0:0:0:
256,192,69242,1,8,0:0:0:0:
256,192,69321,1,0,0:0:0:0:
256,192,69400,1,8,0:0:0:0:
256,192,69479,1,8,0:0:0:0:
256,192,69558,1,0,0:0:0:0:
256,192,69637,1,8,0:0:0:0:
256,192,69716,1,0,0:0:0:0:
256,192,69795,1,8,0:0:0:0:
256,192,69874,1,8,0:0:0:0:
256,192,69953,1,0,0:0:0:0:
256,192,70032,1,8,0:0:0:0:
256,192,70111,1,0,0:0:0:0:
256,192,70190,1,0,0:0:0:0:
256,192,70269,1,8,0:0:0:0:
256,192,70348,1,8,0:0:0:0:
256,192,70427,1,0,0:0:0:0:
256,192,70505,1,8,0:0:0:0:
256,192,70584,1,0,0:0:0:0:
256,192,70663,1,0,0:0:0:0:
256,192,70742,1,8,0:0:0:0:
256,192,70821,1,0,0:0:0:0:
256,192,70900,1,8,0:0:0:0:
256,192,70979,1,0,0:0:0:0:
256,192,71058,1,8,0:0:0:0:
256,192,71137,1,8,0:0:0:0:
256,192,71216,1,0,0:0:0:0:
256,192,71295,1,0,0:0:0:0:
256,192,71374,1,8,0:0:0:0:
256,192,71453,1,0,0:0:0:0:
256,192,71532,1,8,0:0:0:0:
256,192,71611,1,0,0:0:0:0:
256,192,71690,1,0,0:0:0:0:
256,192,71769,1,8,0:0:0:0:
256,192,71848,1,0,0:0:0:0:
256,192,71927,1,0,0:0:0:0:
256,192,72005,1,8,0:0:0:0:
256,192,72084,1,0,0:0:0:0:
256,192,72163,1,8,0:0:0:0:
256,192,72242,1,0,0:0:0:0:
256,192,72321,1,0,0:0:0:0:
256,192,72400,1,8,0:0:0:0:
256,192,72558,1,0,0:0:0:0:
256,192,72637,1,8,0:0:0:0:
256,192,72716,1,0,0:0:0:0:
256,192,72795,1,8,0:0:0:0:
256,192,72874,1,8,0:0:0:0:
256,192,72953,1,8,0:0:0:0:
256,192,73111,1,0,0:0:0:0:
256,192,73190,1,0,0:0:0:0:
256,192,73269,1,8,0:0:0:0:
256,192,73348,1,8,0:0:0:0:
256,192,73427,1,0,0:0:0:0:
256,192,73505,1,0,0:0:0:0:
256,192,73584,1,0,0:0:0:0:
256,192,73663,1,8,0:0:0:0:
256,192,73742,1,8,0:0:0:0:
256,192,73821,1,0,0:0:0:0:
256,192,73900,1,8,0:0:0:0:
256,192,73979,1,0,0:0:0:0:
256,192,74058,1,8,0:0:0:0:
256,192,74137,1,0,0:0:0:0:
256,192,74216,1,8,0:0:0:0:
256,192,74295,1,0,0:0:0:0:
256,192,74374,1,8,0:0:0:0:
256,192,74453,1,0,0:0:0:0:
256,192,74532,1,0,0:0:0:0:
256,192,74611,1,8,0:0:0:0:
256,192,74690,1,0,0:0:0:0:
256,192,74769,1,0,0:0:0:0:
256,192,74848,1,8,0:0:0:0:
256,192,74927,1,0,0:0:0:0:
256,192,75005,1,8,0:0:0:0:
256,192,75084,1,0,0:0:0:0:
256,192,75163,1,8,0:0:0:0:
256,192,75242,1,8,0:0:0:0:
256,192,75321,1,0,0:0:0:0:
256,192,75400,1,8,0:0:0:0:
256,192,75479,1,0,0:0:0:0:
256,192,75558,1,8,0:0:0:0:
256,192,75637,1,0,0:0:0:0:
256,192,75716,1,0,0:0:0:0:
256,192,75795,1,8,0:0:0:0:
256,192,75874,1,0,0:0:0:0:
256,192,75953,1,0,0:0:0:0:
256,192,76032,1,8,0:0:0:0:
256,192,76111,1,0,0:0:0:0:
256,192,76190,1,8,0:0:0:0:
256,192,76269,1,0,0:0:0:0:
256,192,76348,1,8,0:0:0:0:
256,192,76427,1,8,0:0:0:0:
256,192,76505,1,0,0:0:0:0:
256,192,76584,1,8,0:0:0:0:
256,192,76663,1,8,0:0:0:0:
256,192,76742,1,0,0:0:0:0:
256,192,76821,1,8,0:0:0:0:
256,192,76900,1,8,0:0:0:0:
256,192,76979,1,0,0:0:0:0:
256,192,77058,1,8,0:0:0:0:
256,192,77137,1,0,0:0:0:0:
256,192,77216,1,8,0:0:0:0:
256,192,77532,1,12,0:0:0:0:
256,192,77848,1,12,0:0:0:0:
256,192,78084,1,12,0:0:0:0:
256,192,78321,1,12,0:0:0:0:
256,192,78637,1,12,0:0:0:0:
256,192,78795,1,12,0:0:0:0:
256,192,79111,1,12,0:0:0:0:
256,192,79348,1,12,0:0:0:0:
256,192,79584,1,12,0:0:0:0:
256,192,79742,1,4,0:0:0:0:
256,192,80058,1,4,0:0:0:0:
256,192,80374,1,4,0:0:0:0:
256,192,80611,1,4,0:0:0:0:
256,192,80848,1,4,0:0:0:0:
256,192,81163,1,0,0:0:0:0:
256,192,81242,1,0,0:0:0:0:
256,192,81321,1,0,0:0:0:0:
256,192,81637,1,12,0:0:0:0:
256,192,81874,1,12,0:0:0:0:
256,192,82111,1,12,0:0:0:0:
256,192,82269,1,4,0:0:0:0:
256,192,82505,1,0,0:0:0:0:
256,192,82584,1,8,0:0:0:0:
256,192,82742,1,0,0:0:0:0:
256,192,82900,1,8,0:0:0:0:
256,192,83058,1,0,0:0:0:0:
256,192,83137,1,8,0:0:0:0:
256,192,83374,1,8,0:0:0:0:
256,192,83690,1,8,0:0:0:0:
256,192,83848,1,8,0:0:0:0:
256,192,84005,1,0,0:0:0:0:
256,192,84163,1,8,0:0:0:0:
256,192,84321,1,0,0:0:0:0:
256,192,84400,1,8,0:0:0:0:
256,192,84637,1,8,0:0:0:0:
256,192,84795,1,8,0:0:0:0:
256,192,84874,1,8,0:0:0:0:
256,192,84953,1,0,0:0:0:0:
256,192,85032,1,8,0:0:0:0:
256,192,85111,1,0,0:0:0:0:
256,192,85190,1,0,0:0:0:0:
256,192,85269,1,8,0:0:0:0:
256,192,85348,1,0,0:0:0:0:
256,192,85427,1,8,0:0:0:0:
256,192,85505,1,8,0:0:0:0:
256,192,85584,1,0,0:0:0:0:
256,192,85663,1,8,0:0:0:0:
256,192,85742,1,0,0:0:0:0:
256,192,85821,1,0,0:0:0:0:
256,192,85900,1,8,0:0:0:0:
256,192,85979,1,0,0:0:0:0:
256,192,86058,1,8,0:0:0:0:
256,192,86163,1,0,0:0:0:0:
256,192,86269,1,0,0:0:0:0:
256,192,86374,1,8,0:0:0:0:
256,192,86479,1,8,0:0:0:0:
256,192,86584,1,0,0:0:0:0:
256,192,86637,1,0,0:0:0:0:
256,192,86690,1,8,0:0:0:0:
256,192,86795,1,0,0:0:0:0:
256,192,86900,1,8,0:0:0:0:
256,192,87005,1,0,0:0:0:0:
256,192,87321,1,8,0:0:0:0:
256,192,87427,1,0,0:0:0:0:
256,192,87532,1,0,0:0:0:0:
256,192,87637,1,8,0:0:0:0:
256,192,87742,1,8,0:0:0:0:
256,192,87848,1,0,0:0:0:0:
256,192,87953,1,8,0:0:0:0:
256,192,88058,1,8,0:0:0:0:
256,192,88163,1,0,0:0:0:0:
256,192,88269,1,0,0:0:0:0:
256,192,88584,1,8,0:0:0:0:
256,192,88690,1,8,0:0:0:0:
256,192,88795,1,0,0:0:0:0:
256,192,88900,1,8,0:0:0:0:
256,192,89005,1,0,0:0:0:0:
256,192,89111,1,0,0:0:0:0:
256,192,89216,1,8,0:0:0:0:
256,192,89321,1,8,0:0:0:0:
256,192,89427,1,8,0:0:0:0:
256,192,89532,1,0,0:0:0:0:
256,192,89848,1,8,0:0:0:0:
256,192,89954,1,8,0:0:0:0:
256,192,90059,1,0,0:0:0:0:
256,192,90164,1,8,0:0:0:0:
256,192,90269,1,8,0:0:0:0:
256,192,90374,1,0,0:0:0:0:
256,192,90480,1,8,0:0:0:0:
256,192,90585,1,0,0:0:0:0:
256,192,90690,1,8,0:0:0:0:
256,192,90796,1,0,0:0:0:0:
256,192,91111,1,8,0:0:0:0:
256,192,91217,1,0,0:0:0:0:
256,192,91322,1,0,0:0:0:0:
256,192,91427,1,8,0:0:0:0:
256,192,91532,1,0,0:0:0:0:
256,192,91638,1,0,0:0:0:0:
256,192,91743,1,8,0:0:0:0:
256,192,91848,1,8,0:0:0:0:
256,192,91953,1,8,0:0:0:0:
256,192,92059,1,0,0:0:0:0:
256,192,92374,1,8,0:0:0:0:
256,192,92480,1,0,0:0:0:0:
256,192,92585,1,0,0:0:0:0:
256,192,92690,1,8,0:0:0:0:
256,192,92795,1,0,0:0:0:0:
256,192,92901,1,8,0:0:0:0:
256,192,93006,1,0,0:0:0:0:
256,192,93111,1,8,0:0:0:0:
256,192,93216,1,8,0:0:0:0:
256,192,93322,1,0,0:0:0:0:
256,192,93427,1,0,0:0:0:0:
256,192,93532,1,8,0:0:0:0:
256,192,93637,1,0,0:0:0:0:
256,192,93742,1,8,0:0:0:0:
256,192,93848,1,8,0:0:0:0:
256,192,93953,1,0,0:0:0:0:
256,192,94058,1,0,0:0:0:0:
256,192,94163,1,8,0:0:0:0:
256,192,94269,1,0,0:0:0:0:
256,192,94374,1,8,0:0:0:0:
256,192,94479,1,8,0:0:0:0:
256,192,94584,1,0,0:0:0:0:
256,192,94690,1,0,0:0:0:0:
256,192,94795,1,8,0:0:0:0:
256,192,94900,1,0,0:0:0:0:
256,192,95005,1,8,0:0:0:0:
256,192,95111,1,0,0:0:0:0:
256,192,95216,1,8,0:0:0:0:
256,192,95321,1,8,0:0:0:0:
256,192,95427,1,0,0:0:0:0:
256,192,95532,1,8,0:0:0:0:
256,192,95637,1,8,0:0:0:0:
256,192,95742,1,0,0:0:0:0:
256,192,95848,1,8,0:0:0:0:
256,192,95953,1,8,0:0:0:0:
256,192,96058,1,0,0:0:0:0:
256,192,96163,1,8,0:0:0:0:
256,192,96795,1,8,0:0:0:0:
256,192,97111,1,0,0:0:0:0:
256,192,97427,1,12,0:0:0:0:
256,192,97900,1,0,0:0:0:0:
256,192,98058,1,12,0:0:0:0:
256,192,98690,1,12,0:0:0:0:
256,192,99005,1,0,0:0:0:0:
256,192,99163,1,0,0:0:0:0:
256,192,99321,1,12,0:0:0:0:
256,192,99479,1,0,0:0:0:0:
256,192,99558,1,0,0:0:0:0:
256,192,99637,1,8,0:0:0:0:
256,192,99795,1,8,0:0:0:0:
256,192,99953,1,0,0:0:0:0:
256,192,100111,1,8,0:0:0:0:
256,192,100190,1,8,0:0:0:0:
256,192,100269,1,0,0:0:0:0:
256,192,100427,1,8,0:0:0:0:
256,192,100584,1,0,0:0:0:0:
256,192,100663,1,0,0:0:0:0:
256,192,100742,1,8,0:0:0:0:
256,192,100821,1,8,0:0:0:0:
256,192,100900,1,0,0:0:0:0:
256,192,101058,1,8,0:0:0:0:
256,192,101216,1,8,0:0:0:0:
256,192,101374,1,8,0:0:0:0:
256,192,101453,1,0,0:0:0:0:
256,192,101532,1,8,0:0:0:0:
256,192,101690,1,0,0:0:0:0:
256,192,101848,1,8,0:0:0:0:
256,192,101927,1,0,0:0:0:0:
256,192,102005,1,0,0:0:0:0:
256,192,102084,1,8,0:0:0:0:
256,192,102163,1,0,0:0:0:0:
256,192,102242,1,0,0:0:0:0:
256,192,102321,1,8,0:0:0:0:
256,192,102400,1,8,0:0:0:0:
256,192,102479,1,0,0:0:0:0:
256,192,102637,1,8,0:0:0:0:
256,192,102795,1,0,0:0:0:0:
256,192,102953,1,8,0:0:0:0:
256,192,103032,1,8,0:0:0:0:
256,192,103111,1,0,0:0:0:0:
256,192,103190,1,0,0:0:0:0:
256,192,103269,1,8,0:0:0:0:
256,192,103427,1,8,0:0:0:0:
256,192,103584,1,0,0:0:0:0:
256,192,103663,1,0,0:0:0:0:
256,192,103742,1,8,0:0:0:0:
256,192,103900,1,8,0:0:0:0:
256,192,103979,1,0,0:0:0:0:
256,192,104058,1,8,0:0:0:0:
256,192,104137,1,8,0:0:0:0:
256,192,104216,1,0,0:0:0:0:
256,192,104374,1,8,0:0:0:0:
256,192,104453,1,0,0:0:0:0:
256,192,104532,1,0,0:0:0:0:
256,192,104611,1,8,0:0:0:0:
256,192,104690,1,8,0:0:0:0:
256,192,104769,1,0,0:0:0:0:
256,192,104848,1,8,0:0:0:0:
256,192,104927,1,8,0:0:0:0:
256,192,105005,1,0,0:0:0:0:
256,192,105163,1,0,0:0:0:0:
256,192,105321,1,8,0:0:0:0:
256,192,105400,1,8,0:0:0:0:
256,192,105479,1,8,0:0:0:0:
256,192,105637,1,0,0:0:0:0:
256,192,105795,1,0,0:0:0:0:
256,192,105953,1,8,0:0:0:0:
256,192,106032,1,8,0:0:0:0:
256,192,106111,1,8,0:0:0:0:
256,192,106269,1,0,0:0:0:0:
256,192,106427,1,0,0:0:0:0:
256,192,106584,1,8,0:0:0:0:
256,192,106742,1,0,0:0:0:0:
256,192,106821,1,0,0:0:0:0:
256,192,106900,1,8,0:0:0:0:
256,192,107058,1,8,0:0:0:0:
256,192,107374,1,8,0:0:0:0:
256,192,107532,1,0,0:0:0:0:
256,192,107611,1,0,0:0:0:0:
256,192,107690,1,8,0:0:0:0:
256,192,107848,1,0,0:0:0:0:
256,192,108005,1,8,0:0:0:0:
256,192,108084,1,8,0:0:0:0:
256,192,108163,1,0,0:0:0:0:
256,192,108321,1,0,0:0:0:0:
256,192,108479,1,8,0:0:0:0:
256,192,108637,1,0,0:0:0:0:
256,192,108716,1,0,0:0:0:0:
256,192,108795,1,8,0:0:0:0:
256,192,108874,1,8,0:0:0:0:
256,192,108953,1,0,0:0:0:0:
256,192,109111,1,8,0:0:0:0:
256,192,109269,1,8,0:0:0:0:
256,192,109348,1,0,0:0:0:0:
256,192,109427,1,8,0:0:0:0:
256,192,109505,1,8,0:0:0:0:
256,192,109584,1,0,0:0:0:0:
256,192,109663,1,8,0:0:0:0:
256,192,109742,1,0,0:0:0:0:
256,192,109821,1,0,0:0:0:0:
256,192,109900,1,8,0:0:0:0:
256,192,110058,1,0,0:0:0:0:
256,192,110137,1,0,0:0:0:0:
256,192,110216,1,0,0:0:0:0:
256,192,110295,1,0,0:0:0:0:
256,192,110374,1,8,0:0:0:0:
256,192,110532,1,8,0:0:0:0:
256,192,110611,1,0,0:0:0:0:
256,192,110690,1,8,0:0:0:0:
256,192,110848,1,0,0:0:0:0:
256,192,111005,1,8,0:0:0:0:
256,192,111163,1,8,0:0:0:0:
256,192,111242,1,8,0:0:0:0:
256,192,111321,1,0,0:0:0:0:
256,192,111479,1,0,0:0:0:0:
256,192,111637,1,8,0:0:0:0:
256,192,111795,1,0,0:0:0:0:
256,192,111874,1,0,0:0:0:0:
256,192,111953,1,0,0:0:0:0:
256,192,112111,1,8,0:0:0:0:
256,192,112269,1,8,0:0:0:0:
256,192,112348,1,0,0:0:0:0:
256,192,112427,1,0,0:0:0:0:
256,192,112505,1,8,0:0:0:0:
256,192,112584,1,0,0:0:0:0:
256,192,112742,1,0,0:0:0:0:
256,192,112900,1,8,0:0:0:0:
256,192,113058,1,0,0:0:0:0:
256,192,113137,1,8,0:0:0:0:
256,192,113216,1,0,0:0:0:0:
256,192,113374,1,0,0:0:0:0:
256,192,113532,1,8,0:0:0:0:
256,192,113611,1,8,0:0:0:0:
256,192,113690,1,0,0:0:0:0:
256,192,113769,1,0,0:0:0:0:
256,192,113848,1,8,0:0:0:0:
256,192,114005,1,0,0:0:0:0:
256,192,114163,1,8,0:0:0:0:
256,192,114321,1,0,0:0:0:0:
256,192,114400,1,0,0:0:0:0:
256,192,114479,1,8,0:0:0:0:
256,192,114637,1,8,0:0:0:0:
256,192,114716,1,0,0:0:0:0:
256,192,114795,1,8,0:0:0:0:
256,192,114953,1,0,0:0:0:0:
256,192,115111,1,8,0:0:0:0:
256,192,115269,1,8,0:0:0:0:
256,192,115427,1,8,0:0:0:0:
256,192,115584,1,0,0:0:0:0:
256,192,115742,1,8,0:0:0:0:
256,192,115900,1,0,0:0:0:0:
256,192,116058,1,8,0:0:0:0:
256,192,116216,1,0,0:0:0:0:
256,192,116374,1,8,0:0:0:0:
256,192,116453,1,8,0:0:0:0:
256,192,116532,1,0,0:0:0:0:
256,192,116611,1,0,0:0:0:0:
256,192,116690,1,8,0:0:0:0:
256,192,116769,1,0,0:0:0:0:
256,192,116848,1,8,0:0:0:0:
256,192,117005,1,4,0:0:0:0:
256,192,117242,1,4,0:0:0:0:
256,192,117479,1,4,0:0:0:0:
256,192,117637,1,12,0:0:0:0:
